  0
SECTION
  2
HEADER
  9
$ACADVER
  1
AC1021
  9
$ACADMAINTVER
 70
     1
  9
$DWGCODEPAGE
  3
ANSI_936
  9
$LASTSAVEDBY
  1
Andy
  9
$INSBASE
 10
0.0
 20
0.0
 30
0.0
  9
$EXTMIN
 10
169.8431956450381
 20
160.3175116499074
 30
0.0
  9
$EXTMAX
 10
621.2402544685673
 20
634.8260589359734
 30
0.0
  9
$LIMMIN
 10
0.0
 20
0.0
  9
$LIMMAX
 10
420.0
 20
297.0
  9
$ORTHOMODE
 70
     1
  9
$REGENMODE
 70
     1
  9
$FILLMODE
 70
     1
  9
$QTEXTMODE
 70
     0
  9
$MIRRTEXT
 70
     0
  9
$LTSCALE
 40
1.0
  9
$ATTMODE
 70
     1
  9
$TEXTSIZE
 40
2.5
  9
$TRACEWID
 40
1.0
  9
$TEXTSTYLE
  7
Standard
  9
$CLAYER
  8
0
  9
$CELTYPE
  6
ByLayer
  9
$CECOLOR
 62
     1
  9
$CELTSCALE
 40
1.0
  9
$DISPSILH
 70
     0
  9
$DIMSCALE
 40
1.0
  9
$DIMASZ
 40
2.5
  9
$DIMEXO
 40
0.625
  9
$DIMDLI
 40
3.75
  9
$DIMRND
 40
0.0
  9
$DIMDLE
 40
0.0
  9
$DIMEXE
 40
1.25
  9
$DIMTP
 40
0.0
  9
$DIMTM
 40
0.0
  9
$DIMTXT
 40
15.0
  9
$DIMCEN
 40
2.5
  9
$DIMTSZ
 40
0.0
  9
$DIMTOL
 70
     0
  9
$DIMLIM
 70
     0
  9
$DIMTIH
 70
     0
  9
$DIMTOH
 70
     0
  9
$DIMSE1
 70
     0
  9
$DIMSE2
 70
     0
  9
$DIMTAD
 70
     1
  9
$DIMZIN
 70
     8
  9
$DIMBLK
  1

  9
$DIMASO
 70
     1
  9
$DIMSHO
 70
     1
  9
$DIMPOST
  1

  9
$DIMAPOST
  1

  9
$DIMALT
 70
     0
  9
$DIMALTD
 70
     3
  9
$DIMALTF
 40
0.03937007874016
  9
$DIMLFAC
 40
1.0
  9
$DIMTOFL
 70
     1
  9
$DIMTVP
 40
0.0
  9
$DIMTIX
 70
     0
  9
$DIMSOXD
 70
     0
  9
$DIMSAH
 70
     0
  9
$DIMBLK1
  1

  9
$DIMBLK2
  1

  9
$DIMSTYLE
  2
ISO-25
  9
$DIMCLRD
 70
     0
  9
$DIMCLRE
 70
     0
  9
$DIMCLRT
 70
     0
  9
$DIMTFAC
 40
1.0
  9
$DIMGAP
 40
0.625
  9
$DIMJUST
 70
     0
  9
$DIMSD1
 70
     0
  9
$DIMSD2
 70
     0
  9
$DIMTOLJ
 70
     0
  9
$DIMTZIN
 70
     8
  9
$DIMALTZ
 70
     0
  9
$DIMALTTZ
 70
     0
  9
$DIMUPT
 70
     0
  9
$DIMDEC
 70
     2
  9
$DIMTDEC
 70
     2
  9
$DIMALTU
 70
     2
  9
$DIMALTTD
 70
     3
  9
$DIMTXSTY
  7
Standard
  9
$DIMAUNIT
 70
     0
  9
$DIMADEC
 70
     0
  9
$DIMALTRND
 40
0.0
  9
$DIMAZIN
 70
     0
  9
$DIMDSEP
 70
    44
  9
$DIMATFIT
 70
     3
  9
$DIMFRAC
 70
     0
  9
$DIMLDRBLK
  1

  9
$DIMLUNIT
 70
     2
  9
$DIMLWD
 70
    -2
  9
$DIMLWE
 70
    -2
  9
$DIMTMOVE
 70
     0
  9
$DIMFXL
 40
1.0
  9
$DIMFXLON
 70
     0
  9
$DIMJOGANG
 40
0.7853981633974483
  9
$DIMTFILL
 70
     0
  9
$DIMTFILLCLR
 70
     0
  9
$DIMARCSYM
 70
     0
  9
$DIMLTYPE
  6

  9
$DIMLTEX1
  6

  9
$DIMLTEX2
  6

  9
$LUNITS
 70
     2
  9
$LUPREC
 70
     4
  9
$SKETCHINC
 40
1.0
  9
$FILLETRAD
 40
15.0
  9
$AUNITS
 70
     0
  9
$AUPREC
 70
     0
  9
$MENU
  1
.
  9
$ELEVATION
 40
0.0
  9
$PELEVATION
 40
0.0
  9
$THICKNESS
 40
0.0
  9
$LIMCHECK
 70
     0
  9
$CHAMFERA
 40
0.0
  9
$CHAMFERB
 40
0.0
  9
$CHAMFERC
 40
0.0
  9
$CHAMFERD
 40
0.0
  9
$SKPOLY
 70
     0
  9
$TDCREATE
 40
2457672.459862326
  9
$TDUCREATE
 40
2457672.126528994
  9
$TDUPDATE
 40
2457686.411594850
  9
$TDUUPDATE
 40
2457686.078261516
  9
$TDINDWG
 40
0.1501882986
  9
$TDUSRTIMER
 40
0.1501867477
  9
$USRTIMER
 70
     1
  9
$ANGBASE
 50
0.0
  9
$ANGDIR
 70
     0
  9
$PDMODE
 70
     0
  9
$PDSIZE
 40
0.0
  9
$PLINEWID
 40
0.0
  9
$SPLFRAME
 70
     0
  9
$SPLINETYPE
 70
     6
  9
$SPLINESEGS
 70
     8
  9
$HANDSEED
  5
5DD
  9
$SURFTAB1
 70
     6
  9
$SURFTAB2
 70
     6
  9
$SURFTYPE
 70
     6
  9
$SURFU
 70
     6
  9
$SURFV
 70
     6
  9
$UCSBASE
  2

  9
$UCSNAME
  2

  9
$UCSORG
 10
0.0
 20
0.0
 30
0.0
  9
$UCSXDIR
 10
1.0
 20
0.0
 30
0.0
  9
$UCSYDIR
 10
0.0
 20
1.0
 30
0.0
  9
$UCSORTHOREF
  2

  9
$UCSORTHOVIEW
 70
     0
  9
$UCSORGTOP
 10
0.0
 20
0.0
 30
0.0
  9
$UCSORGBOTTOM
 10
0.0
 20
0.0
 30
0.0
  9
$UCSORGLEFT
 10
0.0
 20
0.0
 30
0.0
  9
$UCSORGRIGHT
 10
0.0
 20
0.0
 30
0.0
  9
$UCSORGFRONT
 10
0.0
 20
0.0
 30
0.0
  9
$UCSORGBACK
 10
0.0
 20
0.0
 30
0.0
  9
$PUCSBASE
  2

  9
$PUCSNAME
  2

  9
$PUCSORG
 10
0.0
 20
0.0
 30
0.0
  9
$PUCSXDIR
 10
1.0
 20
0.0
 30
0.0
  9
$PUCSYDIR
 10
0.0
 20
1.0
 30
0.0
  9
$PUCSORTHOREF
  2

  9
$PUCSORTHOVIEW
 70
     0
  9
$PUCSORGTOP
 10
0.0
 20
0.0
 30
0.0
  9
$PUCSORGBOTTOM
 10
0.0
 20
0.0
 30
0.0
  9
$PUCSORGLEFT
 10
0.0
 20
0.0
 30
0.0
  9
$PUCSORGRIGHT
 10
0.0
 20
0.0
 30
0.0
  9
$PUCSORGFRONT
 10
0.0
 20
0.0
 30
0.0
  9
$PUCSORGBACK
 10
0.0
 20
0.0
 30
0.0
  9
$USERI1
 70
     0
  9
$USERI2
 70
     0
  9
$USERI3
 70
     0
  9
$USERI4
 70
     0
  9
$USERI5
 70
     0
  9
$USERR1
 40
0.0
  9
$USERR2
 40
0.0
  9
$USERR3
 40
0.0
  9
$USERR4
 40
0.0
  9
$USERR5
 40
0.0
  9
$WORLDVIEW
 70
     1
  9
$SHADEDGE
 70
     3
  9
$SHADEDIF
 70
    70
  9
$TILEMODE
 70
     1
  9
$MAXACTVP
 70
    64
  9
$PINSBASE
 10
0.0
 20
0.0
 30
0.0
  9
$PLIMCHECK
 70
     0
  9
$PEXTMIN
 10
0.0
 20
0.0
 30
0.0
  9
$PEXTMAX
 10
0.0
 20
0.0
 30
0.0
  9
$PLIMMIN
 10
0.0
 20
0.0
  9
$PLIMMAX
 10
12.0
 20
9.0
  9
$UNITMODE
 70
     0
  9
$VISRETAIN
 70
     1
  9
$PLINEGEN
 70
     0
  9
$PSLTSCALE
 70
     1
  9
$TREEDEPTH
 70
  3020
  9
$CMLSTYLE
  2
Standard
  9
$CMLJUST
 70
     0
  9
$CMLSCALE
 40
20.0
  9
$PROXYGRAPHICS
 70
     1
  9
$MEASUREMENT
 70
     1
  9
$CELWEIGHT
370
    -1
  9
$ENDCAPS
280
     0
  9
$JOINSTYLE
280
     0
  9
$LWDISPLAY
290
     0
  9
$INSUNITS
 70
     4
  9
$HYPERLINKBASE
  1

  9
$STYLESHEET
  1

  9
$XEDIT
290
     1
  9
$CEPSNTYPE
380
     0
  9
$PSTYLEMODE
290
     1
  9
$FINGERPRINTGUID
  2
{2D94E3D5-1E5D-47E6-9A30-812D1F93797F}
  9
$VERSIONGUID
  2
{B72EAE6C-BEF3-4D80-90D2-9A3861BC124C}
  9
$EXTNAMES
290
     1
  9
$PSVPSCALE
 40
0.0
  9
$OLESTARTUP
290
     0
  9
$SORTENTS
280
   127
  9
$INDEXCTL
280
     0
  9
$HIDETEXT
280
     1
  9
$XCLIPFRAME
290
     0
  9
$HALOGAP
280
     0
  9
$OBSCOLOR
 70
   257
  9
$OBSLTYPE
280
     0
  9
$INTERSECTIONDISPLAY
280
     0
  9
$INTERSECTIONCOLOR
 70
   257
  9
$DIMASSOC
280
     2
  9
$PROJECTNAME
  1

  9
$CAMERADISPLAY
290
     0
  9
$LENSLENGTH
 40
50.0
  9
$CAMERAHEIGHT
 40
0.0
  9
$STEPSPERSEC
 40
2.0
  9
$STEPSIZE
 40
6.0
  9
$3DDWFPREC
 40
2.0
  9
$PSOLWIDTH
 40
5.0
  9
$PSOLHEIGHT
 40
80.0
  9
$LOFTANG1
 40
1.570796326794896
  9
$LOFTANG2
 40
1.570796326794896
  9
$LOFTMAG1
 40
0.0
  9
$LOFTMAG2
 40
0.0
  9
$LOFTPARAM
 70
     7
  9
$LOFTNORMALS
280
     1
  9
$LATITUDE
 40
37.795
  9
$LONGITUDE
 40
-122.394
  9
$NORTHDIRECTION
 40
0.0
  9
$TIMEZONE
 70
 -8000
  9
$LIGHTGLYPHDISPLAY
280
     1
  9
$TILEMODELIGHTSYNCH
280
     1
  9
$CMATERIAL
347
ED
  9
$SOLIDHIST
280
     1
  9
$SHOWHIST
280
     1
  9
$DWFFRAME
280
     2
  9
$DGNFRAME
280
     0
  9
$REALWORLDSCALE
290
     1
  9
$INTERFERECOLOR
 62
     1
  9
$INTERFEREOBJVS
345
FA
  9
$INTERFEREVPVS
346
F7
  9
$CSHADOW
280
     0
  9
$SHADOWPLANELOCATION
 40
0.0
  0
ENDSEC
  0
SECTION
  2
CLASSES
  0
CLASS
  1
ACDBDICTIONARYWDFLT
  2
AcDbDictionaryWithDefault
  3
ObjectDBX Classes
 90
        0
 91
        1
280
     0
281
     0
  0
CLASS
  1
DICTIONARYVAR
  2
AcDbDictionaryVar
  3
ObjectDBX Classes
 90
        0
 91
        3
280
     0
281
     0
  0
CLASS
  1
TABLESTYLE
  2
AcDbTableStyle
  3
ObjectDBX Classes
 90
     4095
 91
        1
280
     0
281
     0
  0
CLASS
  1
MATERIAL
  2
AcDbMaterial
  3
ObjectDBX Classes
 90
     1024
 91
        3
280
     0
281
     0
  0
CLASS
  1
VISUALSTYLE
  2
AcDbVisualStyle
  3
ObjectDBX Classes
 90
     4095
 91
       16
280
     0
281
     0
  0
CLASS
  1
DIMASSOC
  2
AcDbDimAssoc
  3
"AcDbDimAssoc|Product Desc:     AcDim ARX App For Dimension|Company:          Autodesk, Inc.|WEB Address:      www.autodesk.com"
 90
        0
 91
        5
280
     0
281
     0
  0
CLASS
  1
SORTENTSTABLE
  2
AcDbSortentsTable
  3
ObjectDBX Classes
 90
        0
 91
        1
280
     0
281
     0
  0
ENDSEC
  0
SECTION
  2
TABLES
  0
TABLE
  2
VPORT
  5
8
330
0
100
AcDbSymbolTable
 70
     1
  0
VPORT
  5
EB
330
8
100
AcDbSymbolTableRecord
100
AcDbViewportTableRecord
  2
*Active
 70
     0
 10
0.0
 20
0.0
 11
1.0
 21
1.0
 12
368.1714202378901
 22
447.5650067146885
 13
0.0
 23
0.0
 14
10.0
 24
10.0
 15
10.0
 25
10.0
 16
0.0
 26
0.0
 36
1.0
 17
0.0
 27
0.0
 37
0.0
 40
310.3379916114116
 41
2.225806451612903
 42
50.0
 43
0.0
 44
0.0
 50
0.0
 51
0.0
 71
     0
 72
  1000
 73
     1
 74
     3
 75
     0
 76
     0
 77
     0
 78
     0
281
     0
 65
     1
110
0.0
120
0.0
130
0.0
111
1.0
121
0.0
131
0.0
112
0.0
122
1.0
132
0.0
 79
     0
146
0.0
348
F6
 60
     2
 61
     5
292
     1
282
     1
141
0.0
142
0.0
 63
   250
421
  3355443
  0
ENDTAB
  0
TABLE
  2
LTYPE
  5
5
330
0
100
AcDbSymbolTable
 70
     1
  0
LTYPE
  5
14
330
5
100
AcDbSymbolTableRecord
100
AcDbLinetypeTableRecord
  2
ByBlock
 70
     0
  3

 72
    65
 73
     0
 40
0.0
  0
LTYPE
  5
15
330
5
100
AcDbSymbolTableRecord
100
AcDbLinetypeTableRecord
  2
ByLayer
 70
     0
  3

 72
    65
 73
     0
 40
0.0
  0
LTYPE
  5
16
330
5
100
AcDbSymbolTableRecord
100
AcDbLinetypeTableRecord
  2
Continuous
 70
     0
  3
Solid line
 72
    65
 73
     0
 40
0.0
  0
ENDTAB
  0
TABLE
  2
LAYER
  5
2
330
0
100
AcDbSymbolTable
 70
     3
  0
LAYER
  5
10
330
2
100
AcDbSymbolTableRecord
100
AcDbLayerTableRecord
  2
0
 70
     0
 62
     7
  6
Continuous
370
    -3
390
F
347
EF
  0
LAYER
  5
132
330
2
100
AcDbSymbolTableRecord
100
AcDbLayerTableRecord
  2
Defpoints
 70
     0
 62
     7
  6
Continuous
290
     0
370
    -3
390
F
347
EF
  0
LAYER
  5
37A
330
2
100
AcDbSymbolTableRecord
100
AcDbLayerTableRecord
  2
_U+56FE_U+5C42 1
 70
     0
 62
     1
  6
Continuous
370
    -3
390
F
347
EF
  0
ENDTAB
  0
TABLE
  2
STYLE
  5
3
330
0
100
AcDbSymbolTable
 70
     1
  0
STYLE
  5
11
330
3
100
AcDbSymbolTableRecord
100
AcDbTextStyleTableRecord
  2
Standard
 70
     0
 40
0.0
 41
1.0
 50
0.0
 71
     0
 42
2.5
  3
txt
  4
gbcbig.shx
  0
ENDTAB
  0
TABLE
  2
VIEW
  5
6
330
0
100
AcDbSymbolTable
 70
     0
  0
ENDTAB
  0
TABLE
  2
UCS
  5
7
330
0
100
AcDbSymbolTable
 70
     0
  0
ENDTAB
  0
TABLE
  2
APPID
  5
9
330
0
100
AcDbSymbolTable
 70
     3
  0
APPID
  5
12
330
9
100
AcDbSymbolTableRecord
100
AcDbRegAppTableRecord
  2
ACAD
 70
     0
  0
APPID
  5
9E
330
9
100
AcDbSymbolTableRecord
100
AcDbRegAppTableRecord
  2
ACAD_PSEXT
 70
     0
  0
APPID
  5
300
330
9
100
AcDbSymbolTableRecord
100
AcDbRegAppTableRecord
  2
ACAD_EXEMPT_FROM_CAD_STANDARDS
 70
     0
  0
ENDTAB
  0
TABLE
  2
DIMSTYLE
  5
A
330
0
100
AcDbSymbolTable
 70
     2
100
AcDbDimStyleTable
 71
     1
340
27
  0
DIMSTYLE
105
27
102
{ACAD_REACTORS
330
4B4
330
4CC
330
4E4
330
4FC
330
514
102
}
330
A
100
AcDbSymbolTableRecord
100
AcDbDimStyleTableRecord
  2
ISO-25
 70
     0
 41
2.5
 42
0.625
 43
3.75
 44
1.25
 73
     0
 74
     0
 77
     1
 78
     8
140
15.0
141
2.5
143
0.03937007874016
147
0.625
171
     3
172
     1
271
     2
272
     2
274
     3
278
    44
283
     0
284
     8
340
11
  0
DIMSTYLE
105
37B
330
A
100
AcDbSymbolTableRecord
100
AcDbDimStyleTableRecord
  2
Standard
 70
     0
140
15.0
271
     1
272
     1
340
11
  0
ENDTAB
  0
TABLE
  2
BLOCK_RECORD
  5
1
330
0
100
AcDbSymbolTable
 70
    16
  0
BLOCK_RECORD
  5
1F
102
{ACAD_XDICTIONARY
360
2E8
102
}
330
1
100
AcDbSymbolTableRecord
100
AcDbBlockTableRecord
  2
*Model_Space
340
22
 70
     0
280
     1
281
     0
  0
BLOCK_RECORD
  5
D2
330
1
100
AcDbSymbolTableRecord
100
AcDbBlockTableRecord
  2
*Paper_Space
340
D3
 70
     0
280
     1
281
     0
  0
BLOCK_RECORD
  5
D6
330
1
100
AcDbSymbolTableRecord
100
AcDbBlockTableRecord
  2
*Paper_Space0
340
D7
 70
     0
280
     1
281
     0
  0
BLOCK_RECORD
  5
124
330
1
100
AcDbSymbolTableRecord
100
AcDbBlockTableRecord
  2
*D1
340
0
 70
     0
280
     1
281
     0
  0
BLOCK_RECORD
  5
227
330
1
100
AcDbSymbolTableRecord
100
AcDbBlockTableRecord
  2
*D2
340
0
 70
     0
280
     1
281
     0
  0
BLOCK_RECORD
  5
236
330
1
100
AcDbSymbolTableRecord
100
AcDbBlockTableRecord
  2
*D3
340
0
 70
     0
280
     1
281
     0
  0
BLOCK_RECORD
  5
257
330
1
100
AcDbSymbolTableRecord
100
AcDbBlockTableRecord
  2
*D4
340
0
 70
     0
280
     1
281
     0
  0
BLOCK_RECORD
  5
26F
330
1
100
AcDbSymbolTableRecord
100
AcDbBlockTableRecord
  2
*D5
340
0
 70
     0
280
     1
281
     0
  0
BLOCK_RECORD
  5
287
330
1
100
AcDbSymbolTableRecord
100
AcDbBlockTableRecord
  2
*D6
340
0
 70
     0
280
     1
281
     0
  0
BLOCK_RECORD
  5
2CC
330
1
100
AcDbSymbolTableRecord
100
AcDbBlockTableRecord
  2
*D7
340
0
 70
     0
280
     1
281
     0
  0
BLOCK_RECORD
  5
31C
330
1
100
AcDbSymbolTableRecord
100
AcDbBlockTableRecord
  2
*D8
340
0
 70
     0
280
     1
281
     0
  0
BLOCK_RECORD
  5
334
330
1
100
AcDbSymbolTableRecord
100
AcDbBlockTableRecord
  2
*D9
340
0
 70
     0
280
     1
281
     0
  0
BLOCK_RECORD
  5
3C1
330
1
100
AcDbSymbolTableRecord
100
AcDbBlockTableRecord
  2
*D10
340
0
 70
     0
280
     1
281
     0
  0
BLOCK_RECORD
  5
4B5
330
1
100
AcDbSymbolTableRecord
100
AcDbBlockTableRecord
  2
*D11
340
0
 70
     0
280
     1
281
     0
  0
BLOCK_RECORD
  5
4CD
330
1
100
AcDbSymbolTableRecord
100
AcDbBlockTableRecord
  2
*D12
340
0
 70
     0
280
     1
281
     0
  0
BLOCK_RECORD
  5
4E5
330
1
100
AcDbSymbolTableRecord
100
AcDbBlockTableRecord
  2
*D13
340
0
 70
     0
280
     1
281
     0
  0
BLOCK_RECORD
  5
4FD
330
1
100
AcDbSymbolTableRecord
100
AcDbBlockTableRecord
  2
*D14
340
0
 70
     0
280
     1
281
     0
  0
BLOCK_RECORD
  5
515
330
1
100
AcDbSymbolTableRecord
100
AcDbBlockTableRecord
  2
*D15
340
0
 70
     0
280
     1
281
     0
  0
ENDTAB
  0
ENDSEC
  0
SECTION
  2
BLOCKS
  0
BLOCK
  5
20
330
1F
100
AcDbEntity
  8
0
100
AcDbBlockBegin
  2
*Model_Space
 70
     0
 10
0.0
 20
0.0
 30
0.0
  3
*Model_Space
  1

  0
ENDBLK
  5
21
330
1F
100
AcDbEntity
  8
0
100
AcDbBlockEnd
  0
BLOCK
  5
D4
330
D2
100
AcDbEntity
 67
     1
  8
0
100
AcDbBlockBegin
  2
*Paper_Space
 70
     0
 10
0.0
 20
0.0
 30
0.0
  3
*Paper_Space
  1

  0
ENDBLK
  5
D5
330
D2
100
AcDbEntity
 67
     1
  8
0
100
AcDbBlockEnd
  0
BLOCK
  5
D8
330
D6
100
AcDbEntity
 67
     1
  8
0
100
AcDbBlockBegin
  2
*Paper_Space0
 70
     0
 10
0.0
 20
0.0
 30
0.0
  3
*Paper_Space0
  1

  0
ENDBLK
  5
D9
330
D6
100
AcDbEntity
 67
     1
  8
0
100
AcDbBlockEnd
  0
BLOCK
  5
125
330
124
100
AcDbEntity
  8
0
100
AcDbBlockBegin
  2
*D1
 70
     1
 10
0.0
 20
0.0
 30
0.0
  3
*D1
  1

  0
ARC
  5
126
330
124
100
AcDbEntity
  8
0
 62
     0
370
    -2
100
AcDbCircle
 10
820.1440614707191
 20
778.7270141100116
 30
0.0
 40
9.363290884661791
100
AcDbArc
 50
274.4786741392314
 51
289.8224645703653
  0
LINE
  5
127
330
124
100
AcDbEntity
  8
0
 62
     0
370
    -2
100
AcDbLine
 10
820.8752224214906
 20
769.3923143368611
 30
0.0
 11
787.2282791379157
 21
766.7568432837334
 31
0.0
  0
ARC
  5
128
330
124
100
AcDbEntity
  8
0
 62
     0
370
    -2
100
AcDbCircle
 10
820.1440614707191
 20
778.7270141100116
 30
0.0
 40
9.363290884661791
100
AcDbArc
 50
305.1662550014991
 51
344.6562095688662
  0
SOLID
  5
129
330
124
100
AcDbEntity
  8
0
 62
     0
100
AcDbTrace
 10
825.7292166182059
 20
770.7030644713335
 30
0.0
 11
825.3444988737225
 21
771.4422780409627
 31
0.0
 12
823.3192170370761
 22
769.9185180226979
 32
0.0
 13
823.3192170370761
 23
769.9185180226979
 33
0.0
  0
SOLID
  5
12A
330
124
100
AcDbEntity
  8
0
 62
     0
100
AcDbTrace
 10
828.7606651758471
 20
776.3050171308574
 30
0.0
 11
829.5865391787909
 21
776.1937670715036
 31
0.0
 12
829.5073523553806
 22
778.7270141100116
 32
0.0
 13
829.5073523553806
 23
778.7270141100116
 33
0.0
  0
MTEXT
  5
12B
330
124
100
AcDbEntity
  8
0
 62
     0
100
AcDbMText
 10
803.4172855261724
 20
776.1747688600467
 30
0.0
 40
15.0
 41
0.0
 46
0.0
 71
     5
 72
     1
  1
70°
 11
0.9969464676614869
 21
0.0780880312037882
 31
0.0
 73
     1
 44
1.0
  0
POINT
  5
12C
330
124
100
AcDbEntity
  8
Defpoints
 62
     0
100
AcDbPoint
 10
828.7377509169372
 20
775.0095259939921
 30
0.0
  0
POINT
  5
12D
330
124
100
AcDbEntity
  8
Defpoints
 62
     0
100
AcDbPoint
 10
820.1440614707191
 20
778.7270141100116
 30
0.0
  0
POINT
  5
12E
330
124
100
AcDbEntity
  8
Defpoints
 62
     0
100
AcDbPoint
 10
820.1440614707191
 20
778.7270141100116
 30
0.0
  0
POINT
  5
12F
330
124
100
AcDbEntity
  8
Defpoints
 62
     0
100
AcDbPoint
 10
1013.144061470719
 20
778.7270141100117
 30
0.0
  0
POINT
  5
130
330
124
100
AcDbEntity
  8
Defpoints
 62
     0
100
AcDbPoint
 10
835.6440614707192
 20
735.7270141100116
 30
0.0
  0
ENDBLK
  5
131
330
124
100
AcDbEntity
  8
0
100
AcDbBlockEnd
  0
BLOCK
  5
233
330
227
100
AcDbEntity
  8
0
100
AcDbBlockBegin
  2
*D2
 70
     1
 10
0.0
 20
0.0
 30
0.0
  3
*D2
  1

  0
ARC
  5
228
330
227
100
AcDbEntity
  8
0
 62
     0
370
    -2
100
AcDbCircle
 10
119.8849123198641
 20
309.29222674168
 30
0.0
 40
9.363290884661816
100
AcDbArc
 50
259.134883708098
 51
274.4786741392318
  0
ARC
  5
229
330
227
100
AcDbEntity
  8
0
 62
     0
370
    -2
100
AcDbCircle
 10
119.8849123198641
 20
309.29222674168
 30
0.0
 40
9.363290884661816
100
AcDbArc
 50
15.3437904311337
 51
30.68758086226756
  0
ARC
  5
22A
330
227
100
AcDbEntity
  8
0
 62
     0
370
    -2
100
AcDbCircle
 10
119.8849123198641
 20
309.29222674168
 30
0.0
 40
9.363290884661816
100
AcDbArc
 50
289.8224645703656
 51
0.0
  0
SOLID
  5
22B
330
227
100
AcDbEntity
  8
0
 62
     0
100
AcDbTrace
 10
120.5283726563296
 20
300.3648594044603
 30
0.0
 11
120.7037738849419
 21
299.5501945325984
 31
0.0
 12
123.0600678862214
 22
300.4837306543663
 32
0.0
 13
123.0600678862214
 23
300.4837306543663
 33
0.0
  0
SOLID
  5
22C
330
227
100
AcDbEntity
  8
0
 62
     0
100
AcDbTrace
 10
129.327390027936
 20
311.8254737801879
 30
0.0
 11
128.5015160249923
 21
311.714223720834
 31
0.0
 12
129.2482032045259
 22
309.2922267416799
 32
0.0
 13
129.2482032045259
 23
309.2922267416799
 33
0.0
  0
MTEXT
  5
22D
330
227
100
AcDbEntity
  8
0
 62
     0
100
AcDbMText
 10
126.0122993852831
 20
304.9876212866069
 30
0.0
 40
2.5
 41
0.0
 46
0.0
 71
     5
 72
     1
  1
70°
 11
0.5748448506307664
 21
0.8182624259388255
 31
0.0
 73
     1
 44
1.0
  0
POINT
  5
22E
330
227
100
AcDbEntity
  8
Defpoints
 62
     0
100
AcDbPoint
 10
126.2963098877468
 20
302.4683570611147
 30
0.0
  0
POINT
  5
22F
330
227
100
AcDbEntity
  8
Defpoints
 62
     0
100
AcDbPoint
 10
119.8849123198641
 20
309.29222674168
 30
0.0
  0
POINT
  5
230
330
227
100
AcDbEntity
  8
Defpoints
 62
     0
100
AcDbPoint
 10
119.8849123198641
 20
309.29222674168
 30
0.0
  0
POINT
  5
231
330
227
100
AcDbEntity
  8
Defpoints
 62
     0
100
AcDbPoint
 10
312.8849123198643
 20
309.29222674168
 30
0.0
  0
POINT
  5
232
330
227
100
AcDbEntity
  8
Defpoints
 62
     0
100
AcDbPoint
 10
135.3849123198644
 20
266.29222674168
 30
0.0
  0
ENDBLK
  5
234
330
227
100
AcDbEntity
  8
0
100
AcDbBlockEnd
  0
BLOCK
  5
240
330
236
100
AcDbEntity
  8
0
100
AcDbBlockBegin
  2
*D3
 70
     1
 10
0.0
 20
0.0
 30
0.0
  3
*D3
  1

  0
LINE
  5
2C2
330
236
100
AcDbEntity
  8
0
 62
     0
370
    -2
100
AcDbLine
 10
513.0129592966016
 20
559.0873582446882
 30
0.0
 11
514.512339360684
 21
559.0873582446882
 31
0.0
  0
LINE
  5
2C3
330
236
100
AcDbEntity
  8
0
 62
     0
370
    -2
100
AcDbLine
 10
513.0129592966016
 20
513.0873582446882
 30
0.0
 11
514.512339360684
 21
513.0873582446882
 31
0.0
  0
LINE
  5
2C4
330
236
100
AcDbEntity
  8
0
 62
     0
370
    -2
100
AcDbLine
 10
513.262339360684
 20
556.587358244688
 30
0.0
 11
513.262339360684
 21
515.587358244688
 31
0.0
  0
SOLID
  5
2C5
330
236
100
AcDbEntity
  8
0
 62
     0
100
AcDbTrace
 10
512.8456726940173
 20
556.587358244688
 30
0.0
 11
513.6790060273506
 21
556.587358244688
 31
0.0
 12
513.262339360684
 22
559.0873582446882
 32
0.0
 13
513.262339360684
 23
559.0873582446882
 33
0.0
  0
SOLID
  5
2C6
330
236
100
AcDbEntity
  8
0
 62
     0
100
AcDbTrace
 10
512.8456726940173
 20
515.587358244688
 30
0.0
 11
513.6790060273506
 21
515.587358244688
 31
0.0
 12
513.262339360684
 22
513.0873582446882
 32
0.0
 13
513.262339360684
 23
513.0873582446882
 33
0.0
  0
MTEXT
  5
2C7
330
236
100
AcDbEntity
  8
0
 62
     0
100
AcDbMText
 10
505.1373393606838
 20
536.0873582446883
 30
0.0
 40
15.0
 41
0.0
 46
0.0
 71
     5
 72
     1
  1
46
 11
0.0000000000000001
 21
1.0
 31
0.0
 73
     1
 44
1.0
  0
POINT
  5
2C8
330
236
100
AcDbEntity
  8
Defpoints
 62
     0
100
AcDbPoint
 10
512.3879592966017
 20
559.0873582446882
 30
0.0
  0
POINT
  5
2C9
330
236
100
AcDbEntity
  8
Defpoints
 62
     0
100
AcDbPoint
 10
512.3879592966017
 20
513.0873582446882
 30
0.0
  0
POINT
  5
2CA
330
236
100
AcDbEntity
  8
Defpoints
 62
     0
100
AcDbPoint
 10
513.262339360684
 20
513.0873582446882
 30
0.0
  0
ENDBLK
  5
241
330
236
100
AcDbEntity
  8
0
100
AcDbBlockEnd
  0
BLOCK
  5
261
330
257
100
AcDbEntity
  8
0
100
AcDbBlockBegin
  2
*D4
 70
     1
 10
0.0
 20
0.0
 30
0.0
  3
*D4
  1

  0
LINE
  5
2A7
330
257
100
AcDbEntity
  8
0
 62
     0
370
    -2
100
AcDbLine
 10
576.4379852124814
 20
654.9623582446883
 30
0.0
 11
576.4379852124814
 21
647.8586816139536
 31
0.0
  0
LINE
  5
2A8
330
257
100
AcDbEntity
  8
0
 62
     0
370
    -2
100
AcDbLine
 10
369.4379852124814
 20
654.9623582446883
 30
0.0
 11
369.4379852124814
 21
647.8586816139536
 31
0.0
  0
LINE
  5
2A9
330
257
100
AcDbEntity
  8
0
 62
     0
370
    -2
100
AcDbLine
 10
573.9379852124812
 20
649.1086816139536
 30
0.0
 11
371.9379852124814
 21
649.1086816139536
 31
0.0
  0
SOLID
  5
2AA
330
257
100
AcDbEntity
  8
0
 62
     0
100
AcDbTrace
 10
573.9379852124812
 20
649.5253482806202
 30
0.0
 11
573.9379852124812
 21
648.692014947287
 31
0.0
 12
576.4379852124814
 22
649.1086816139536
 32
0.0
 13
576.4379852124814
 23
649.1086816139536
 33
0.0
  0
SOLID
  5
2AB
330
257
100
AcDbEntity
  8
0
 62
     0
100
AcDbTrace
 10
371.9379852124814
 20
649.5253482806202
 30
0.0
 11
371.9379852124814
 21
648.692014947287
 31
0.0
 12
369.4379852124814
 22
649.1086816139536
 32
0.0
 13
369.4379852124814
 23
649.1086816139536
 33
0.0
  0
MTEXT
  5
2AC
330
257
100
AcDbEntity
  8
0
 62
     0
100
AcDbMText
 10
472.9379852124814
 20
657.2336816139536
 30
0.0
 40
15.0
 41
0.0
 46
0.0
 71
     5
 72
     1
  1
207
 73
     1
 44
1.0
  0
POINT
  5
2AD
330
257
100
AcDbEntity
  8
Defpoints
 62
     0
100
AcDbPoint
 10
576.4379852124814
 20
655.5873582446882
 30
0.0
  0
POINT
  5
2AE
330
257
100
AcDbEntity
  8
Defpoints
 62
     0
100
AcDbPoint
 10
369.4379852124814
 20
655.5873582446882
 30
0.0
  0
POINT
  5
2AF
330
257
100
AcDbEntity
  8
Defpoints
 62
     0
100
AcDbPoint
 10
369.4379852124814
 20
649.1086816139536
 30
0.0
  0
ENDBLK
  5
262
330
257
100
AcDbEntity
  8
0
100
AcDbBlockEnd
  0
BLOCK
  5
279
330
26F
100
AcDbEntity
  8
0
100
AcDbBlockBegin
  2
*D5
 70
     1
 10
0.0
 20
0.0
 30
0.0
  3
*D5
  1

  0
LINE
  5
2B0
330
26F
100
AcDbEntity
  8
0
 62
     0
370
    -2
100
AcDbLine
 10
421.8464386161016
 20
559.0873582446885
 30
0.0
 11
412.8514763873583
 21
559.0873582446885
 31
0.0
  0
LINE
  5
2B1
330
26F
100
AcDbEntity
  8
0
 62
     0
370
    -2
100
AcDbLine
 10
421.8464386161018
 20
752.0873582446884
 30
0.0
 11
412.8514763873586
 21
752.0873582446884
 31
0.0
  0
LINE
  5
2B2
330
26F
100
AcDbEntity
  8
0
 62
     0
370
    -2
100
AcDbLine
 10
414.1014763873585
 20
561.5873582446885
 30
0.0
 11
414.1014763873585
 21
749.5873582446884
 31
0.0
  0
SOLID
  5
2B3
330
26F
100
AcDbEntity
  8
0
 62
     0
100
AcDbTrace
 10
413.6848097206918
 20
561.5873582446885
 30
0.0
 11
414.5181430540252
 21
561.5873582446885
 31
0.0
 12
414.1014763873585
 22
559.0873582446885
 32
0.0
 13
414.1014763873585
 23
559.0873582446885
 33
0.0
  0
SOLID
  5
2B4
330
26F
100
AcDbEntity
  8
0
 62
     0
100
AcDbTrace
 10
413.6848097206919
 20
749.5873582446884
 30
0.0
 11
414.5181430540253
 21
749.5873582446884
 31
0.0
 12
414.1014763873585
 22
752.0873582446884
 32
0.0
 13
414.1014763873585
 23
752.0873582446884
 33
0.0
  0
MTEXT
  5
2B5
330
26F
100
AcDbEntity
  8
0
 62
     0
100
AcDbMText
 10
405.9764763873585
 20
655.5873582446886
 30
0.0
 40
15.0
 41
0.0
 46
0.0
 71
     5
 72
     1
  1
193
 11
0.0000000000000001
 21
1.0
 31
0.0
 73
     1
 44
1.0
  0
POINT
  5
2B6
330
26F
100
AcDbEntity
  8
Defpoints
 62
     0
100
AcDbPoint
 10
422.4714386161016
 20
559.0873582446885
 30
0.0
  0
POINT
  5
2B7
330
26F
100
AcDbEntity
  8
Defpoints
 62
     0
100
AcDbPoint
 10
422.4714386161018
 20
752.0873582446884
 30
0.0
  0
POINT
  5
2B8
330
26F
100
AcDbEntity
  8
Defpoints
 62
     0
100
AcDbPoint
 10
414.1014763873585
 20
752.0873582446884
 30
0.0
  0
ENDBLK
  5
27A
330
26F
100
AcDbEntity
  8
0
100
AcDbBlockEnd
  0
BLOCK
  5
291
330
287
100
AcDbEntity
  8
0
100
AcDbBlockBegin
  2
*D6
 70
     1
 10
0.0
 20
0.0
 30
0.0
  3
*D6
  1

  0
LINE
  5
2B9
330
287
100
AcDbEntity
  8
0
 62
     0
370
    -2
100
AcDbLine
 10
454.8885612475419
 20
513.0873582446882
 30
0.0
 11
481.8893771480373
 21
513.0873582446882
 31
0.0
  0
LINE
  5
2BA
330
287
100
AcDbEntity
  8
0
 62
     0
370
    -2
100
AcDbLine
 10
447.1169545938295
 20
351.0873582446884
 30
0.0
 11
481.8893771480373
 21
351.0873582446884
 31
0.0
  0
LINE
  5
2BB
330
287
100
AcDbEntity
  8
0
 62
     0
370
    -2
100
AcDbLine
 10
480.6393771480373
 20
510.5873582446881
 30
0.0
 11
480.6393771480373
 21
353.5873582446884
 31
0.0
  0
SOLID
  5
2BC
330
287
100
AcDbEntity
  8
0
 62
     0
100
AcDbTrace
 10
480.2227104813708
 20
510.5873582446881
 30
0.0
 11
481.0560438147041
 21
510.5873582446881
 31
0.0
 12
480.6393771480373
 22
513.0873582446882
 32
0.0
 13
480.6393771480373
 23
513.0873582446882
 33
0.0
  0
SOLID
  5
2BD
330
287
100
AcDbEntity
  8
0
 62
     0
100
AcDbTrace
 10
480.2227104813707
 20
353.5873582446884
 30
0.0
 11
481.0560438147041
 21
353.5873582446884
 31
0.0
 12
480.6393771480373
 22
351.0873582446884
 32
0.0
 13
480.6393771480373
 23
351.0873582446884
 33
0.0
  0
MTEXT
  5
2BE
330
287
100
AcDbEntity
  8
0
 62
     0
100
AcDbMText
 10
472.5143771480373
 20
432.0873582446883
 30
0.0
 40
15.0
 41
0.0
 46
0.0
 71
     5
 72
     1
  1
162
 11
0.0000000000000001
 21
1.0
 31
0.0
 73
     1
 44
1.0
  0
POINT
  5
2BF
330
287
100
AcDbEntity
  8
Defpoints
 62
     0
100
AcDbPoint
 10
454.2635612475418
 20
513.0873582446882
 30
0.0
  0
POINT
  5
2C0
330
287
100
AcDbEntity
  8
Defpoints
 62
     0
100
AcDbPoint
 10
446.4919545938295
 20
351.0873582446884
 30
0.0
  0
POINT
  5
2C1
330
287
100
AcDbEntity
  8
Defpoints
 62
     0
100
AcDbPoint
 10
480.6393771480373
 20
351.0873582446884
 30
0.0
  0
ENDBLK
  5
292
330
287
100
AcDbEntity
  8
0
100
AcDbBlockEnd
  0
BLOCK
  5
2D6
330
2CC
100
AcDbEntity
  8
0
100
AcDbBlockBegin
  2
*D7
 70
     1
 10
0.0
 20
0.0
 30
0.0
  3
*D7
  1

  0
LINE
  5
2D9
330
2CC
100
AcDbEntity
  8
0
 62
     0
370
    -2
100
AcDbLine
 10
369.4379852124813
 20
389.8250324551514
 30
0.0
 11
369.4379852124813
 21
380.09692123078
 31
0.0
  0
LINE
  5
2DA
330
2CC
100
AcDbEntity
  8
0
 62
     0
370
    -2
100
AcDbLine
 10
576.4379852124811
 20
389.8250324551512
 30
0.0
 11
576.4379852124811
 21
380.09692123078
 31
0.0
  0
LINE
  5
2DB
330
2CC
100
AcDbEntity
  8
0
 62
     0
370
    -2
100
AcDbLine
 10
371.9379852124813
 20
381.34692123078
 30
0.0
 11
573.9379852124812
 21
381.34692123078
 31
0.0
  0
SOLID
  5
2DC
330
2CC
100
AcDbEntity
  8
0
 62
     0
100
AcDbTrace
 10
371.9379852124813
 20
381.7635878974467
 30
0.0
 11
371.9379852124813
 21
380.9302545641133
 31
0.0
 12
369.4379852124813
 22
381.34692123078
 32
0.0
 13
369.4379852124813
 23
381.34692123078
 33
0.0
  0
SOLID
  5
2DD
330
2CC
100
AcDbEntity
  8
0
 62
     0
100
AcDbTrace
 10
573.9379852124812
 20
381.7635878974467
 30
0.0
 11
573.9379852124812
 21
380.9302545641133
 31
0.0
 12
576.4379852124811
 22
381.34692123078
 32
0.0
 13
576.4379852124811
 23
381.34692123078
 33
0.0
  0
MTEXT
  5
2DE
330
2CC
100
AcDbEntity
  8
0
 62
     0
100
AcDbMText
 10
472.9379852124813
 20
389.47192123078
 30
0.0
 40
15.0
 41
0.0
 46
0.0
 71
     5
 72
     1
  1
207
 73
     1
 44
1.0
  0
POINT
  5
2DF
330
2CC
100
AcDbEntity
  8
Defpoints
 62
     0
100
AcDbPoint
 10
369.4379852124813
 20
390.4500324551514
 30
0.0
  0
POINT
  5
2E0
330
2CC
100
AcDbEntity
  8
Defpoints
 62
     0
100
AcDbPoint
 10
576.4379852124811
 20
390.4500324551512
 30
0.0
  0
POINT
  5
2E1
330
2CC
100
AcDbEntity
  8
Defpoints
 62
     0
100
AcDbPoint
 10
576.4379852124811
 20
381.34692123078
 30
0.0
  0
ENDBLK
  5
2D7
330
2CC
100
AcDbEntity
  8
0
100
AcDbBlockEnd
  0
BLOCK
  5
326
330
31C
100
AcDbEntity
  8
0
 62
     1
100
AcDbBlockBegin
  2
*D8
 70
     1
 10
0.0
 20
0.0
 30
0.0
  3
*D8
  1

  0
LINE
  5
36E
330
31C
100
AcDbEntity
  8
0
 62
     0
370
    -2
100
AcDbLine
 10
755.3668030665776
 20
273.3423226892646
 30
0.0
 11
722.7657823283034
 21
273.3423226892646
 31
0.0
  0
LINE
  5
36F
330
31C
100
AcDbEntity
  8
0
 62
     0
370
    -2
100
AcDbLine
 10
755.3668030665776
 20
413.3423226892646
 30
0.0
 11
722.7657823283034
 21
413.3423226892646
 31
0.0
  0
LINE
  5
370
330
31C
100
AcDbEntity
  8
0
 62
     0
370
    -2
100
AcDbLine
 10
724.0157823283034
 20
275.8423226892646
 30
0.0
 11
724.0157823283034
 21
410.8423226892646
 31
0.0
  0
SOLID
  5
371
330
31C
100
AcDbEntity
  8
0
 62
     0
100
AcDbTrace
 10
723.5991156616368
 20
275.8423226892646
 30
0.0
 11
724.4324489949701
 21
275.8423226892646
 31
0.0
 12
724.0157823283034
 22
273.3423226892646
 32
0.0
 13
724.0157823283034
 23
273.3423226892646
 33
0.0
  0
SOLID
  5
372
330
31C
100
AcDbEntity
  8
0
 62
     0
100
AcDbTrace
 10
723.5991156616368
 20
410.8423226892646
 30
0.0
 11
724.4324489949701
 21
410.8423226892646
 31
0.0
 12
724.0157823283034
 22
413.3423226892646
 32
0.0
 13
724.0157823283034
 23
413.3423226892646
 33
0.0
  0
MTEXT
  5
373
330
31C
100
AcDbEntity
  8
0
 62
     0
100
AcDbMText
 10
715.8907823283032
 20
343.3423226892647
 30
0.0
 40
15.0
 41
0.0
 46
0.0
 71
     5
 72
     1
  1
140
 11
0.0000000000000001
 21
1.0
 31
0.0
 73
     1
 44
1.0
  0
POINT
  5
374
330
31C
100
AcDbEntity
  8
Defpoints
 62
     0
100
AcDbPoint
 10
755.9918030665776
 20
273.3423226892646
 30
0.0
  0
POINT
  5
375
330
31C
100
AcDbEntity
  8
Defpoints
 62
     0
100
AcDbPoint
 10
755.9918030665776
 20
413.3423226892646
 30
0.0
  0
POINT
  5
376
330
31C
100
AcDbEntity
  8
Defpoints
 62
     0
100
AcDbPoint
 10
724.0157823283034
 20
413.3423226892646
 30
0.0
  0
ENDBLK
  5
327
330
31C
100
AcDbEntity
  8
0
 62
     1
100
AcDbBlockEnd
  0
BLOCK
  5
33E
330
334
100
AcDbEntity
  8
0
 62
     1
100
AcDbBlockBegin
  2
*D9
 70
     1
 10
0.0
 20
0.0
 30
0.0
  3
*D9
  1

  0
LINE
  5
341
330
334
100
AcDbEntity
  8
0
 62
     0
370
    -2
100
AcDbLine
 10
795.9918030665776
 20
112.7173226892646
 30
0.0
 11
795.9918030665776
 21
51.71799178400078
 31
0.0
  0
LINE
  5
342
330
334
100
AcDbEntity
  8
0
 62
     0
370
    -2
100
AcDbLine
 10
995.9918030665775
 20
112.7173226892646
 30
0.0
 11
995.9918030665775
 21
51.71799178400078
 31
0.0
  0
LINE
  5
343
330
334
100
AcDbEntity
  8
0
 62
     0
370
    -2
100
AcDbLine
 10
798.4918030665776
 20
52.96799178400078
 30
0.0
 11
993.4918030665777
 21
52.96799178400078
 31
0.0
  0
SOLID
  5
344
330
334
100
AcDbEntity
  8
0
 62
     0
100
AcDbTrace
 10
798.4918030665776
 20
53.38465845066746
 30
0.0
 11
798.4918030665776
 21
52.5513251173341
 31
0.0
 12
795.9918030665776
 22
52.96799178400078
 32
0.0
 13
795.9918030665776
 23
52.96799178400078
 33
0.0
  0
SOLID
  5
345
330
334
100
AcDbEntity
  8
0
 62
     0
100
AcDbTrace
 10
993.4918030665777
 20
53.38465845066746
 30
0.0
 11
993.4918030665777
 21
52.5513251173341
 31
0.0
 12
995.9918030665775
 22
52.96799178400078
 32
0.0
 13
995.9918030665775
 23
52.96799178400078
 33
0.0
  0
MTEXT
  5
346
330
334
100
AcDbEntity
  8
0
 62
     0
100
AcDbMText
 10
895.9918030665773
 20
61.09299178400078
 30
0.0
 40
15.0
 41
0.0
 46
0.0
 71
     5
 72
     1
  1
200
 73
     1
 44
1.0
  0
POINT
  5
347
330
334
100
AcDbEntity
  8
Defpoints
 62
     0
100
AcDbPoint
 10
795.9918030665776
 20
113.3423226892646
 30
0.0
  0
POINT
  5
348
330
334
100
AcDbEntity
  8
Defpoints
 62
     0
100
AcDbPoint
 10
995.9918030665775
 20
113.3423226892646
 30
0.0
  0
POINT
  5
349
330
334
100
AcDbEntity
  8
Defpoints
 62
     0
100
AcDbPoint
 10
995.9918030665775
 20
52.96799178400078
 30
0.0
  0
ENDBLK
  5
33F
330
334
100
AcDbEntity
  8
0
 62
     1
100
AcDbBlockEnd
  0
BLOCK
  5
3CB
330
3C1
100
AcDbEntity
  8
0
 62
     1
100
AcDbBlockBegin
  2
*D10
 70
     1
 10
0.0
 20
0.0
 30
0.0
  3
*D10
  1

  0
LINE
  5
3CE
330
3C1
100
AcDbEntity
  8
0
 62
     0
370
    -2
100
AcDbLine
 10
795.9918030665773
 20
93.46732268926462
 30
0.0
 11
795.9918030665773
 21
116.4758731118586
 31
0.0
  0
LINE
  5
3CF
330
3C1
100
AcDbEntity
  8
0
 62
     0
370
    -2
100
AcDbLine
 10
995.9918030665773
 20
93.46732268926443
 30
0.0
 11
995.9918030665773
 21
116.4758731118586
 31
0.0
  0
LINE
  5
3D0
330
3C1
100
AcDbEntity
  8
0
 62
     0
370
    -2
100
AcDbLine
 10
798.4918030665773
 20
115.2258731118586
 30
0.0
 11
993.4918030665773
 21
115.2258731118586
 31
0.0
  0
SOLID
  5
3D1
330
3C1
100
AcDbEntity
  8
0
 62
     0
100
AcDbTrace
 10
798.4918030665773
 20
115.6425397785253
 30
0.0
 11
798.4918030665773
 21
114.8092064451919
 31
0.0
 12
795.9918030665773
 22
115.2258731118586
 32
0.0
 13
795.9918030665773
 23
115.2258731118586
 33
0.0
  0
SOLID
  5
3D2
330
3C1
100
AcDbEntity
  8
0
 62
     0
100
AcDbTrace
 10
993.4918030665773
 20
115.6425397785253
 30
0.0
 11
993.4918030665773
 21
114.8092064451919
 31
0.0
 12
995.9918030665773
 22
115.2258731118586
 32
0.0
 13
995.9918030665773
 23
115.2258731118586
 33
0.0
  0
MTEXT
  5
3D3
330
3C1
100
AcDbEntity
  8
0
 62
     0
100
AcDbMText
 10
895.9918030665773
 20
123.3508731118586
 30
0.0
 40
15.0
 41
0.0
 46
0.0
 71
     5
 72
     1
  1
200
 73
     1
 44
1.0
  0
POINT
  5
3D4
330
3C1
100
AcDbEntity
  8
Defpoints
 62
     0
100
AcDbPoint
 10
795.9918030665773
 20
92.84232268926462
 30
0.0
  0
POINT
  5
3D5
330
3C1
100
AcDbEntity
  8
Defpoints
 62
     0
100
AcDbPoint
 10
995.9918030665773
 20
92.84232268926443
 30
0.0
  0
POINT
  5
3D6
330
3C1
100
AcDbEntity
  8
Defpoints
 62
     0
100
AcDbPoint
 10
995.9918030665773
 20
115.2258731118586
 30
0.0
  0
ENDBLK
  5
3CC
330
3C1
100
AcDbEntity
  8
0
 62
     1
100
AcDbBlockEnd
  0
BLOCK
  5
4BF
330
4B5
100
AcDbEntity
  8
0
 62
     1
100
AcDbBlockBegin
  2
*D11
 70
     1
 10
0.0
 20
0.0
 30
0.0
  3
*D11
  1

  0
LINE
  5
4C2
330
4B5
100
AcDbEntity
  8
0
 62
     0
370
    -2
100
AcDbLine
 10
323.9305785991756
 20
515.8422376984304
 30
0.0
 11
323.9305785991756
 21
510.0840682220773
 31
0.0
  0
LINE
  5
4C3
330
4B5
100
AcDbEntity
  8
0
 62
     0
370
    -2
100
AcDbLine
 10
503.9305785991754
 20
515.8422376984304
 30
0.0
 11
503.9305785991754
 21
510.0840682220773
 31
0.0
  0
LINE
  5
4C4
330
4B5
100
AcDbEntity
  8
0
 62
     0
370
    -2
100
AcDbLine
 10
326.4305785991755
 20
511.3340682220774
 30
0.0
 11
501.4305785991753
 21
511.3340682220774
 31
0.0
  0
SOLID
  5
4C5
330
4B5
100
AcDbEntity
  8
0
 62
     0
100
AcDbTrace
 10
326.4305785991755
 20
511.7507348887442
 30
0.0
 11
326.4305785991755
 21
510.9174015554108
 31
0.0
 12
323.9305785991756
 22
511.3340682220774
 32
0.0
 13
323.9305785991756
 23
511.3340682220774
 33
0.0
  0
SOLID
  5
4C6
330
4B5
100
AcDbEntity
  8
0
 62
     0
100
AcDbTrace
 10
501.4305785991753
 20
511.7507348887442
 30
0.0
 11
501.4305785991753
 21
510.9174015554108
 31
0.0
 12
503.9305785991754
 22
511.3340682220774
 32
0.0
 13
503.9305785991754
 23
511.3340682220774
 33
0.0
  0
MTEXT
  5
4C7
330
4B5
100
AcDbEntity
  8
0
 62
     0
100
AcDbMText
 10
413.9305785991753
 20
519.4590682220774
 30
0.0
 40
15.0
 41
0.0
 46
0.0
 71
     5
 72
     1
  1
180
 73
     1
 44
1.0
  0
POINT
  5
4C8
330
4B5
100
AcDbEntity
  8
Defpoints
 62
     0
100
AcDbPoint
 10
323.9305785991756
 20
516.4672376984306
 30
0.0
  0
POINT
  5
4C9
330
4B5
100
AcDbEntity
  8
Defpoints
 62
     0
100
AcDbPoint
 10
503.9305785991754
 20
516.4672376984306
 30
0.0
  0
POINT
  5
4CA
330
4B5
100
AcDbEntity
  8
Defpoints
 62
     0
100
AcDbPoint
 10
503.9305785991754
 20
511.3340682220774
 30
0.0
  0
ENDBLK
  5
4C0
330
4B5
100
AcDbEntity
  8
0
 62
     1
100
AcDbBlockEnd
  0
BLOCK
  5
4D7
330
4CD
100
AcDbEntity
  8
0
 62
     1
100
AcDbBlockBegin
  2
*D12
 70
     1
 10
0.0
 20
0.0
 30
0.0
  3
*D12
  1

  0
LINE
  5
4DA
330
4CD
100
AcDbEntity
  8
0
 62
     0
370
    -2
100
AcDbLine
 10
477.9396222168852
 20
584.8260589359734
 30
0.0
 11
477.3146222168851
 21
584.8260589359734
 31
0.0
  0
LINE
  5
4DB
330
4CD
100
AcDbEntity
  8
0
 62
     0
370
    -2
100
AcDbLine
 10
477.9396222168852
 20
464.8260589359733
 30
0.0
 11
477.3146222168851
 21
464.8260589359733
 31
0.0
  0
LINE
  5
4DC
330
4CD
100
AcDbEntity
  8
0
 62
     0
370
    -2
100
AcDbLine
 10
478.5646222168852
 20
582.3260589359732
 30
0.0
 11
478.5646222168852
 21
467.3260589359734
 31
0.0
  0
SOLID
  5
4DD
330
4CD
100
AcDbEntity
  8
0
 62
     0
100
AcDbTrace
 10
478.1479555502185
 20
582.3260589359732
 30
0.0
 11
478.9812888835519
 21
582.3260589359732
 31
0.0
 12
478.5646222168852
 22
584.8260589359734
 32
0.0
 13
478.5646222168852
 23
584.8260589359734
 33
0.0
  0
SOLID
  5
4DE
330
4CD
100
AcDbEntity
  8
0
 62
     0
100
AcDbTrace
 10
478.1479555502185
 20
467.3260589359734
 30
0.0
 11
478.9812888835519
 21
467.3260589359734
 31
0.0
 12
478.5646222168852
 22
464.8260589359733
 32
0.0
 13
478.5646222168852
 23
464.8260589359733
 33
0.0
  0
MTEXT
  5
4DF
330
4CD
100
AcDbEntity
  8
0
 62
     0
100
AcDbMText
 10
470.4396222168851
 20
524.8260589359735
 30
0.0
 40
15.0
 41
0.0
 46
0.0
 71
     5
 72
     1
  1
120
 11
0.0000000000000001
 21
1.0
 31
0.0
 73
     1
 44
1.0
  0
POINT
  5
4E0
330
4CD
100
AcDbEntity
  8
Defpoints
 62
     0
100
AcDbPoint
 10
478.5646222168852
 20
584.8260589359734
 30
0.0
  0
POINT
  5
4E1
330
4CD
100
AcDbEntity
  8
Defpoints
 62
     0
100
AcDbPoint
 10
478.5646222168852
 20
464.8260589359733
 30
0.0
  0
POINT
  5
4E2
330
4CD
100
AcDbEntity
  8
Defpoints
 62
     0
100
AcDbPoint
 10
478.5646222168852
 20
464.8260589359733
 30
0.0
  0
ENDBLK
  5
4D8
330
4CD
100
AcDbEntity
  8
0
 62
     1
100
AcDbBlockEnd
  0
BLOCK
  5
4EF
330
4E5
100
AcDbEntity
  8
0
 62
     1
100
AcDbBlockBegin
  2
*D13
 70
     1
 10
0.0
 20
0.0
 30
0.0
  3
*D13
  1

  0
LINE
  5
56B
330
4E5
100
AcDbEntity
  8
0
 62
     0
370
    -2
100
AcDbLine
 10
313.928794455411
 20
359.9082523795979
 30
0.0
 11
313.928794455411
 21
354.2338444952948
 31
0.0
  0
LINE
  5
56C
330
4E5
100
AcDbEntity
  8
0
 62
     0
370
    -2
100
AcDbLine
 10
513.932362418451
 20
359.9163083634337
 30
0.0
 11
513.932362418451
 21
354.2338444952948
 31
0.0
  0
LINE
  5
56D
330
4E5
100
AcDbEntity
  8
0
 62
     0
370
    -2
100
AcDbLine
 10
316.428794455411
 20
355.4838444952947
 30
0.0
 11
511.432362418451
 21
355.4838444952947
 31
0.0
  0
SOLID
  5
56E
330
4E5
100
AcDbEntity
  8
0
 62
     0
100
AcDbTrace
 10
316.428794455411
 20
355.9005111619614
 30
0.0
 11
316.428794455411
 21
355.0671778286281
 31
0.0
 12
313.928794455411
 22
355.4838444952947
 32
0.0
 13
313.928794455411
 23
355.4838444952947
 33
0.0
  0
SOLID
  5
56F
330
4E5
100
AcDbEntity
  8
0
 62
     0
100
AcDbTrace
 10
511.432362418451
 20
355.9005111619614
 30
0.0
 11
511.432362418451
 21
355.0671778286281
 31
0.0
 12
513.932362418451
 22
355.4838444952947
 32
0.0
 13
513.932362418451
 23
355.4838444952947
 33
0.0
  0
MTEXT
  5
570
330
4E5
100
AcDbEntity
  8
0
 62
     0
100
AcDbMText
 10
413.930578436931
 20
363.6088444952948
 30
0.0
 40
15.0
 41
0.0
 46
0.0
 71
     5
 72
     1
  1
200
 73
     1
 44
1.0
  0
POINT
  5
571
330
4E5
100
AcDbEntity
  8
Defpoints
 62
     0
100
AcDbPoint
 10
313.928794455411
 20
360.5332523795979
 30
0.0
  0
POINT
  5
572
330
4E5
100
AcDbEntity
  8
Defpoints
 62
     0
100
AcDbPoint
 10
513.932362418451
 20
360.5413083634337
 30
0.0
  0
POINT
  5
573
330
4E5
100
AcDbEntity
  8
Defpoints
 62
     0
100
AcDbPoint
 10
513.932362418451
 20
355.4838444952947
 30
0.0
  0
ENDBLK
  5
4F0
330
4E5
100
AcDbEntity
  8
0
 62
     1
100
AcDbBlockEnd
  0
BLOCK
  5
507
330
4FD
100
AcDbEntity
  8
0
 62
     1
100
AcDbBlockBegin
  2
*D14
 70
     1
 10
0.0
 20
0.0
 30
0.0
  3
*D14
  1

  0
LINE
  5
550
330
4FD
100
AcDbEntity
  8
0
 62
     0
370
    -2
100
AcDbLine
 10
441.5447636944991
 20
274.8260589359734
 30
0.0
 11
465.8033092210488
 21
274.8260589359734
 31
0.0
  0
LINE
  5
551
330
4FD
100
AcDbEntity
  8
0
 62
     0
370
    -2
100
AcDbLine
 10
441.5447636944991
 20
414.8260589359733
 30
0.0
 11
465.8033092210488
 21
414.8260589359733
 31
0.0
  0
LINE
  5
552
330
4FD
100
AcDbEntity
  8
0
 62
     0
370
    -2
100
AcDbLine
 10
464.5533092210489
 20
277.3260589359734
 30
0.0
 11
464.5533092210489
 21
412.3260589359731
 31
0.0
  0
SOLID
  5
553
330
4FD
100
AcDbEntity
  8
0
 62
     0
100
AcDbTrace
 10
464.1366425543821
 20
277.3260589359734
 30
0.0
 11
464.9699758877154
 21
277.3260589359734
 31
0.0
 12
464.5533092210489
 22
274.8260589359734
 32
0.0
 13
464.5533092210489
 23
274.8260589359734
 33
0.0
  0
SOLID
  5
554
330
4FD
100
AcDbEntity
  8
0
 62
     0
100
AcDbTrace
 10
464.1366425543821
 20
412.3260589359731
 30
0.0
 11
464.9699758877156
 21
412.3260589359731
 31
0.0
 12
464.5533092210489
 22
414.8260589359733
 32
0.0
 13
464.5533092210489
 23
414.8260589359733
 33
0.0
  0
MTEXT
  5
555
330
4FD
100
AcDbEntity
  8
0
 62
     0
100
AcDbMText
 10
456.4283092210488
 20
344.8260589359735
 30
0.0
 40
15.0
 41
0.0
 46
0.0
 71
     5
 72
     1
  1
140
 11
0.0000000000000001
 21
1.0
 31
0.0
 73
     1
 44
1.0
  0
POINT
  5
556
330
4FD
100
AcDbEntity
  8
Defpoints
 62
     0
100
AcDbPoint
 10
440.9197636944991
 20
274.8260589359734
 30
0.0
  0
POINT
  5
557
330
4FD
100
AcDbEntity
  8
Defpoints
 62
     0
100
AcDbPoint
 10
440.9197636944991
 20
414.8260589359733
 30
0.0
  0
POINT
  5
558
330
4FD
100
AcDbEntity
  8
Defpoints
 62
     0
100
AcDbPoint
 10
464.5533092210489
 20
414.8260589359733
 30
0.0
  0
ENDBLK
  5
508
330
4FD
100
AcDbEntity
  8
0
 62
     1
100
AcDbBlockEnd
  0
BLOCK
  5
51F
330
515
100
AcDbEntity
  8
0
 62
     1
100
AcDbBlockBegin
  2
*D15
 70
     1
 10
0.0
 20
0.0
 30
0.0
  3
*D15
  1

  0
LINE
  5
562
330
515
100
AcDbEntity
  8
0
 62
     0
370
    -2
100
AcDbLine
 10
338.3055785991755
 20
344.8284691105218
 30
0.0
 11
336.8729549620675
 21
344.8284691105218
 31
0.0
  0
LINE
  5
563
330
515
100
AcDbEntity
  8
0
 62
     0
370
    -2
100
AcDbLine
 10
343.9975662670631
 20
414.8260589359733
 30
0.0
 11
336.8729549620675
 21
414.8260589359733
 31
0.0
  0
LINE
  5
564
330
515
100
AcDbEntity
  8
0
 62
     0
370
    -2
100
AcDbLine
 10
338.1229549620675
 20
347.328469110522
 30
0.0
 11
338.1229549620675
 21
412.3260589359731
 31
0.0
  0
SOLID
  5
565
330
515
100
AcDbEntity
  8
0
 62
     0
100
AcDbTrace
 10
337.7062882954008
 20
347.328469110522
 30
0.0
 11
338.5396216287341
 21
347.328469110522
 31
0.0
 12
338.1229549620675
 22
344.8284691105218
 32
0.0
 13
338.1229549620675
 23
344.8284691105218
 33
0.0
  0
SOLID
  5
566
330
515
100
AcDbEntity
  8
0
 62
     0
100
AcDbTrace
 10
337.7062882954009
 20
412.3260589359731
 30
0.0
 11
338.5396216287341
 21
412.3260589359731
 31
0.0
 12
338.1229549620675
 22
414.8260589359733
 32
0.0
 13
338.1229549620675
 23
414.8260589359733
 33
0.0
  0
MTEXT
  5
567
330
515
100
AcDbEntity
  8
0
 62
     0
100
AcDbMText
 10
329.9979549620673
 20
379.8272640232477
 30
0.0
 40
15.0
 41
0.0
 46
0.0
 71
     5
 72
     1
  1
70
 11
0.0000000000000001
 21
1.0
 31
0.0
 73
     1
 44
1.0
  0
POINT
  5
568
330
515
100
AcDbEntity
  8
Defpoints
 62
     0
100
AcDbPoint
 10
338.9305785991755
 20
344.8284691105218
 30
0.0
  0
POINT
  5
569
330
515
100
AcDbEntity
  8
Defpoints
 62
     0
100
AcDbPoint
 10
344.6225662670631
 20
414.8260589359733
 30
0.0
  0
POINT
  5
56A
330
515
100
AcDbEntity
  8
Defpoints
 62
     0
100
AcDbPoint
 10
338.1229549620675
 20
414.8260589359733
 30
0.0
  0
ENDBLK
  5
520
330
515
100
AcDbEntity
  8
0
 62
     1
100
AcDbBlockEnd
  0
ENDSEC
  0
SECTION
  2
ENTITIES
  0
MTEXT
  5
123
330
1F
100
AcDbEntity
  8
0
100
AcDbMText
 10
169.8431956450381
 20
192.3028057675545
 30
0.0
 40
30.0
 41
495.4569113823793
 46
0.0
 71
     1
 72
     5
  1
390G食品级防油牛卡纸+PET贴窗
 73
     1
 44
1.0
  0
LINE
  5
465
102
{ACAD_REACTORS
330
4E3
102
}
330
1F
100
AcDbEntity
  8
0
 62
     2
100
AcDbLine
 10
503.9305785991754
 20
584.8260589359734
 30
0.0
 11
323.9305785991756
 21
584.8260589359734
 31
0.0
  0
LINE
  5
466
102
{ACAD_REACTORS
330
4CB
102
}
330
1F
100
AcDbEntity
  8
0
 62
     2
100
AcDbLine
 10
323.9305785991756
 20
584.8260589359734
 30
0.0
 11
323.9305785991756
 21
464.8260589359733
 31
0.0
  0
LINE
  5
467
102
{ACAD_REACTORS
330
4E3
102
}
330
1F
100
AcDbEntity
  8
0
 62
     2
100
AcDbLine
 10
323.9305785991756
 20
464.8260589359733
 30
0.0
 11
503.9305785991754
 21
464.8260589359733
 31
0.0
  0
LINE
  5
468
102
{ACAD_REACTORS
330
513
330
52B
102
}
330
1F
100
AcDbEntity
  8
0
 62
     2
100
AcDbLine
 10
313.9305785991754
 20
414.8260589359733
 30
0.0
 11
513.9305785991755
 21
414.8260589359733
 31
0.0
  0
LINE
  5
469
330
1F
100
AcDbEntity
  8
0
 62
     1
100
AcDbLine
 10
313.9305785991753
 20
274.8260589359734
 30
0.0
 11
323.9305785991754
 21
274.8260589359734
 31
0.0
  0
LINE
  5
46A
330
1F
100
AcDbEntity
  8
0
 62
     1
100
AcDbLine
 10
503.9305785991754
 20
274.8260589359734
 30
0.0
 11
513.9305785991751
 21
274.8260589359734
 31
0.0
  0
LINE
  5
46B
102
{ACAD_REACTORS
330
4CB
102
}
330
1F
100
AcDbEntity
  8
0
 62
     2
100
AcDbLine
 10
503.9305785991754
 20
464.8260589359733
 30
0.0
 11
503.9305785991754
 21
584.8260589359734
 31
0.0
  0
LINE
  5
46C
330
1F
100
AcDbEntity
  8
0
 62
     1
100
AcDbLine
 10
553.9305785991755
 20
454.8260589359734
 30
0.0
 11
553.9305785991755
 21
594.8260589359732
 31
0.0
  0
LINE
  5
46D
330
1F
100
AcDbEntity
  8
0
 62
     2
100
AcDbLine
 10
503.9305785991754
 20
464.8260589359733
 30
0.0
 11
513.9305785991755
 21
414.8260589359733
 31
0.0
  0
LINE
  5
46E
330
1F
100
AcDbEntity
  8
0
 62
     1
100
AcDbLine
 10
313.9305785991754
 20
634.8260589359734
 30
0.0
 11
513.9305785991755
 21
634.8260589359734
 31
0.0
  0
LINE
  5
46F
330
1F
100
AcDbEntity
  8
0
 62
     2
100
AcDbLine
 10
503.9305785991754
 20
584.8260589359734
 30
0.0
 11
513.9305785991755
 21
634.8260589359734
 31
0.0
  0
LINE
  5
470
330
1F
100
AcDbEntity
  8
0
 62
     2
100
AcDbLine
 10
503.9305785991754
 20
584.8260589359734
 30
0.0
 11
553.9305785991755
 21
594.8260589359732
 31
0.0
  0
LINE
  5
471
330
1F
100
AcDbEntity
  8
0
 62
     2
100
AcDbLine
 10
503.9305785991754
 20
464.8260589359733
 30
0.0
 11
553.9305785991755
 21
454.8260589359734
 31
0.0
  0
LINE
  5
472
330
1F
100
AcDbEntity
  8
0
 62
     1
100
AcDbLine
 10
273.9305785991756
 20
454.8260589359734
 30
0.0
 11
273.9305785991756
 21
594.8260589359732
 31
0.0
  0
LINE
  5
473
330
1F
100
AcDbEntity
  8
0
 62
     1
100
AcDbLine
 10
287.9305785991753
 20
515.3260589359731
 30
0.0
 11
287.9305785991755
 21
534.3260589359731
 31
0.0
  0
LINE
  5
474
330
1F
100
AcDbEntity
  8
0
 62
     2
100
AcDbLine
 10
323.9305785991756
 20
464.8260589359733
 30
0.0
 11
313.9305785991755
 21
414.8260589359733
 31
0.0
  0
LINE
  5
475
330
1F
100
AcDbEntity
  8
0
 62
     2
100
AcDbLine
 10
323.9305785991756
 20
584.8260589359734
 30
0.0
 11
313.9305785991755
 21
634.8260589359734
 31
0.0
  0
LINE
  5
476
330
1F
100
AcDbEntity
  8
0
 62
     2
100
AcDbLine
 10
323.9305785991756
 20
584.8260589359734
 30
0.0
 11
273.9305785991756
 21
594.8260589359732
 31
0.0
  0
LINE
  5
477
330
1F
100
AcDbEntity
  8
0
 62
     2
100
AcDbLine
 10
323.9305785991756
 20
464.8260589359733
 30
0.0
 11
273.9305785991756
 21
454.8260589359734
 31
0.0
  0
LINE
  5
478
330
1F
100
AcDbEntity
  8
0
 62
     1
100
AcDbLine
 10
478.9305785991754
 20
429.8260589359734
 30
0.0
 11
348.9305785991756
 21
429.8260589359734
 31
0.0
  0
LINE
  5
479
330
1F
100
AcDbEntity
  8
0
 62
     1
100
AcDbLine
 10
478.9305785991754
 20
449.8260589359731
 30
0.0
 11
348.9305785991756
 21
449.8260589359731
 31
0.0
  0
ARC
  5
47A
330
1F
100
AcDbEntity
  8
0
 62
     1
100
AcDbCircle
 10
478.9305785991754
 20
439.8260589359733
 30
0.0
 40
10.0
100
AcDbArc
 50
270.0
 51
90.0
  0
ARC
  5
47B
330
1F
100
AcDbEntity
  8
0
 62
     1
100
AcDbCircle
 10
348.9305785991756
 20
439.8260589359733
 30
0.0
 40
10.0
100
AcDbArc
 50
90.0
 51
270.0
  0
LINE
  5
47C
330
1F
100
AcDbEntity
  8
0
 62
     1
100
AcDbLine
 10
553.9305785991755
 20
454.8260589359734
 30
0.0
 11
513.9305785991755
 21
414.8260589359733
 31
0.0
  0
LINE
  5
47D
330
1F
100
AcDbEntity
  8
0
 62
     2
100
AcDbLine
 10
503.9305785991754
 20
464.8260589359733
 30
0.0
 11
533.9305785991752
 21
434.8260589359734
 31
0.0
  0
LINE
  5
47E
330
1F
100
AcDbEntity
  8
0
 62
     1
100
AcDbLine
 10
273.9305785991756
 20
454.8260589359734
 30
0.0
 11
313.9305785991755
 21
414.8260589359733
 31
0.0
  0
LINE
  5
47F
330
1F
100
AcDbEntity
  8
0
 62
     2
100
AcDbLine
 10
323.9305785991756
 20
464.8260589359733
 30
0.0
 11
293.9305785991757
 21
434.8260589359734
 31
0.0
  0
LINE
  5
480
330
1F
100
AcDbEntity
  8
0
 62
     1
100
AcDbLine
 10
553.9305785991755
 20
594.8260589359732
 30
0.0
 11
513.9305785991755
 21
634.8260589359734
 31
0.0
  0
LINE
  5
481
330
1F
100
AcDbEntity
  8
0
 62
     2
100
AcDbLine
 10
503.9305785991754
 20
584.8260589359734
 30
0.0
 11
533.9305785991752
 21
614.8260589359733
 31
0.0
  0
LINE
  5
482
330
1F
100
AcDbEntity
  8
0
 62
     1
100
AcDbLine
 10
273.9305785991756
 20
594.8260589359732
 30
0.0
 11
313.9305785991755
 21
634.8260589359734
 31
0.0
  0
LINE
  5
483
330
1F
100
AcDbEntity
  8
0
 62
     2
100
AcDbLine
 10
323.9305785991756
 20
584.8260589359734
 30
0.0
 11
293.9305785991757
 21
614.8260589359733
 31
0.0
  0
ARC
  5
484
330
1F
100
AcDbEntity
  8
0
 62
     1
100
AcDbCircle
 10
413.9305785991751
 20
259.8260589359734
 30
0.0
 40
9.0
100
AcDbArc
 50
0.0
 51
180.0
  0
ARC
  5
485
330
1F
100
AcDbEntity
  8
_U+56FE_U+5C42 1
100
AcDbCircle
 10
404.9305785991752
 20
264.2981948909723
 30
0.0
 40
5.0
100
AcDbArc
 50
243.4349488229052
 51
263.6206297915586
  0
ARC
  5
486
330
1F
100
AcDbEntity
  8
_U+56FE_U+5C42 1
100
AcDbCircle
 10
404.4305785991753
 20
259.8260589359734
 30
0.0
 40
0.5
100
AcDbArc
 50
263.6206297915586
 51
0.0
  0
ARC
  5
487
330
1F
100
AcDbEntity
  8
_U+56FE_U+5C42 1
100
AcDbCircle
 10
422.9305785991753
 20
264.2981948909723
 30
0.0
 40
5.0
100
AcDbArc
 50
276.3793702084413
 51
296.5650511770947
  0
ARC
  5
488
330
1F
100
AcDbEntity
  8
_U+56FE_U+5C42 1
100
AcDbCircle
 10
423.4305785991753
 20
259.8260589359734
 30
0.0
 40
0.5
100
AcDbArc
 50
180.0
 51
276.3793702084413
  0
LINE
  5
489
330
1F
100
AcDbEntity
  8
0
 62
     1
100
AcDbLine
 10
323.9305785991753
 20
274.8260589359734
 30
0.0
 11
331.7589472509439
 21
251.3409529806671
 31
0.0
  0
LINE
  5
48A
330
1F
100
AcDbEntity
  8
0
 62
     1
100
AcDbLine
 10
503.9305785991754
 20
274.8260589359734
 30
0.0
 11
496.0933099865938
 21
251.3142530982298
 31
0.0
  0
LINE
  5
48B
330
1F
100
AcDbEntity
  8
0
 62
     1
100
AcDbLine
 10
331.7589472509441
 20
251.3409529806671
 30
0.0
 11
496.093309986594
 21
251.3142530982298
 31
0.0
  0
LINE
  5
48C
102
{ACAD_REACTORS
330
513
102
}
330
1F
100
AcDbEntity
  8
0
 62
     2
100
AcDbLine
 10
323.9305785991754
 20
274.8260589359734
 30
0.0
 11
503.9305785991754
 21
274.8260589359734
 31
0.0
  0
ARC
  5
48D
330
1F
100
AcDbEntity
  8
0
 62
     1
100
AcDbCircle
 10
298.9305785991753
 20
344.8260589359734
 30
0.0
 40
9.0
100
AcDbArc
 50
270.0
 51
90.0
  0
ARC
  5
48E
330
1F
100
AcDbEntity
  8
_U+56FE_U+5C42 1
100
AcDbCircle
 10
303.4027145541743
 20
353.8260589359734
 30
0.0
 40
5.0
100
AcDbArc
 50
153.434948822903
 51
173.6206297915588
  0
ARC
  5
48F
330
1F
100
AcDbEntity
  8
_U+56FE_U+5C42 1
100
AcDbCircle
 10
298.9305785991753
 20
354.3260589359734
 30
0.0
 40
0.5
100
AcDbArc
 50
173.6206297915588
 51
270.0
  0
ARC
  5
490
330
1F
100
AcDbEntity
  8
_U+56FE_U+5C42 1
100
AcDbCircle
 10
303.4027145541743
 20
335.8260589359734
 30
0.0
 40
5.0
100
AcDbArc
 50
186.3793702084412
 51
206.5650511770969
  0
ARC
  5
491
330
1F
100
AcDbEntity
  8
_U+56FE_U+5C42 1
100
AcDbCircle
 10
298.9305785991753
 20
335.3260589359734
 30
0.0
 40
0.5
100
AcDbArc
 50
90.0
 51
186.3793702084412
  0
LINE
  5
492
330
1F
100
AcDbEntity
  8
0
 62
     1
100
AcDbLine
 10
313.9257450301527
 20
404.8260595893101
 30
0.0
 11
290.4406390748464
 21
396.9976909375417
 31
0.0
  0
LINE
  5
493
330
1F
100
AcDbEntity
  8
0
 62
     1
100
AcDbLine
 10
313.9257450301527
 20
284.8260582826365
 30
0.0
 11
290.4406390748464
 21
292.6544269344051
 31
0.0
  0
LINE
  5
494
330
1F
100
AcDbEntity
  8
0
 62
     1
100
AcDbLine
 10
290.4406390748464
 20
396.9976909375417
 30
0.0
 11
290.4406390748464
 21
292.6544269344051
 31
0.0
  0
LINE
  5
495
330
1F
100
AcDbEntity
  8
0
 62
     1
100
AcDbLine
 10
313.9305785991755
 20
414.8260589359733
 30
0.0
 11
313.9305785991754
 21
404.8276707789844
 31
0.0
  0
LINE
  5
496
102
{ACAD_REACTORS
330
4FB
102
}
330
1F
100
AcDbEntity
  8
0
 62
     2
100
AcDbLine
 10
313.9305785991754
 20
404.8276707789844
 30
0.0
 11
313.9257450301527
 21
284.8260582826365
 31
0.0
  0
LINE
  5
497
330
1F
100
AcDbEntity
  8
0
 62
     1
100
AcDbLine
 10
313.9257450301527
 20
284.8260582826365
 30
0.0
 11
313.9305785991753
 21
274.8260589359734
 31
0.0
  0
ARC
  5
498
330
1F
100
AcDbEntity
  8
0
 62
     1
100
AcDbCircle
 10
528.9305785991753
 20
344.8260589359734
 30
0.0
 40
9.0
100
AcDbArc
 50
90.0
 51
270.0
  0
ARC
  5
499
330
1F
100
AcDbEntity
  8
_U+56FE_U+5C42 1
100
AcDbCircle
 10
524.4584426441763
 20
353.8260589359734
 30
0.0
 40
5.0
100
AcDbArc
 50
6.379370208441172
 51
26.56505117709693
  0
ARC
  5
49A
330
1F
100
AcDbEntity
  8
_U+56FE_U+5C42 1
100
AcDbCircle
 10
528.9305785991753
 20
354.3260589359734
 30
0.0
 40
0.5
100
AcDbArc
 50
270.0
 51
6.379370208441172
  0
ARC
  5
49B
330
1F
100
AcDbEntity
  8
_U+56FE_U+5C42 1
100
AcDbCircle
 10
524.4584426441763
 20
335.8260589359734
 30
0.0
 40
5.0
100
AcDbArc
 50
333.4349488229031
 51
353.6206297915588
  0
ARC
  5
49C
330
1F
100
AcDbEntity
  8
_U+56FE_U+5C42 1
100
AcDbCircle
 10
528.9305785991753
 20
335.3260589359734
 30
0.0
 40
0.5
100
AcDbArc
 50
353.6206297915588
 51
90.0
  0
LINE
  5
49D
330
1F
100
AcDbEntity
  8
0
 62
     1
100
AcDbLine
 10
513.9354121681979
 20
404.8260595893101
 30
0.0
 11
537.420518123504
 21
396.9976909375417
 31
0.0
  0
LINE
  5
49E
330
1F
100
AcDbEntity
  8
0
 62
     1
100
AcDbLine
 10
513.9354121681979
 20
284.8260582826365
 30
0.0
 11
537.420518123504
 21
292.6544269344051
 31
0.0
  0
LINE
  5
49F
330
1F
100
AcDbEntity
  8
0
 62
     1
100
AcDbLine
 10
537.420518123504
 20
396.9976909375417
 30
0.0
 11
537.420518123504
 21
292.6544269344051
 31
0.0
  0
LINE
  5
4A0
330
1F
100
AcDbEntity
  8
0
 62
     1
100
AcDbLine
 10
513.9305785991751
 20
414.8260589359733
 30
0.0
 11
513.9305785991751
 21
404.8276707789844
 31
0.0
  0
LINE
  5
4A1
102
{ACAD_REACTORS
330
4FB
102
}
330
1F
100
AcDbEntity
  8
0
 62
     2
100
AcDbLine
 10
513.9305785991751
 20
404.8276707789844
 30
0.0
 11
513.9354121681979
 21
284.8260582826365
 31
0.0
  0
LINE
  5
4A2
330
1F
100
AcDbEntity
  8
0
 62
     1
100
AcDbLine
 10
513.9354121681979
 20
284.8260582826365
 30
0.0
 11
513.9305785991751
 21
274.8260589359734
 31
0.0
  0
LINE
  5
4A3
330
1F
100
AcDbEntity
  8
0
 62
     1
100
AcDbLine
 10
287.9305785991753
 20
534.3260589359731
 30
0.0
 11
290.4305785991755
 21
536.8260589359737
 31
0.0
  0
LINE
  5
4A8
330
1F
100
AcDbEntity
  8
0
 62
     1
100
AcDbLine
 10
404.4305785991753
 20
620.8260589359732
 30
0.0
 11
423.4305785991753
 21
620.8260589359732
 31
0.0
  0
LINE
  5
4AB
102
{ACAD_REACTORS
330
52B
102
}
330
1F
100
AcDbEntity
  8
0
 62
     1
100
AcDbLine
 10
338.9305785991756
 20
379.5784691386791
 30
0.0
 11
338.9305785991754
 21
310.0784690823648
 31
0.0
  0
LINE
  5
4AC
330
1F
100
AcDbEntity
  8
0
 62
     1
100
AcDbLine
 10
488.9305785991753
 20
379.5832825869865
 30
0.0
 11
488.9305785991753
 21
310.0832825306722
 31
0.0
  0
ARC
  5
4AD
330
1F
100
AcDbEntity
  8
0
 62
     1
100
AcDbCircle
 10
473.9305785991753
 20
310.0832825306723
 30
0.0
 40
15.0
100
AcDbArc
 50
270.0022982522733
 51
0.0
  0
ARC
  5
4AE
330
1F
100
AcDbEntity
  8
0
 62
     1
100
AcDbCircle
 10
473.9305785991755
 20
379.5832825869865
 30
0.0
 40
15.0
100
AcDbArc
 50
0.0
 51
90.00229825227334
  0
LINE
  5
4AF
330
1F
100
AcDbEntity
  8
0
 62
     1
100
AcDbLine
 10
353.9311802802134
 20
295.0784690944321
 30
0.0
 11
473.9311802802133
 21
295.0832825427397
 31
0.0
  0
ARC
  5
4B0
330
1F
100
AcDbEntity
  8
0
 62
     1
100
AcDbCircle
 10
353.9305785991754
 20
310.0784690823648
 30
0.0
 40
15.0
100
AcDbArc
 50
180.0
 51
270.0022982522733
  0
LINE
  5
4B1
330
1F
100
AcDbEntity
  8
0
 62
     1
100
AcDbLine
 10
313.9261562112041
 20
394.576864490586
 30
0.0
 11
313.9301674181305
 21
394.5768646514839
 31
0.0
  0
LINE
  5
4B2
330
1F
100
AcDbEntity
  8
0
 62
     1
100
AcDbLine
 10
353.9299769181377
 20
394.5784691266117
 30
0.0
 11
473.9299769181375
 21
394.5832825749192
 31
0.0
  0
ARC
  5
4B3
330
1F
100
AcDbEntity
  8
0
 62
     1
100
AcDbCircle
 10
353.9305785991757
 20
379.5784691386791
 30
0.0
 40
15.0
100
AcDbArc
 50
90.00229825227334
 51
180.0
  0
DIMENSION
  5
4B4
102
{ACAD_XDICTIONARY
360
4C1
102
}
102
{ACAD_REACTORS
330
4CB
102
}
330
1F
100
AcDbEntity
  8
0
 62
     1
100
AcDbDimension
  2
*D11
 10
503.9305785991754
 20
511.3340682220774
 30
0.0
 11
413.9305785991753
 21
519.4590682220774
 31
0.0
 70
    32
 71
     5
 42
180.0
 73
     0
 74
     0
 75
     0
  3
ISO-25
100
AcDbAlignedDimension
 13
323.9305785991756
 23
516.4672376984306
 33
0.0
 14
503.9305785991754
 24
516.4672376984306
 34
0.0
100
AcDbRotatedDimension
  0
DIMENSION
  5
4CC
102
{ACAD_XDICTIONARY
360
4D9
102
}
102
{ACAD_REACTORS
330
4E3
102
}
330
1F
100
AcDbEntity
  8
0
 62
     1
100
AcDbDimension
  2
*D12
 10
478.5646222168852
 20
464.8260589359733
 30
0.0
 11
470.4396222168851
 21
524.8260589359735
 31
0.0
 70
    32
 71
     5
 42
120.0
 73
     0
 74
     0
 75
     0
  3
ISO-25
100
AcDbAlignedDimension
 13
478.5646222168852
 23
584.8260589359734
 33
0.0
 14
478.5646222168852
 24
464.8260589359733
 34
0.0
 50
90.0
100
AcDbRotatedDimension
  0
DIMENSION
  5
4E4
102
{ACAD_XDICTIONARY
360
4F1
102
}
102
{ACAD_REACTORS
330
4FB
102
}
330
1F
100
AcDbEntity
  8
0
 62
     1
100
AcDbDimension
  2
*D13
 10
513.932362418451
 20
355.4838444952947
 30
0.0
 11
413.930578436931
 21
363.6088444952948
 31
0.0
 70
    32
 71
     5
 42
200.00356796304
 73
     0
 74
     0
 75
     0
  3
ISO-25
100
AcDbAlignedDimension
 13
313.928794455411
 23
360.5332523795979
 33
0.0
 14
513.932362418451
 24
360.5413083634337
 34
0.0
100
AcDbRotatedDimension
  0
DIMENSION
  5
4FC
102
{ACAD_XDICTIONARY
360
509
102
}
102
{ACAD_REACTORS
330
513
102
}
330
1F
100
AcDbEntity
  8
0
 62
     1
100
AcDbDimension
  2
*D14
 10
464.5533092210489
 20
414.8260589359733
 30
0.0
 11
456.4283092210488
 21
344.8260589359735
 31
0.0
 70
    32
 71
     5
 42
140.0
 73
     0
 74
     0
 75
     0
  3
ISO-25
100
AcDbAlignedDimension
 13
440.9197636944991
 23
274.8260589359734
 33
0.0
 14
440.9197636944991
 24
414.8260589359733
 34
0.0
 50
90.0
100
AcDbRotatedDimension
  0
DIMENSION
  5
514
102
{ACAD_XDICTIONARY
360
521
102
}
102
{ACAD_REACTORS
330
52B
102
}
330
1F
100
AcDbEntity
  8
0
 62
     1
100
AcDbDimension
  2
*D15
 10
338.1229549620675
 20
414.8260589359733
 30
0.0
 11
329.9979549620673
 21
379.8272640232477
 31
0.0
 70
    32
 71
     5
 42
69.99758982545142
 73
     0
 74
     0
 75
     0
  3
ISO-25
100
AcDbAlignedDimension
 13
338.9305785991755
 23
344.8284691105218
 33
0.0
 14
344.6225662670631
 24
414.8260589359733
 34
0.0
 50
90.0
100
AcDbRotatedDimension
  0
LINE
  5
5AA
330
1F
100
AcDbEntity
  8
0
 62
     1
100
AcDbLine
 10
287.9305785991753
 20
515.3260589359731
 30
0.0
 11
290.4305785991755
 21
512.8260589359724
 31
0.0
  0
LINE
  5
5AB
330
1F
100
AcDbEntity
  8
0
 62
     1
100
AcDbLine
 10
539.9305785991757
 20
515.3260589359731
 30
0.0
 11
539.9305785991755
 21
534.3260589359731
 31
0.0
  0
LINE
  5
5AC
330
1F
100
AcDbEntity
  8
0
 62
     1
100
AcDbLine
 10
539.9305785991757
 20
534.3260589359731
 30
0.0
 11
537.4305785991755
 21
536.8260589359737
 31
0.0
  0
LINE
  5
5AD
330
1F
100
AcDbEntity
  8
0
 62
     1
100
AcDbLine
 10
539.9305785991757
 20
515.3260589359731
 30
0.0
 11
537.4305785991755
 21
512.8260589359724
 31
0.0
  0
LINE
  5
5B6
330
1F
100
AcDbEntity
  8
0
 62
     1
100
AcDbLine
 10
423.4305785991753
 20
620.8260589359732
 30
0.0
 11
425.9305785991759
 21
618.3260589359731
 31
0.0
  0
LINE
  5
5B7
330
1F
100
AcDbEntity
  8
0
 62
     1
100
AcDbLine
 10
404.4305785991753
 20
620.8260589359732
 30
0.0
 11
401.9305785991748
 21
618.3260589359731
 31
0.0
  0
ENDSEC
  0
SECTION
  2
OBJECTS
  0
DICTIONARY
  5
C
330
0
100
AcDbDictionary
281
     1
  3
ACAD_COLOR
350
6B
  3
ACAD_GROUP
350
D
  3
ACAD_LAYOUT
350
1A
  3
ACAD_MATERIAL
350
6A
  3
ACAD_MLINESTYLE
350
17
  3
ACAD_PLOTSETTINGS
350
19
  3
ACAD_PLOTSTYLENAME
350
E
  3
ACAD_TABLESTYLE
350
7E
  3
ACAD_VISUALSTYLE
350
F0
  3
AcDbVariableDictionary
350
5E
  0
DICTIONARY
  5
2E8
330
1F
100
AcDbDictionary
280
     1
281
     1
  3
ACAD_SORTENTS
360
2E9
  0
DICTIONARY
  5
4C1
330
4B4
100
AcDbDictionary
280
     1
281
     1
  3
ACAD_DIMASSOC
360
4CB
  0
DICTIONARY
  5
4D9
330
4CC
100
AcDbDictionary
280
     1
281
     1
  3
ACAD_DIMASSOC
360
4E3
  0
DICTIONARY
  5
4F1
330
4E4
100
AcDbDictionary
280
     1
281
     1
  3
ACAD_DIMASSOC
360
4FB
  0
DICTIONARY
  5
509
330
4FC
100
AcDbDictionary
280
     1
281
     1
  3
ACAD_DIMASSOC
360
513
  0
DICTIONARY
  5
521
330
514
100
AcDbDictionary
280
     1
281
     1
  3
ACAD_DIMASSOC
360
52B
  0
DICTIONARY
  5
6B
102
{ACAD_REACTORS
330
C
102
}
330
C
100
AcDbDictionary
281
     1
  0
DICTIONARY
  5
D
102
{ACAD_REACTORS
330
C
102
}
330
C
100
AcDbDictionary
281
     1
  0
DICTIONARY
  5
1A
102
{ACAD_REACTORS
330
C
102
}
330
C
100
AcDbDictionary
281
     1
  3
Model
350
22
  3
布局1
350
D3
  3
布局2
350
D7
  0
DICTIONARY
  5
6A
102
{ACAD_REACTORS
330
C
102
}
330
C
100
AcDbDictionary
281
     1
  3
ByBlock
350
EE
  3
ByLayer
350
ED
  3
Global
350
EF
  0
DICTIONARY
  5
17
102
{ACAD_REACTORS
330
C
102
}
330
C
100
AcDbDictionary
281
     1
  3
Standard
350
18
  0
DICTIONARY
  5
19
102
{ACAD_REACTORS
330
C
102
}
330
C
100
AcDbDictionary
281
     1
  0
ACDBDICTIONARYWDFLT
  5
E
102
{ACAD_REACTORS
330
C
102
}
330
C
100
AcDbDictionary
281
     1
  3
Normal
350
F
100
AcDbDictionaryWithDefault
340
F
  0
DICTIONARY
  5
7E
102
{ACAD_REACTORS
330
C
102
}
330
C
100
AcDbDictionary
281
     1
  3
Standard
350
7F
  0
DICTIONARY
  5
F0
102
{ACAD_REACTORS
330
C
102
}
330
C
100
AcDbDictionary
281
     1
  3
2dWireframe
350
F6
  3
3D Hidden
350
F8
  3
3dWireframe
350
F7
  3
Basic
350
F5
  3
Brighten
350
FC
  3
ColorChange
350
100
  3
Conceptual
350
F9
  3
Dim
350
FB
  3
Facepattern
350
FF
  3
Flat
350
F1
  3
FlatWithEdges
350
F2
  3
Gouraud
350
F3
  3
GouraudWithEdges
350
F4
  3
Linepattern
350
FE
  3
Realistic
350
FA
  3
Thicken
350
FD
  0
DICTIONARY
  5
5E
102
{ACAD_REACTORS
330
C
102
}
330
C
100
AcDbDictionary
281
     1
  3
CTABLESTYLE
350
84
  3
DIMASSOC
350
5F
  3
HIDETEXT
350
63
  0
SORTENTSTABLE
  5
2E9
102
{ACAD_REACTORS
330
2E8
102
}
330
2E8
100
AcDbSortentsTable
330
1F
331
4AC
  5
4AD
331
493
  5
494
331
4A0
  5
4A1
331
474
  5
475
331
487
  5
488
331
468
  5
468
331
123
  5
123
331
4B1
  5
4B2
331
4E4
  5
4FC
331
47B
  5
47C
331
48E
  5
48F
331
49B
  5
49C
331
46F
  5
46F
331
482
  5
483
331
4AE
  5
4AF
331
495
  5
496
331
4A2
  5
4A3
331
476
  5
477
331
489
  5
48A
331
46A
  5
46A
331
4B3
  5
4B4
331
47D
  5
47E
331
490
  5
491
331
49D
  5
49E
331
466
  5
466
331
471
  5
471
331
484
  5
485
331
497
  5
498
331
498
  5
499
331
478
  5
479
331
48B
  5
48C
331
46C
  5
46C
331
514
  5
5A7
331
4AB
  5
4AC
331
49F
  5
4A0
331
4CC
  5
4E4
331
47F
  5
480
331
492
  5
493
331
473
  5
473
331
486
  5
487
331
4B0
  5
4B1
331
49A
  5
49B
331
47A
  5
47B
331
48D
  5
48E
331
46E
  5
46E
331
481
  5
482
331
4AD
  5
4AE
331
4A1
  5
4A2
331
494
  5
495
331
475
  5
476
331
488
  5
489
331
469
  5
469
331
4B2
  5
4B3
331
4A8
  5
4A9
331
49C
  5
49D
331
47C
  5
47D
331
48F
  5
490
331
465
  5
465
331
470
  5
470
331
483
  5
484
331
4AF
  5
4B0
331
4FC
  5
514
331
4A3
  5
4A4
331
496
  5
497
331
477
  5
478
331
48A
  5
48B
331
46B
  5
46B
331
4B4
  5
4CC
331
491
  5
492
331
49E
  5
49F
331
47E
  5
47F
331
467
  5
467
331
472
  5
472
331
485
  5
486
331
479
  5
47A
331
48C
  5
48D
331
499
  5
49A
331
480
  5
481
331
46D
  5
46D
  0
DIMASSOC
  5
4CB
102
{ACAD_REACTORS
330
4C1
102
}
330
4C1
100
AcDbDimAssoc
330
4B4
 90
        3
 70
     0
 71
     0
  1
AcDbOsnapPointRef
 72
    10
331
466
 73
     2
 91
        0
 40
0.5696568436461897
 10
0.0
 20
0.0
 30
0.0
 75
     0
  1
AcDbOsnapPointRef
 72
     8
331
46B
 73
     2
 91
        0
 40
0.4303431563538103
 10
0.0
 20
0.0
 30
0.0
 75
     1
  1
AcDbOsnapPointRef
 72
    10
331
466
 73
     2
 91
        0
 40
0.5696568436461897
 10
0.0
 20
0.0
 30
0.0
 75
     0
  0
DIMASSOC
  5
4E3
102
{ACAD_REACTORS
330
4D9
102
}
330
4D9
100
AcDbDimAssoc
330
4CC
 90
        3
 70
     0
 71
     0
  1
AcDbOsnapPointRef
 72
    10
331
465
 73
     2
 91
        0
 40
0.140921979901613
 10
0.0
 20
0.0
 30
0.0
 75
     0
  1
AcDbOsnapPointRef
 72
     8
331
467
 73
     2
 91
        0
 40
0.8590780200983871
 10
0.0
 20
0.0
 30
0.0
 75
     1
  1
AcDbOsnapPointRef
 72
    10
331
465
 73
     2
 91
        0
 40
0.140921979901613
 10
0.0
 20
0.0
 30
0.0
 75
     0
  0
DIMASSOC
  5
4FB
102
{ACAD_REACTORS
330
4F1
102
}
330
4F1
100
AcDbDimAssoc
330
4E4
 90
        3
 70
     0
 71
     0
  1
AcDbOsnapPointRef
 72
    10
331
496
 73
     2
 91
        0
 40
0.369115193354044
 10
0.0
 20
0.0
 30
0.0
 75
     0
  1
AcDbOsnapPointRef
 72
     8
331
4A1
 73
     2
 91
        0
 40
0.3690486170087302
 10
0.0
 20
0.0
 30
0.0
 75
     1
  1
AcDbOsnapPointRef
 72
    10
331
496
 73
     2
 91
        0
 40
0.369115193354044
 10
0.0
 20
0.0
 30
0.0
 75
     0
  0
DIMASSOC
  5
513
102
{ACAD_REACTORS
330
509
102
}
330
509
100
AcDbDimAssoc
330
4FC
 90
        3
 70
     0
 71
     0
  1
AcDbOsnapPointRef
 72
    10
331
48C
 73
     2
 91
        0
 40
0.6499399171962433
 10
0.0
 20
0.0
 30
0.0
 75
     0
  1
AcDbOsnapPointRef
 72
     8
331
468
 73
     2
 91
        0
 40
0.6349459254766182
 10
0.0
 20
0.0
 30
0.0
 75
     1
  1
AcDbOsnapPointRef
 72
    10
331
48C
 73
     2
 91
        0
 40
0.6499399171962433
 10
0.0
 20
0.0
 30
0.0
 75
     0
  0
DIMASSOC
  5
52B
102
{ACAD_REACTORS
330
521
102
}
330
521
100
AcDbDimAssoc
330
514
 90
        3
 70
     0
 71
     0
  1
AcDbOsnapPointRef
 72
     2
331
4AB
 73
     2
 91
        0
 40
0.5
 10
0.0
 20
0.0
 30
0.0
 75
     0
  1
AcDbOsnapPointRef
 72
    10
331
468
 73
     2
 91
        0
 40
0.1534599383394384
 10
0.0
 20
0.0
 30
0.0
 75
     0
  0
LAYOUT
  5
22
102
{ACAD_REACTORS
330
1A
102
}
330
1A
100
AcDbPlotSettings
  1

  2
none_device
  4
ISO_A4_(210.00_x_297.00_MM)
  6

 40
7.5
 41
20.0
 42
7.5
 43
20.0
 44
210.0
 45
297.0
 46
11.54999923706054
 47
-13.65000009536743
 48
0.0
 49
0.0
140
0.0
141
0.0
142
1.0
143
8.704084754739808
 70
 11952
 72
     1
 73
     0
 74
     0
  7

 75
     0
147
0.1148885871608098
 76
     0
 77
     2
 78
   300
148
0.0
149
0.0
100
AcDbLayout
  1
Model
 70
     1
 71
     0
 10
0.0
 20
0.0
 11
12.0
 21
9.0
 12
0.0
 22
0.0
 32
0.0
 14
0.0
 24
0.0
 34
0.0
 15
0.0
 25
0.0
 35
0.0
146
0.0
 13
0.0
 23
0.0
 33
0.0
 16
1.0
 26
0.0
 36
0.0
 17
0.0
 27
1.0
 37
0.0
 76
     0
330
1F
331
EB
1001
ACAD_PSEXT
1000
None
1000
None
1000
Not applicable
1000
The layout will not be plotted unless a new plotter configuration name is selected.
1070
     0
  0
LAYOUT
  5
D3
102
{ACAD_REACTORS
330
1A
102
}
330
1A
100
AcDbPlotSettings
  1

  2
C:\Documents and Settings\basas\Application Data\Autodesk\AutoCAD 2005\R16.1\enu\plotters\Default Windows System Printer.pc3
  4

  6

 40
0.0
 41
0.0
 42
0.0
 43
0.0
 44
0.0
 45
0.0
 46
0.0
 47
0.0
 48
0.0
 49
0.0
140
0.0
141
0.0
142
1.0
143
1.0
 70
   688
 72
     0
 73
     0
 74
     5
  7

 75
    16
147
1.0
 76
     0
 77
     2
 78
   300
148
0.0
149
0.0
100
AcDbLayout
  1
布局1
 70
     1
 71
     1
 10
0.0
 20
0.0
 11
12.0
 21
9.0
 12
0.0
 22
0.0
 32
0.0
 14
0.0
 24
0.0
 34
0.0
 15
0.0
 25
0.0
 35
0.0
146
0.0
 13
0.0
 23
0.0
 33
0.0
 16
1.0
 26
0.0
 36
0.0
 17
0.0
 27
1.0
 37
0.0
 76
     0
330
D2
  0
LAYOUT
  5
D7
102
{ACAD_REACTORS
330
1A
102
}
330
1A
100
AcDbPlotSettings
  1

  2
C:\Documents and Settings\basas\Application Data\Autodesk\AutoCAD 2005\R16.1\enu\plotters\Default Windows System Printer.pc3
  4

  6

 40
0.0
 41
0.0
 42
0.0
 43
0.0
 44
0.0
 45
0.0
 46
0.0
 47
0.0
 48
0.0
 49
0.0
140
0.0
141
0.0
142
1.0
143
1.0
 70
   688
 72
     0
 73
     0
 74
     5
  7

 75
    16
147
1.0
 76
     0
 77
     2
 78
   300
148
0.0
149
0.0
100
AcDbLayout
  1
布局2
 70
     1
 71
     2
 10
0.0
 20
0.0
 11
12.0
 21
9.0
 12
0.0
 22
0.0
 32
0.0
 14
0.0
 24
0.0
 34
0.0
 15
0.0
 25
0.0
 35
0.0
146
0.0
 13
0.0
 23
0.0
 33
0.0
 16
1.0
 26
0.0
 36
0.0
 17
0.0
 27
1.0
 37
0.0
 76
     0
330
D6
  0
MATERIAL
  5
EE
102
{ACAD_REACTORS
330
6A
102
}
330
6A
100
AcDbMaterial
  1
ByBlock
  0
MATERIAL
  5
ED
102
{ACAD_REACTORS
330
6A
102
}
330
6A
100
AcDbMaterial
  1
ByLayer
  0
MATERIAL
  5
EF
102
{ACAD_REACTORS
330
6A
102
}
330
6A
100
AcDbMaterial
  1
Global
  0
MLINESTYLE
  5
18
102
{ACAD_REACTORS
330
17
102
}
330
17
100
AcDbMlineStyle
  2
STANDARD
 70
     0
  3

 62
   256
 51
90.0
 52
90.0
 71
     2
 49
0.5
 62
   256
  6
BYLAYER
 49
-0.5
 62
   256
  6
BYLAYER
  0
ACDBPLACEHOLDER
  5
F
102
{ACAD_REACTORS
330
E
102
}
330
E
  0
TABLESTYLE
  5
7F
102
{ACAD_REACTORS
330
7E
102
}
330
7E
100
AcDbTableStyle
  3
Standard
 70
     0
 71
     0
 40
1.5
 41
1.5
280
     0
281
     0
  7
Standard
140
4.5
170
     2
 62
     0
 63
     7
283
     0
 90
      512
 91
        0
  1

274
    -2
284
     1
 64
     0
275
    -2
285
     1
 65
     0
276
    -2
286
     1
 66
     0
277
    -2
287
     1
 67
     0
278
    -2
288
     1
 68
     0
279
    -2
289
     1
 69
     0
  7
Standard
140
6.0
170
     5
 62
     0
 63
     7
283
     0
 90
      512
 91
        0
  1

274
    -2
284
     1
 64
     0
275
    -2
285
     1
 65
     0
276
    -2
286
     1
 66
     0
277
    -2
287
     1
 67
     0
278
    -2
288
     1
 68
     0
279
    -2
289
     1
 69
     0
  7
Standard
140
4.5
170
     5
 62
     0
 63
     7
283
     0
 90
      512
 91
        0
  1

274
    -2
284
     1
 64
     0
275
    -2
285
     1
 65
     0
276
    -2
286
     1
 66
     0
277
    -2
287
     1
 67
     0
278
    -2
288
     1
 68
     0
279
    -2
289
     1
 69
     0
  0
VISUALSTYLE
  5
F6
102
{ACAD_REACTORS
330
F0
102
}
330
F0
100
AcDbVisualStyle
  2
2dWireframe
 70
     4
 71
     0
 72
     2
 73
     1
 90
        0
 40
-0.6
 41
-30.0
 62
     5
 63
     7
421
 16777215
 74
     1
 91
        4
 64
     7
 65
   257
 75
     1
175
     1
 42
1.0
 92
        0
 66
   257
 43
1.0
 76
     1
 77
     6
 78
     2
 67
     7
 79
     5
170
     0
171
     0
290
     0
174
     0
 93
        1
 44
0.0
173
     0
291
     0
 45
0.0
  0
VISUALSTYLE
  5
F8
102
{ACAD_REACTORS
330
F0
102
}
330
F0
100
AcDbVisualStyle
  2
3D Hidden
 70
     6
 71
     1
 72
     2
 73
     2
 90
        0
 40
-0.6
 41
-30.0
 62
     5
 63
     7
421
 16777215
 74
     2
 91
        2
 64
     7
 65
   257
 75
     2
175
     1
 42
40.0
 92
        0
 66
   257
 43
1.0
 76
     1
 77
     6
 78
     2
 67
     7
 79
     3
170
     0
171
     0
290
     0
174
     0
 93
        1
 44
0.0
173
     0
291
     0
 45
0.0
  0
VISUALSTYLE
  5
F7
102
{ACAD_REACTORS
330
F0
102
}
330
F0
100
AcDbVisualStyle
  2
3dWireframe
 70
     5
 71
     0
 72
     2
 73
     1
 90
        0
 40
-0.6
 41
-30.0
 62
     5
 63
     7
421
 16777215
 74
     1
 91
        4
 64
     7
 65
   257
 75
     1
175
     1
 42
1.0
 92
        0
 66
   257
 43
1.0
 76
     1
 77
     6
 78
     2
 67
     7
 79
     5
170
     0
171
     0
290
     0
174
     0
 93
        1
 44
0.0
173
     0
291
     0
 45
0.0
  0
VISUALSTYLE
  5
F5
102
{ACAD_REACTORS
330
F0
102
}
330
F0
100
AcDbVisualStyle
  2
Basic
 70
     7
 71
     1
 72
     0
 73
     1
 90
        0
 40
-0.6
 41
-30.0
 62
     5
 63
     7
421
 16777215
 74
     0
 91
        4
 64
     7
 65
   257
 75
     1
175
     1
 42
1.0
 92
        8
 66
     7
 43
1.0
 76
     1
 77
     6
 78
     2
 67
     7
 79
     5
170
     0
171
     0
290
     0
174
     0
 93
        1
 44
0.0
173
     0
291
     1
 45
0.0
  0
VISUALSTYLE
  5
FC
102
{ACAD_REACTORS
330
F0
102
}
330
F0
100
AcDbVisualStyle
  2
Brighten
 70
    12
 71
     2
 72
     2
 73
     1
 90
        0
 40
-0.6
 41
-30.0
 62
     5
 63
     7
421
 16777215
 74
     1
 91
        4
 64
     7
 65
   257
 75
     1
175
     1
 42
1.0
 92
        8
 66
     7
 43
1.0
 76
     1
 77
     6
 78
     2
 67
     7
 79
     5
170
     0
171
     0
290
     0
174
     0
 93
        1
 44
50.0
173
     0
291
     1
 45
0.0
  0
VISUALSTYLE
  5
100
102
{ACAD_REACTORS
330
F0
102
}
330
F0
100
AcDbVisualStyle
  2
ColorChange
 70
    16
 71
     2
 72
     2
 73
     3
 90
        0
 40
-0.6
 41
-30.0
 62
     5
 63
     8
421
  8421504
 74
     1
 91
        4
 64
     7
 65
   257
 75
     1
175
     1
 42
1.0
 92
        8
 66
     8
424
  8421504
 43
1.0
 76
     1
 77
     6
 78
     2
 67
     7
 79
     5
170
     0
171
     0
290
     0
174
     0
 93
        1
 44
0.0
173
     0
291
     1
 45
0.0
  0
VISUALSTYLE
  5
F9
102
{ACAD_REACTORS
330
F0
102
}
330
F0
100
AcDbVisualStyle
  2
Conceptual
 70
     9
 71
     3
 72
     2
 73
     1
 90
        0
 40
-0.6
 41
-30.0
 62
     5
 63
     7
421
 16777215
 74
     2
 91
        2
 64
     7
 65
   257
 75
     1
175
     1
 42
40.0
 92
        8
 66
     7
 43
1.0
 76
     1
 77
     6
 78
     2
 67
     7
 79
     3
170
     0
171
     0
290
     0
174
     0
 93
        1
 44
0.0
173
     0
291
     0
 45
0.0
  0
VISUALSTYLE
  5
FB
102
{ACAD_REACTORS
330
F0
102
}
330
F0
100
AcDbVisualStyle
  2
Dim
 70
    11
 71
     2
 72
     2
 73
     1
 90
        0
 40
-0.6
 41
-30.0
 62
     5
 63
     7
421
 16777215
 74
     1
 91
        4
 64
     7
 65
   257
 75
     1
175
     1
 42
1.0
 92
        8
 66
     7
 43
1.0
 76
     1
 77
     6
 78
     2
 67
     7
 79
     5
170
     0
171
     0
290
     0
174
     0
 93
        1
 44
-50.0
173
     0
291
     1
 45
0.0
  0
VISUALSTYLE
  5
FF
102
{ACAD_REACTORS
330
F0
102
}
330
F0
100
AcDbVisualStyle
  2
Facepattern
 70
    15
 71
     2
 72
     2
 73
     1
 90
        0
 40
-0.6
 41
-30.0
 62
     5
 63
     7
421
 16777215
 74
     1
 91
        4
 64
     7
 65
   257
 75
     1
175
     1
 42
1.0
 92
        8
 66
     7
 43
1.0
 76
     1
 77
     6
 78
     2
 67
     7
 79
     5
170
     0
171
     0
290
     0
174
     0
 93
        1
 44
0.0
173
     0
291
     1
 45
0.0
  0
VISUALSTYLE
  5
F1
102
{ACAD_REACTORS
330
F0
102
}
330
F0
100
AcDbVisualStyle
  2
Flat
 70
     0
 71
     2
 72
     1
 73
     1
 90
        2
 40
-0.6
 41
30.0
 62
     5
 63
     7
421
 16777215
 74
     0
 91
        4
 64
     7
 65
   257
 75
     1
175
     1
 42
1.0
 92
        8
 66
     7
 43
1.0
 76
     1
 77
     6
 78
     2
 67
     7
 79
     5
170
     0
171
     0
290
     0
174
     0
 93
        1
 44
0.0
173
     0
291
     1
 45
0.0
  0
VISUALSTYLE
  5
F2
102
{ACAD_REACTORS
330
F0
102
}
330
F0
100
AcDbVisualStyle
  2
FlatWithEdges
 70
     1
 71
     2
 72
     1
 73
     1
 90
        2
 40
-0.6
 41
30.0
 62
     5
 63
     7
421
 16777215
 74
     1
 91
        4
 64
     7
 65
   257
 75
     1
175
     1
 42
1.0
 92
        0
 66
   257
 43
1.0
 76
     1
 77
     6
 78
     2
 67
     7
 79
     5
170
     0
171
     0
290
     0
174
     0
 93
        1
 44
0.0
173
     0
291
     1
 45
0.0
  0
VISUALSTYLE
  5
F3
102
{ACAD_REACTORS
330
F0
102
}
330
F0
100
AcDbVisualStyle
  2
Gouraud
 70
     2
 71
     2
 72
     2
 73
     1
 90
        2
 40
-0.6
 41
30.0
 62
     5
 63
     7
421
 16777215
 74
     0
 91
        4
 64
     7
 65
   257
 75
     1
175
     1
 42
1.0
 92
        0
 66
     7
 43
1.0
 76
     1
 77
     6
 78
     2
 67
     7
 79
     5
170
     0
171
     0
290
     0
174
     0
 93
        1
 44
0.0
173
     0
291
     1
 45
0.0
  0
VISUALSTYLE
  5
F4
102
{ACAD_REACTORS
330
F0
102
}
330
F0
100
AcDbVisualStyle
  2
GouraudWithEdges
 70
     3
 71
     2
 72
     2
 73
     1
 90
        2
 40
-0.6
 41
30.0
 62
     5
 63
     7
421
 16777215
 74
     1
 91
        4
 64
     7
 65
   257
 75
     1
175
     1
 42
1.0
 92
        0
 66
   257
 43
1.0
 76
     1
 77
     6
 78
     2
 67
     7
 79
     5
170
     0
171
     0
290
     0
174
     0
 93
        1
 44
0.0
173
     0
291
     1
 45
0.0
  0
VISUALSTYLE
  5
FE
102
{ACAD_REACTORS
330
F0
102
}
330
F0
100
AcDbVisualStyle
  2
Linepattern
 70
    14
 71
     2
 72
     2
 73
     1
 90
        0
 40
-0.6
 41
-30.0
 62
     5
 63
     7
421
 16777215
 74
     1
 91
        4
 64
     7
 65
   257
 75
     7
175
     7
 42
1.0
 92
        8
 66
     7
 43
1.0
 76
     1
 77
     6
 78
     2
 67
     7
 79
     5
170
     0
171
     0
290
     0
174
     0
 93
        1
 44
0.0
173
     0
291
     1
 45
0.0
  0
VISUALSTYLE
  5
FA
102
{ACAD_REACTORS
330
F0
102
}
330
F0
100
AcDbVisualStyle
  2
Realistic
 70
     8
 71
     2
 72
     2
 73
     1
 90
        0
 40
-0.6
 41
-30.0
 62
     5
 63
     7
421
 16777215
 74
     1
 91
        0
 64
     7
 65
   257
 75
     1
175
     1
 42
1.0
 92
        8
 66
     8
424
  7895160
 43
1.0
 76
     1
 77
     6
 78
     2
 67
     7
 79
     5
170
     0
171
     0
290
     0
174
     0
 93
       13
 44
0.0
173
     0
291
     0
 45
0.0
  0
VISUALSTYLE
  5
FD
102
{ACAD_REACTORS
330
F0
102
}
330
F0
100
AcDbVisualStyle
  2
Thicken
 70
    13
 71
     2
 72
     2
 73
     1
 90
        0
 40
-0.6
 41
-30.0
 62
     5
 63
     7
421
 16777215
 74
     1
 91
        4
 64
     7
 65
   257
 75
     1
175
     1
 42
1.0
 92
       12
 66
     7
 43
1.0
 76
     1
 77
     6
 78
     2
 67
     7
 79
     5
170
     0
171
     0
290
     0
174
     0
 93
        1
 44
0.0
173
     0
291
     1
 45
0.0
  0
DICTIONARYVAR
  5
84
102
{ACAD_REACTORS
330
5E
102
}
330
5E
100
DictionaryVariables
280
     0
  1
STANDARD
  0
DICTIONARYVAR
  5
5F
102
{ACAD_REACTORS
330
5E
102
}
330
5E
100
DictionaryVariables
280
     0
  1
2
  0
DICTIONARYVAR
  5
63
102
{ACAD_REACTORS
330
5E
102
}
330
5E
100
DictionaryVariables
280
     0
  1
1
  0
ENDSEC
  0
EOF
