  0
SECTION
  2
HEADER
  9
$ACADVER
  1
AC1021
  9
$ACADMAINTVER
 70
     1
  9
$DWGCODEPAGE
  3
ANSI_936
  9
$LASTSAVEDBY
  1
chnn
  9
$INSBASE
 10
0.0
 20
0.0
 30
0.0
  9
$EXTMIN
 10
857.1425798498195
 20
661.187057245818
 30
0.0
  9
$EXTMAX
 10
2007.971629488146
 20
1411.814510473035
 30
0.0
  9
$LIMMIN
 10
0.0
 20
0.0
  9
$LIMMAX
 10
420.0
 20
297.0
  9
$ORTHOMODE
 70
     1
  9
$REGENMODE
 70
     1
  9
$FILLMODE
 70
     1
  9
$QTEXTMODE
 70
     0
  9
$MIRRTEXT
 70
     0
  9
$LTSCALE
 40
1.0
  9
$ATTMODE
 70
     1
  9
$TEXTSIZE
 40
2.5
  9
$TRACEWID
 40
1.0
  9
$TEXTSTYLE
  7
Standard
  9
$CLAYER
  8
0
  9
$CELTYPE
  6
ByLayer
  9
$CECOLOR
 62
     1
  9
$CELTSCALE
 40
1.0
  9
$DISPSILH
 70
     0
  9
$DIMSCALE
 40
1.0
  9
$DIMASZ
 40
2.5
  9
$DIMEXO
 40
0.625
  9
$DIMDLI
 40
3.75
  9
$DIMRND
 40
0.0
  9
$DIMDLE
 40
0.0
  9
$DIMEXE
 40
1.25
  9
$DIMTP
 40
0.0
  9
$DIMTM
 40
0.0
  9
$DIMTXT
 40
10.0
  9
$DIMCEN
 40
2.5
  9
$DIMTSZ
 40
0.0
  9
$DIMTOL
 70
     0
  9
$DIMLIM
 70
     0
  9
$DIMTIH
 70
     0
  9
$DIMTOH
 70
     0
  9
$DIMSE1
 70
     0
  9
$DIMSE2
 70
     0
  9
$DIMTAD
 70
     1
  9
$DIMZIN
 70
     8
  9
$DIMBLK
  1

  9
$DIMASO
 70
     1
  9
$DIMSHO
 70
     1
  9
$DIMPOST
  1

  9
$DIMAPOST
  1

  9
$DIMALT
 70
     0
  9
$DIMALTD
 70
     3
  9
$DIMALTF
 40
0.03937007874016
  9
$DIMLFAC
 40
1.0
  9
$DIMTOFL
 70
     1
  9
$DIMTVP
 40
0.0
  9
$DIMTIX
 70
     0
  9
$DIMSOXD
 70
     0
  9
$DIMSAH
 70
     0
  9
$DIMBLK1
  1

  9
$DIMBLK2
  1

  9
$DIMSTYLE
  2
ISO-25
  9
$DIMCLRD
 70
     0
  9
$DIMCLRE
 70
     0
  9
$DIMCLRT
 70
     0
  9
$DIMTFAC
 40
1.0
  9
$DIMGAP
 40
0.625
  9
$DIMJUST
 70
     0
  9
$DIMSD1
 70
     0
  9
$DIMSD2
 70
     0
  9
$DIMTOLJ
 70
     0
  9
$DIMTZIN
 70
     8
  9
$DIMALTZ
 70
     0
  9
$DIMALTTZ
 70
     0
  9
$DIMUPT
 70
     0
  9
$DIMDEC
 70
     1
  9
$DIMTDEC
 70
     1
  9
$DIMALTU
 70
     2
  9
$DIMALTTD
 70
     3
  9
$DIMTXSTY
  7
Standard
  9
$DIMAUNIT
 70
     0
  9
$DIMADEC
 70
     0
  9
$DIMALTRND
 40
0.0
  9
$DIMAZIN
 70
     0
  9
$DIMDSEP
 70
    44
  9
$DIMATFIT
 70
     3
  9
$DIMFRAC
 70
     0
  9
$DIMLDRBLK
  1

  9
$DIMLUNIT
 70
     2
  9
$DIMLWD
 70
    -2
  9
$DIMLWE
 70
    -2
  9
$DIMTMOVE
 70
     0
  9
$DIMFXL
 40
1.0
  9
$DIMFXLON
 70
     0
  9
$DIMJOGANG
 40
0.7853981633974483
  9
$DIMTFILL
 70
     0
  9
$DIMTFILLCLR
 70
     0
  9
$DIMARCSYM
 70
     0
  9
$DIMLTYPE
  6

  9
$DIMLTEX1
  6

  9
$DIMLTEX2
  6

  9
$LUNITS
 70
     2
  9
$LUPREC
 70
     4
  9
$SKETCHINC
 40
1.0
  9
$FILLETRAD
 40
7.799999999999998
  9
$AUNITS
 70
     0
  9
$AUPREC
 70
     0
  9
$MENU
  1
.
  9
$ELEVATION
 40
0.0
  9
$PELEVATION
 40
0.0
  9
$THICKNESS
 40
0.0
  9
$LIMCHECK
 70
     0
  9
$CHAMFERA
 40
0.0
  9
$CHAMFERB
 40
0.0
  9
$CHAMFERC
 40
0.0
  9
$CHAMFERD
 40
0.0
  9
$SKPOLY
 70
     0
  9
$TDCREATE
 40
2457564.651714468
  9
$TDUCREATE
 40
2457564.318381134
  9
$TDUPDATE
 40
2457688.703103542
  9
$TDUUPDATE
 40
2457688.369770208
  9
$TDINDWG
 40
0.1262151042
  9
$TDUSRTIMER
 40
0.1262135880
  9
$USRTIMER
 70
     1
  9
$ANGBASE
 50
0.0
  9
$ANGDIR
 70
     0
  9
$PDMODE
 70
     0
  9
$PDSIZE
 40
0.0
  9
$PLINEWID
 40
0.0
  9
$SPLFRAME
 70
     0
  9
$SPLINETYPE
 70
     6
  9
$SPLINESEGS
 70
     8
  9
$HANDSEED
  5
16E2
  9
$SURFTAB1
 70
     6
  9
$SURFTAB2
 70
     6
  9
$SURFTYPE
 70
     6
  9
$SURFU
 70
     6
  9
$SURFV
 70
     6
  9
$UCSBASE
  2

  9
$UCSNAME
  2

  9
$UCSORG
 10
0.0
 20
0.0
 30
0.0
  9
$UCSXDIR
 10
1.0
 20
0.0
 30
0.0
  9
$UCSYDIR
 10
0.0
 20
1.0
 30
0.0
  9
$UCSORTHOREF
  2

  9
$UCSORTHOVIEW
 70
     0
  9
$UCSORGTOP
 10
0.0
 20
0.0
 30
0.0
  9
$UCSORGBOTTOM
 10
0.0
 20
0.0
 30
0.0
  9
$UCSORGLEFT
 10
0.0
 20
0.0
 30
0.0
  9
$UCSORGRIGHT
 10
0.0
 20
0.0
 30
0.0
  9
$UCSORGFRONT
 10
0.0
 20
0.0
 30
0.0
  9
$UCSORGBACK
 10
0.0
 20
0.0
 30
0.0
  9
$PUCSBASE
  2

  9
$PUCSNAME
  2

  9
$PUCSORG
 10
0.0
 20
0.0
 30
0.0
  9
$PUCSXDIR
 10
1.0
 20
0.0
 30
0.0
  9
$PUCSYDIR
 10
0.0
 20
1.0
 30
0.0
  9
$PUCSORTHOREF
  2

  9
$PUCSORTHOVIEW
 70
     0
  9
$PUCSORGTOP
 10
0.0
 20
0.0
 30
0.0
  9
$PUCSORGBOTTOM
 10
0.0
 20
0.0
 30
0.0
  9
$PUCSORGLEFT
 10
0.0
 20
0.0
 30
0.0
  9
$PUCSORGRIGHT
 10
0.0
 20
0.0
 30
0.0
  9
$PUCSORGFRONT
 10
0.0
 20
0.0
 30
0.0
  9
$PUCSORGBACK
 10
0.0
 20
0.0
 30
0.0
  9
$USERI1
 70
     0
  9
$USERI2
 70
     0
  9
$USERI3
 70
     0
  9
$USERI4
 70
     0
  9
$USERI5
 70
     0
  9
$USERR1
 40
0.0
  9
$USERR2
 40
0.0
  9
$USERR3
 40
0.0
  9
$USERR4
 40
0.0
  9
$USERR5
 40
0.0
  9
$WORLDVIEW
 70
     1
  9
$SHADEDGE
 70
     3
  9
$SHADEDIF
 70
    70
  9
$TILEMODE
 70
     1
  9
$MAXACTVP
 70
    64
  9
$PINSBASE
 10
0.0
 20
0.0
 30
0.0
  9
$PLIMCHECK
 70
     0
  9
$PEXTMIN
 10
0.0
 20
0.0
 30
0.0
  9
$PEXTMAX
 10
0.0
 20
0.0
 30
0.0
  9
$PLIMMIN
 10
0.0
 20
0.0
  9
$PLIMMAX
 10
12.0
 20
9.0
  9
$UNITMODE
 70
     0
  9
$VISRETAIN
 70
     1
  9
$PLINEGEN
 70
     0
  9
$PSLTSCALE
 70
     1
  9
$TREEDEPTH
 70
  3020
  9
$CMLSTYLE
  2
Standard
  9
$CMLJUST
 70
     0
  9
$CMLSCALE
 40
20.0
  9
$PROXYGRAPHICS
 70
     1
  9
$MEASUREMENT
 70
     1
  9
$CELWEIGHT
370
    -1
  9
$ENDCAPS
280
     0
  9
$JOINSTYLE
280
     0
  9
$LWDISPLAY
290
     0
  9
$INSUNITS
 70
     4
  9
$HYPERLINKBASE
  1

  9
$STYLESHEET
  1

  9
$XEDIT
290
     1
  9
$CEPSNTYPE
380
     0
  9
$PSTYLEMODE
290
     1
  9
$FINGERPRINTGUID
  2
{2BB90E23-BC07-4253-9D8C-E62D6A16DF76}
  9
$VERSIONGUID
  2
{B1C541E6-B819-40D7-A693-CB65F316FC7E}
  9
$EXTNAMES
290
     1
  9
$PSVPSCALE
 40
0.0
  9
$OLESTARTUP
290
     0
  9
$SORTENTS
280
   127
  9
$INDEXCTL
280
     0
  9
$HIDETEXT
280
     1
  9
$XCLIPFRAME
290
     0
  9
$HALOGAP
280
     0
  9
$OBSCOLOR
 70
   257
  9
$OBSLTYPE
280
     0
  9
$INTERSECTIONDISPLAY
280
     0
  9
$INTERSECTIONCOLOR
 70
   257
  9
$DIMASSOC
280
     2
  9
$PROJECTNAME
  1

  9
$CAMERADISPLAY
290
     0
  9
$LENSLENGTH
 40
50.0
  9
$CAMERAHEIGHT
 40
0.0
  9
$STEPSPERSEC
 40
2.0
  9
$STEPSIZE
 40
6.0
  9
$3DDWFPREC
 40
2.0
  9
$PSOLWIDTH
 40
5.0
  9
$PSOLHEIGHT
 40
80.0
  9
$LOFTANG1
 40
1.570796326794896
  9
$LOFTANG2
 40
1.570796326794896
  9
$LOFTMAG1
 40
0.0
  9
$LOFTMAG2
 40
0.0
  9
$LOFTPARAM
 70
     7
  9
$LOFTNORMALS
280
     1
  9
$LATITUDE
 40
37.795
  9
$LONGITUDE
 40
-122.394
  9
$NORTHDIRECTION
 40
0.0
  9
$TIMEZONE
 70
 -8000
  9
$LIGHTGLYPHDISPLAY
280
     1
  9
$TILEMODELIGHTSYNCH
280
     1
  9
$CMATERIAL
347
ED
  9
$SOLIDHIST
280
     1
  9
$SHOWHIST
280
     1
  9
$DWFFRAME
280
     2
  9
$DGNFRAME
280
     0
  9
$REALWORLDSCALE
290
     1
  9
$INTERFERECOLOR
 62
     1
  9
$INTERFEREOBJVS
345
FA
  9
$INTERFEREVPVS
346
F7
  9
$CSHADOW
280
     0
  9
$SHADOWPLANELOCATION
 40
0.0
  0
ENDSEC
  0
SECTION
  2
CLASSES
  0
CLASS
  1
ACDBDICTIONARYWDFLT
  2
AcDbDictionaryWithDefault
  3
ObjectDBX Classes
 90
        0
 91
        1
280
     0
281
     0
  0
CLASS
  1
DICTIONARYVAR
  2
AcDbDictionaryVar
  3
ObjectDBX Classes
 90
        0
 91
        3
280
     0
281
     0
  0
CLASS
  1
TABLESTYLE
  2
AcDbTableStyle
  3
ObjectDBX Classes
 90
     4095
 91
        1
280
     0
281
     0
  0
CLASS
  1
MATERIAL
  2
AcDbMaterial
  3
ObjectDBX Classes
 90
     1024
 91
        3
280
     0
281
     0
  0
CLASS
  1
VISUALSTYLE
  2
AcDbVisualStyle
  3
ObjectDBX Classes
 90
     4095
 91
       16
280
     0
281
     0
  0
CLASS
  1
SORTENTSTABLE
  2
AcDbSortentsTable
  3
ObjectDBX Classes
 90
        0
 91
        1
280
     0
281
     0
  0
CLASS
  1
DIMASSOC
  2
AcDbDimAssoc
  3
"AcDbDimAssoc|Product Desc:     AcDim ARX App For Dimension|Company:          Autodesk, Inc.|WEB Address:      www.autodesk.com"
 90
        0
 91
       12
280
     0
281
     0
  0
ENDSEC
  0
SECTION
  2
TABLES
  0
TABLE
  2
VPORT
  5
8
330
0
100
AcDbSymbolTable
 70
     1
  0
VPORT
  5
EB
330
8
100
AcDbSymbolTableRecord
100
AcDbViewportTableRecord
  2
*Active
 70
     0
 10
0.0
 20
0.0
 11
1.0
 21
1.0
 12
1685.230143276704
 22
958.0721849242866
 13
0.0
 23
0.0
 14
10.0
 24
10.0
 15
10.0
 25
10.0
 16
0.0
 26
0.0
 36
1.0
 17
0.0
 27
0.0
 37
0.0
 40
1024.519504858663
 41
2.223150357995226
 42
50.0
 43
0.0
 44
0.0
 50
0.0
 51
0.0
 71
     0
 72
  1000
 73
     1
 74
     3
 75
     0
 76
     0
 77
     0
 78
     0
281
     0
 65
     1
110
0.0
120
0.0
130
0.0
111
1.0
121
0.0
131
0.0
112
0.0
122
1.0
132
0.0
 79
     0
146
0.0
348
F6
 60
     2
 61
     5
292
     1
282
     1
141
0.0
142
0.0
 63
   250
421
  3355443
  0
ENDTAB
  0
TABLE
  2
LTYPE
  5
5
330
0
100
AcDbSymbolTable
 70
     1
  0
LTYPE
  5
14
330
5
100
AcDbSymbolTableRecord
100
AcDbLinetypeTableRecord
  2
ByBlock
 70
     0
  3

 72
    65
 73
     0
 40
0.0
  0
LTYPE
  5
15
330
5
100
AcDbSymbolTableRecord
100
AcDbLinetypeTableRecord
  2
ByLayer
 70
     0
  3

 72
    65
 73
     0
 40
0.0
  0
LTYPE
  5
16
330
5
100
AcDbSymbolTableRecord
100
AcDbLinetypeTableRecord
  2
Continuous
 70
     0
  3
Solid line
 72
    65
 73
     0
 40
0.0
  0
ENDTAB
  0
TABLE
  2
LAYER
  5
2
330
0
100
AcDbSymbolTable
 70
     3
  0
LAYER
  5
10
330
2
100
AcDbSymbolTableRecord
100
AcDbLayerTableRecord
  2
0
 70
     0
 62
     7
  6
Continuous
370
    -3
390
F
347
EF
  0
LAYER
  5
128
330
2
100
AcDbSymbolTableRecord
100
AcDbLayerTableRecord
  2
Defpoints
 70
     0
 62
     7
  6
Continuous
290
     0
370
    -3
390
F
347
EF
  0
LAYER
  5
FDE
330
2
100
AcDbSymbolTableRecord
100
AcDbLayerTableRecord
  2
_U+56FE_U+5C42 1
 70
     0
 62
     1
  6
Continuous
370
    -3
390
F
347
EF
  0
ENDTAB
  0
TABLE
  2
STYLE
  5
3
330
0
100
AcDbSymbolTable
 70
     1
  0
STYLE
  5
11
330
3
100
AcDbSymbolTableRecord
100
AcDbTextStyleTableRecord
  2
Standard
 70
     0
 40
0.0
 41
1.0
 50
0.0
 71
     0
 42
2.5
  3
txt
  4
gbcbig.shx
  0
ENDTAB
  0
TABLE
  2
VIEW
  5
6
330
0
100
AcDbSymbolTable
 70
     0
  0
ENDTAB
  0
TABLE
  2
UCS
  5
7
330
0
100
AcDbSymbolTable
 70
     0
  0
ENDTAB
  0
TABLE
  2
APPID
  5
9
330
0
100
AcDbSymbolTable
 70
     3
  0
APPID
  5
12
330
9
100
AcDbSymbolTableRecord
100
AcDbRegAppTableRecord
  2
ACAD
 70
     0
  0
APPID
  5
9E
330
9
100
AcDbSymbolTableRecord
100
AcDbRegAppTableRecord
  2
ACAD_PSEXT
 70
     0
  0
APPID
  5
1AD
330
9
100
AcDbSymbolTableRecord
100
AcDbRegAppTableRecord
  2
ACAD_EXEMPT_FROM_CAD_STANDARDS
 70
     0
  0
ENDTAB
  0
TABLE
  2
DIMSTYLE
  5
A
330
0
100
AcDbSymbolTable
 70
     2
100
AcDbDimStyleTable
 71
     1
340
27
  0
DIMSTYLE
105
27
102
{ACAD_REACTORS
330
336
330
31E
330
34E
330
399
330
381
330
14CD
330
14C7
330
149D
330
149A
330
14CA
102
}
330
A
100
AcDbSymbolTableRecord
100
AcDbDimStyleTableRecord
  2
ISO-25
 70
     0
 41
2.5
 42
0.625
 43
3.75
 44
1.25
 73
     0
 74
     0
 77
     1
 78
     8
140
10.0
141
2.5
143
0.03937007874016
147
0.625
171
     3
172
     1
271
     1
272
     1
274
     3
278
    44
283
     0
284
     8
340
11
  0
DIMSTYLE
105
FDF
330
A
100
AcDbSymbolTableRecord
100
AcDbDimStyleTableRecord
  2
Standard
 70
     0
140
15.0
271
     1
272
     1
340
11
  0
ENDTAB
  0
TABLE
  2
BLOCK_RECORD
  5
1
330
0
100
AcDbSymbolTable
 70
   106
  0
BLOCK_RECORD
  5
1F
102
{ACAD_XDICTIONARY
360
125
102
}
330
1
100
AcDbSymbolTableRecord
100
AcDbBlockTableRecord
  2
*Model_Space
340
22
 70
     0
280
     1
281
     0
  0
BLOCK_RECORD
  5
D2
330
1
100
AcDbSymbolTableRecord
100
AcDbBlockTableRecord
  2
*Paper_Space
340
D3
 70
     0
280
     1
281
     0
  0
BLOCK_RECORD
  5
D6
330
1
100
AcDbSymbolTableRecord
100
AcDbBlockTableRecord
  2
*Paper_Space0
340
D7
 70
     0
280
     1
281
     0
  0
BLOCK_RECORD
  5
129
330
1
100
AcDbSymbolTableRecord
100
AcDbBlockTableRecord
  2
*D1
340
0
 70
     0
280
     1
281
     0
  0
BLOCK_RECORD
  5
307
330
1
100
AcDbSymbolTableRecord
100
AcDbBlockTableRecord
  2
*D2
340
0
 70
     0
280
     1
281
     0
  0
BLOCK_RECORD
  5
31F
330
1
100
AcDbSymbolTableRecord
100
AcDbBlockTableRecord
  2
*D3
340
0
 70
     0
280
     1
281
     0
  0
BLOCK_RECORD
  5
337
330
1
100
AcDbSymbolTableRecord
100
AcDbBlockTableRecord
  2
*D4
340
0
 70
     0
280
     1
281
     0
  0
BLOCK_RECORD
  5
34F
330
1
100
AcDbSymbolTableRecord
100
AcDbBlockTableRecord
  2
*D5
340
0
 70
     0
280
     1
281
     0
  0
BLOCK_RECORD
  5
382
330
1
100
AcDbSymbolTableRecord
100
AcDbBlockTableRecord
  2
*D6
340
0
 70
     0
280
     1
281
     0
  0
BLOCK_RECORD
  5
39A
330
1
100
AcDbSymbolTableRecord
100
AcDbBlockTableRecord
  2
*D7
340
0
 70
     0
280
     1
281
     0
  0
BLOCK_RECORD
  5
3B2
330
1
100
AcDbSymbolTableRecord
100
AcDbBlockTableRecord
  2
*D8
340
0
 70
     0
280
     1
281
     0
  0
BLOCK_RECORD
  5
3CA
330
1
100
AcDbSymbolTableRecord
100
AcDbBlockTableRecord
  2
*D9
340
0
 70
     0
280
     1
281
     0
  0
BLOCK_RECORD
  5
3E2
330
1
100
AcDbSymbolTableRecord
100
AcDbBlockTableRecord
  2
*D10
340
0
 70
     0
280
     1
281
     0
  0
BLOCK_RECORD
  5
3FA
330
1
100
AcDbSymbolTableRecord
100
AcDbBlockTableRecord
  2
*D11
340
0
 70
     0
280
     1
281
     0
  0
BLOCK_RECORD
  5
412
330
1
100
AcDbSymbolTableRecord
100
AcDbBlockTableRecord
  2
*D12
340
0
 70
     0
280
     1
281
     0
  0
BLOCK_RECORD
  5
42A
330
1
100
AcDbSymbolTableRecord
100
AcDbBlockTableRecord
  2
*D13
340
0
 70
     0
280
     1
281
     0
  0
BLOCK_RECORD
  5
442
330
1
100
AcDbSymbolTableRecord
100
AcDbBlockTableRecord
  2
*D14
340
0
 70
     0
280
     1
281
     0
  0
BLOCK_RECORD
  5
45A
330
1
100
AcDbSymbolTableRecord
100
AcDbBlockTableRecord
  2
*D15
340
0
 70
     0
280
     1
281
     0
  0
BLOCK_RECORD
  5
472
330
1
100
AcDbSymbolTableRecord
100
AcDbBlockTableRecord
  2
*D16
340
0
 70
     0
280
     1
281
     0
  0
BLOCK_RECORD
  5
48A
330
1
100
AcDbSymbolTableRecord
100
AcDbBlockTableRecord
  2
*D17
340
0
 70
     0
280
     1
281
     0
  0
BLOCK_RECORD
  5
4A2
330
1
100
AcDbSymbolTableRecord
100
AcDbBlockTableRecord
  2
*D18
340
0
 70
     0
280
     1
281
     0
  0
BLOCK_RECORD
  5
4BA
330
1
100
AcDbSymbolTableRecord
100
AcDbBlockTableRecord
  2
*D19
340
0
 70
     0
280
     1
281
     0
  0
BLOCK_RECORD
  5
4D2
330
1
100
AcDbSymbolTableRecord
100
AcDbBlockTableRecord
  2
*D20
340
0
 70
     0
280
     1
281
     0
  0
BLOCK_RECORD
  5
4EA
330
1
100
AcDbSymbolTableRecord
100
AcDbBlockTableRecord
  2
*D21
340
0
 70
     0
280
     1
281
     0
  0
BLOCK_RECORD
  5
502
330
1
100
AcDbSymbolTableRecord
100
AcDbBlockTableRecord
  2
*D22
340
0
 70
     0
280
     1
281
     0
  0
BLOCK_RECORD
  5
51A
330
1
100
AcDbSymbolTableRecord
100
AcDbBlockTableRecord
  2
*D23
340
0
 70
     0
280
     1
281
     0
  0
BLOCK_RECORD
  5
526
330
1
100
AcDbSymbolTableRecord
100
AcDbBlockTableRecord
  2
*D24
340
0
 70
     0
280
     1
281
     0
  0
BLOCK_RECORD
  5
532
330
1
100
AcDbSymbolTableRecord
100
AcDbBlockTableRecord
  2
*D25
340
0
 70
     0
280
     1
281
     0
  0
BLOCK_RECORD
  5
53E
330
1
100
AcDbSymbolTableRecord
100
AcDbBlockTableRecord
  2
*D26
340
0
 70
     0
280
     1
281
     0
  0
BLOCK_RECORD
  5
54A
330
1
100
AcDbSymbolTableRecord
100
AcDbBlockTableRecord
  2
*D27
340
0
 70
     0
280
     1
281
     0
  0
BLOCK_RECORD
  5
556
330
1
100
AcDbSymbolTableRecord
100
AcDbBlockTableRecord
  2
*D28
340
0
 70
     0
280
     1
281
     0
  0
BLOCK_RECORD
  5
562
330
1
100
AcDbSymbolTableRecord
100
AcDbBlockTableRecord
  2
*D29
340
0
 70
     0
280
     1
281
     0
  0
BLOCK_RECORD
  5
56E
330
1
100
AcDbSymbolTableRecord
100
AcDbBlockTableRecord
  2
*D30
340
0
 70
     0
280
     1
281
     0
  0
BLOCK_RECORD
  5
57A
330
1
100
AcDbSymbolTableRecord
100
AcDbBlockTableRecord
  2
*D31
340
0
 70
     0
280
     1
281
     0
  0
BLOCK_RECORD
  5
586
330
1
100
AcDbSymbolTableRecord
100
AcDbBlockTableRecord
  2
*D32
340
0
 70
     0
280
     1
281
     0
  0
BLOCK_RECORD
  5
6C0
330
1
100
AcDbSymbolTableRecord
100
AcDbBlockTableRecord
  2
*D33
340
0
 70
     0
280
     1
281
     0
  0
BLOCK_RECORD
  5
6CC
330
1
100
AcDbSymbolTableRecord
100
AcDbBlockTableRecord
  2
*D34
340
0
 70
     0
280
     1
281
     0
  0
BLOCK_RECORD
  5
6D8
330
1
100
AcDbSymbolTableRecord
100
AcDbBlockTableRecord
  2
*D35
340
0
 70
     0
280
     1
281
     0
  0
BLOCK_RECORD
  5
6E4
330
1
100
AcDbSymbolTableRecord
100
AcDbBlockTableRecord
  2
*D36
340
0
 70
     0
280
     1
281
     0
  0
BLOCK_RECORD
  5
6F0
330
1
100
AcDbSymbolTableRecord
100
AcDbBlockTableRecord
  2
*D37
340
0
 70
     0
280
     1
281
     0
  0
BLOCK_RECORD
  5
6FC
330
1
100
AcDbSymbolTableRecord
100
AcDbBlockTableRecord
  2
*D38
340
0
 70
     0
280
     1
281
     0
  0
BLOCK_RECORD
  5
708
330
1
100
AcDbSymbolTableRecord
100
AcDbBlockTableRecord
  2
*D39
340
0
 70
     0
280
     1
281
     0
  0
BLOCK_RECORD
  5
714
330
1
100
AcDbSymbolTableRecord
100
AcDbBlockTableRecord
  2
*D40
340
0
 70
     0
280
     1
281
     0
  0
BLOCK_RECORD
  5
720
330
1
100
AcDbSymbolTableRecord
100
AcDbBlockTableRecord
  2
*D41
340
0
 70
     0
280
     1
281
     0
  0
BLOCK_RECORD
  5
72C
330
1
100
AcDbSymbolTableRecord
100
AcDbBlockTableRecord
  2
*D42
340
0
 70
     0
280
     1
281
     0
  0
BLOCK_RECORD
  5
7ED
330
1
100
AcDbSymbolTableRecord
100
AcDbBlockTableRecord
  2
*D43
340
0
 70
     0
280
     1
281
     0
  0
BLOCK_RECORD
  5
894
330
1
100
AcDbSymbolTableRecord
100
AcDbBlockTableRecord
  2
*D44
340
0
 70
     0
280
     1
281
     0
  0
BLOCK_RECORD
  5
8A0
330
1
100
AcDbSymbolTableRecord
100
AcDbBlockTableRecord
  2
*D45
340
0
 70
     0
280
     1
281
     0
  0
BLOCK_RECORD
  5
8AC
330
1
100
AcDbSymbolTableRecord
100
AcDbBlockTableRecord
  2
*D46
340
0
 70
     0
280
     1
281
     0
  0
BLOCK_RECORD
  5
8B8
330
1
100
AcDbSymbolTableRecord
100
AcDbBlockTableRecord
  2
*D47
340
0
 70
     0
280
     1
281
     0
  0
BLOCK_RECORD
  5
8C4
330
1
100
AcDbSymbolTableRecord
100
AcDbBlockTableRecord
  2
*D48
340
0
 70
     0
280
     1
281
     0
  0
BLOCK_RECORD
  5
8D0
330
1
100
AcDbSymbolTableRecord
100
AcDbBlockTableRecord
  2
*D49
340
0
 70
     0
280
     1
281
     0
  0
BLOCK_RECORD
  5
8DC
330
1
100
AcDbSymbolTableRecord
100
AcDbBlockTableRecord
  2
*D50
340
0
 70
     0
280
     1
281
     0
  0
BLOCK_RECORD
  5
8E8
330
1
100
AcDbSymbolTableRecord
100
AcDbBlockTableRecord
  2
*D51
340
0
 70
     0
280
     1
281
     0
  0
BLOCK_RECORD
  5
8F4
330
1
100
AcDbSymbolTableRecord
100
AcDbBlockTableRecord
  2
*D52
340
0
 70
     0
280
     1
281
     0
  0
BLOCK_RECORD
  5
900
330
1
100
AcDbSymbolTableRecord
100
AcDbBlockTableRecord
  2
*D53
340
0
 70
     0
280
     1
281
     0
  0
BLOCK_RECORD
  5
A3A
330
1
100
AcDbSymbolTableRecord
100
AcDbBlockTableRecord
  2
*D54
340
0
 70
     0
280
     1
281
     0
  0
BLOCK_RECORD
  5
A46
330
1
100
AcDbSymbolTableRecord
100
AcDbBlockTableRecord
  2
*D55
340
0
 70
     0
280
     1
281
     0
  0
BLOCK_RECORD
  5
A52
330
1
100
AcDbSymbolTableRecord
100
AcDbBlockTableRecord
  2
*D56
340
0
 70
     0
280
     1
281
     0
  0
BLOCK_RECORD
  5
A5E
330
1
100
AcDbSymbolTableRecord
100
AcDbBlockTableRecord
  2
*D57
340
0
 70
     0
280
     1
281
     0
  0
BLOCK_RECORD
  5
A6A
330
1
100
AcDbSymbolTableRecord
100
AcDbBlockTableRecord
  2
*D58
340
0
 70
     0
280
     1
281
     0
  0
BLOCK_RECORD
  5
A76
330
1
100
AcDbSymbolTableRecord
100
AcDbBlockTableRecord
  2
*D59
340
0
 70
     0
280
     1
281
     0
  0
BLOCK_RECORD
  5
A82
330
1
100
AcDbSymbolTableRecord
100
AcDbBlockTableRecord
  2
*D60
340
0
 70
     0
280
     1
281
     0
  0
BLOCK_RECORD
  5
A8E
330
1
100
AcDbSymbolTableRecord
100
AcDbBlockTableRecord
  2
*D61
340
0
 70
     0
280
     1
281
     0
  0
BLOCK_RECORD
  5
A9A
330
1
100
AcDbSymbolTableRecord
100
AcDbBlockTableRecord
  2
*D62
340
0
 70
     0
280
     1
281
     0
  0
BLOCK_RECORD
  5
AA6
330
1
100
AcDbSymbolTableRecord
100
AcDbBlockTableRecord
  2
*D63
340
0
 70
     0
280
     1
281
     0
  0
BLOCK_RECORD
  5
C1B
330
1
100
AcDbSymbolTableRecord
100
AcDbBlockTableRecord
  2
*D64
340
0
 70
     0
280
     1
281
     0
  0
BLOCK_RECORD
  5
C27
330
1
100
AcDbSymbolTableRecord
100
AcDbBlockTableRecord
  2
*D65
340
0
 70
     0
280
     1
281
     0
  0
BLOCK_RECORD
  5
C33
330
1
100
AcDbSymbolTableRecord
100
AcDbBlockTableRecord
  2
*D66
340
0
 70
     0
280
     1
281
     0
  0
BLOCK_RECORD
  5
C3F
330
1
100
AcDbSymbolTableRecord
100
AcDbBlockTableRecord
  2
*D67
340
0
 70
     0
280
     1
281
     0
  0
BLOCK_RECORD
  5
C4B
330
1
100
AcDbSymbolTableRecord
100
AcDbBlockTableRecord
  2
*D68
340
0
 70
     0
280
     1
281
     0
  0
BLOCK_RECORD
  5
C57
330
1
100
AcDbSymbolTableRecord
100
AcDbBlockTableRecord
  2
*D69
340
0
 70
     0
280
     1
281
     0
  0
BLOCK_RECORD
  5
C63
330
1
100
AcDbSymbolTableRecord
100
AcDbBlockTableRecord
  2
*D70
340
0
 70
     0
280
     1
281
     0
  0
BLOCK_RECORD
  5
C6F
330
1
100
AcDbSymbolTableRecord
100
AcDbBlockTableRecord
  2
*D71
340
0
 70
     0
280
     1
281
     0
  0
BLOCK_RECORD
  5
C7B
330
1
100
AcDbSymbolTableRecord
100
AcDbBlockTableRecord
  2
*D72
340
0
 70
     0
280
     1
281
     0
  0
BLOCK_RECORD
  5
C87
330
1
100
AcDbSymbolTableRecord
100
AcDbBlockTableRecord
  2
*D73
340
0
 70
     0
280
     1
281
     0
  0
BLOCK_RECORD
  5
DC1
330
1
100
AcDbSymbolTableRecord
100
AcDbBlockTableRecord
  2
*D74
340
0
 70
     0
280
     1
281
     0
  0
BLOCK_RECORD
  5
DCD
330
1
100
AcDbSymbolTableRecord
100
AcDbBlockTableRecord
  2
*D75
340
0
 70
     0
280
     1
281
     0
  0
BLOCK_RECORD
  5
DD9
330
1
100
AcDbSymbolTableRecord
100
AcDbBlockTableRecord
  2
*D76
340
0
 70
     0
280
     1
281
     0
  0
BLOCK_RECORD
  5
DE5
330
1
100
AcDbSymbolTableRecord
100
AcDbBlockTableRecord
  2
*D77
340
0
 70
     0
280
     1
281
     0
  0
BLOCK_RECORD
  5
DF1
330
1
100
AcDbSymbolTableRecord
100
AcDbBlockTableRecord
  2
*D78
340
0
 70
     0
280
     1
281
     0
  0
BLOCK_RECORD
  5
DFD
330
1
100
AcDbSymbolTableRecord
100
AcDbBlockTableRecord
  2
*D79
340
0
 70
     0
280
     1
281
     0
  0
BLOCK_RECORD
  5
E09
330
1
100
AcDbSymbolTableRecord
100
AcDbBlockTableRecord
  2
*D80
340
0
 70
     0
280
     1
281
     0
  0
BLOCK_RECORD
  5
E15
330
1
100
AcDbSymbolTableRecord
100
AcDbBlockTableRecord
  2
*D81
340
0
 70
     0
280
     1
281
     0
  0
BLOCK_RECORD
  5
E21
330
1
100
AcDbSymbolTableRecord
100
AcDbBlockTableRecord
  2
*D82
340
0
 70
     0
280
     1
281
     0
  0
BLOCK_RECORD
  5
E2D
330
1
100
AcDbSymbolTableRecord
100
AcDbBlockTableRecord
  2
*D83
340
0
 70
     0
280
     1
281
     0
  0
BLOCK_RECORD
  5
FC4
330
1
100
AcDbSymbolTableRecord
100
AcDbBlockTableRecord
  2
*D84
340
0
 70
     0
280
     1
281
     0
  0
BLOCK_RECORD
  5
FD1
330
1
100
AcDbSymbolTableRecord
100
AcDbBlockTableRecord
  2
*D85
340
0
 70
     0
280
     1
281
     0
  0
BLOCK_RECORD
  5
1082
330
1
100
AcDbSymbolTableRecord
100
AcDbBlockTableRecord
  2
*D86
340
0
 70
     0
280
     1
281
     0
  0
BLOCK_RECORD
  5
108F
330
1
100
AcDbSymbolTableRecord
100
AcDbBlockTableRecord
  2
*D87
340
0
 70
     0
280
     1
281
     0
  0
BLOCK_RECORD
  5
113B
330
1
100
AcDbSymbolTableRecord
100
AcDbBlockTableRecord
  2
*D88
340
0
 70
     0
280
     1
281
     0
  0
BLOCK_RECORD
  5
1153
330
1
100
AcDbSymbolTableRecord
100
AcDbBlockTableRecord
  2
*D89
340
0
 70
     0
280
     1
281
     0
  0
BLOCK_RECORD
  5
116F
330
1
100
AcDbSymbolTableRecord
100
AcDbBlockTableRecord
  2
*D90
340
0
 70
     0
280
     1
281
     0
  0
BLOCK_RECORD
  5
117C
330
1
100
AcDbSymbolTableRecord
100
AcDbBlockTableRecord
  2
*D91
340
0
 70
     0
280
     1
281
     0
  0
BLOCK_RECORD
  5
125D
330
1
100
AcDbSymbolTableRecord
100
AcDbBlockTableRecord
  2
*D92
340
0
 70
     0
280
     1
281
     0
  0
BLOCK_RECORD
  5
126A
330
1
100
AcDbSymbolTableRecord
100
AcDbBlockTableRecord
  2
*D93
340
0
 70
     0
280
     1
281
     0
  0
BLOCK_RECORD
  5
12A2
330
1
100
AcDbSymbolTableRecord
100
AcDbBlockTableRecord
  2
*D94
340
0
 70
     0
280
     1
281
     0
  0
BLOCK_RECORD
  5
12BC
330
1
100
AcDbSymbolTableRecord
100
AcDbBlockTableRecord
  2
*D95
340
0
 70
     0
280
     1
281
     0
  0
BLOCK_RECORD
  5
1320
330
1
100
AcDbSymbolTableRecord
100
AcDbBlockTableRecord
  2
*D96
340
0
 70
     0
280
     1
281
     0
  0
BLOCK_RECORD
  5
132C
330
1
100
AcDbSymbolTableRecord
100
AcDbBlockTableRecord
  2
*D97
340
0
 70
     0
280
     1
281
     0
  0
BLOCK_RECORD
  5
1338
330
1
100
AcDbSymbolTableRecord
100
AcDbBlockTableRecord
  2
*D98
340
0
 70
     0
280
     1
281
     0
  0
BLOCK_RECORD
  5
1344
330
1
100
AcDbSymbolTableRecord
100
AcDbBlockTableRecord
  2
*D99
340
0
 70
     0
280
     1
281
     0
  0
BLOCK_RECORD
  5
1350
330
1
100
AcDbSymbolTableRecord
100
AcDbBlockTableRecord
  2
*D100
340
0
 70
     0
280
     1
281
     0
  0
BLOCK_RECORD
  5
14D0
330
1
100
AcDbSymbolTableRecord
100
AcDbBlockTableRecord
  2
*D101
340
0
 70
     0
280
     1
281
     0
  0
BLOCK_RECORD
  5
14DC
330
1
100
AcDbSymbolTableRecord
100
AcDbBlockTableRecord
  2
*D102
340
0
 70
     0
280
     1
281
     0
  0
BLOCK_RECORD
  5
14E8
330
1
100
AcDbSymbolTableRecord
100
AcDbBlockTableRecord
  2
*D103
340
0
 70
     0
280
     1
281
     0
  0
BLOCK_RECORD
  5
14F4
330
1
100
AcDbSymbolTableRecord
100
AcDbBlockTableRecord
  2
*D104
340
0
 70
     0
280
     1
281
     0
  0
BLOCK_RECORD
  5
1500
330
1
100
AcDbSymbolTableRecord
100
AcDbBlockTableRecord
  2
*D105
340
0
 70
     0
280
     1
281
     0
  0
ENDTAB
  0
ENDSEC
  0
SECTION
  2
BLOCKS
  0
BLOCK
  5
20
330
1F
100
AcDbEntity
  8
0
100
AcDbBlockBegin
  2
*Model_Space
 70
     0
 10
0.0
 20
0.0
 30
0.0
  3
*Model_Space
  1

  0
ENDBLK
  5
21
330
1F
100
AcDbEntity
  8
0
100
AcDbBlockEnd
  0
BLOCK
  5
D4
330
D2
100
AcDbEntity
 67
     1
  8
0
100
AcDbBlockBegin
  2
*Paper_Space
 70
     0
 10
0.0
 20
0.0
 30
0.0
  3
*Paper_Space
  1

  0
ENDBLK
  5
D5
330
D2
100
AcDbEntity
 67
     1
  8
0
100
AcDbBlockEnd
  0
BLOCK
  5
D8
330
D6
100
AcDbEntity
 67
     1
  8
0
100
AcDbBlockBegin
  2
*Paper_Space0
 70
     0
 10
0.0
 20
0.0
 30
0.0
  3
*Paper_Space0
  1

  0
ENDBLK
  5
D9
330
D6
100
AcDbEntity
 67
     1
  8
0
100
AcDbBlockEnd
  0
BLOCK
  5
133
330
129
100
AcDbEntity
  8
0
100
AcDbBlockBegin
  2
*D1
 70
     1
 10
0.0
 20
0.0
 30
0.0
  3
*D1
  1

  0
LINE
  5
151
330
129
100
AcDbEntity
  8
0
 62
     0
370
    -2
100
AcDbLine
 10
1217.602604050198
 20
1080.354498474443
 30
0.0
 11
1200.268276977032
 21
1080.354498474443
 31
0.0
  0
LINE
  5
152
330
129
100
AcDbEntity
  8
0
 62
     0
370
    -2
100
AcDbLine
 10
1217.602604050198
 20
1230.354498474443
 30
0.0
 11
1200.268276977032
 21
1230.354498474443
 31
0.0
  0
LINE
  5
153
330
129
100
AcDbEntity
  8
0
 62
     0
370
    -2
100
AcDbLine
 10
1201.518276977032
 20
1082.854498474443
 30
0.0
 11
1201.518276977032
 21
1227.854498474443
 31
0.0
  0
SOLID
  5
154
330
129
100
AcDbEntity
  8
0
 62
     0
100
AcDbTrace
 10
1201.101610310366
 20
1082.854498474443
 30
0.0
 11
1201.934943643699
 21
1082.854498474443
 31
0.0
 12
1201.518276977032
 22
1080.354498474443
 32
0.0
 13
1201.518276977032
 23
1080.354498474443
 33
0.0
  0
SOLID
  5
155
330
129
100
AcDbEntity
  8
0
 62
     0
100
AcDbTrace
 10
1201.101610310366
 20
1227.854498474443
 30
0.0
 11
1201.934943643699
 21
1227.854498474443
 31
0.0
 12
1201.518276977032
 22
1230.354498474443
 32
0.0
 13
1201.518276977032
 23
1230.354498474443
 33
0.0
  0
MTEXT
  5
156
330
129
100
AcDbEntity
  8
0
 62
     0
100
AcDbMText
 10
1195.893276977032
 20
1155.354498474443
 30
0.0
 40
10.0
 41
0.0
 46
0.0
 71
     5
 72
     1
  1
150
 11
0.0000000000000001
 21
1.0
 31
0.0
 73
     1
 44
1.0
  0
POINT
  5
157
330
129
100
AcDbEntity
  8
Defpoints
 62
     0
100
AcDbPoint
 10
1218.227604050198
 20
1080.354498474443
 30
0.0
  0
POINT
  5
158
330
129
100
AcDbEntity
  8
Defpoints
 62
     0
100
AcDbPoint
 10
1218.227604050198
 20
1230.354498474443
 30
0.0
  0
POINT
  5
159
330
129
100
AcDbEntity
  8
Defpoints
 62
     0
100
AcDbPoint
 10
1201.518276977032
 20
1230.354498474443
 30
0.0
  0
ENDBLK
  5
134
330
129
100
AcDbEntity
  8
0
100
AcDbBlockEnd
  0
BLOCK
  5
311
330
307
100
AcDbEntity
  8
0
100
AcDbBlockBegin
  2
*D2
 70
     1
 10
0.0
 20
0.0
 30
0.0
  3
*D2
  1

  0
LINE
  5
314
330
307
100
AcDbEntity
  8
0
 62
     0
370
    -2
100
AcDbLine
 10
1098.628199623015
 20
949.8776716688299
 30
0.0
 11
1098.628199623015
 21
972.4003212701287
 31
0.0
  0
LINE
  5
315
330
307
100
AcDbEntity
  8
0
 62
     0
370
    -2
100
AcDbLine
 10
1308.628199623015
 20
949.8776716688299
 30
0.0
 11
1308.628199623015
 21
972.4003212701287
 31
0.0
  0
LINE
  5
316
330
307
100
AcDbEntity
  8
0
 62
     0
370
    -2
100
AcDbLine
 10
1101.128199623015
 20
971.1503212701291
 30
0.0
 11
1306.128199623015
 21
971.1503212701291
 31
0.0
  0
SOLID
  5
317
330
307
100
AcDbEntity
  8
0
 62
     0
100
AcDbTrace
 10
1101.128199623015
 20
971.5669879367958
 30
0.0
 11
1101.128199623015
 21
970.7336546034623
 31
0.0
 12
1098.628199623015
 22
971.1503212701291
 32
0.0
 13
1098.628199623015
 23
971.1503212701291
 33
0.0
  0
SOLID
  5
318
330
307
100
AcDbEntity
  8
0
 62
     0
100
AcDbTrace
 10
1306.128199623015
 20
971.5669879367958
 30
0.0
 11
1306.128199623015
 21
970.7336546034623
 31
0.0
 12
1308.628199623015
 22
971.1503212701291
 32
0.0
 13
1308.628199623015
 23
971.1503212701291
 33
0.0
  0
MTEXT
  5
319
330
307
100
AcDbEntity
  8
0
 62
     0
100
AcDbMText
 10
1203.628199623015
 20
976.7753212701292
 30
0.0
 40
10.0
 41
0.0
 46
0.0
 71
     5
 72
     1
  1
210
 73
     1
 44
1.0
  0
POINT
  5
31A
330
307
100
AcDbEntity
  8
Defpoints
 62
     0
100
AcDbPoint
 10
1098.628199623015
 20
949.2526716688299
 30
0.0
  0
POINT
  5
31B
330
307
100
AcDbEntity
  8
Defpoints
 62
     0
100
AcDbPoint
 10
1308.628199623015
 20
949.2526716688299
 30
0.0
  0
POINT
  5
31C
330
307
100
AcDbEntity
  8
Defpoints
 62
     0
100
AcDbPoint
 10
1308.628199623015
 20
971.1503212701291
 30
0.0
  0
ENDBLK
  5
312
330
307
100
AcDbEntity
  8
0
100
AcDbBlockEnd
  0
BLOCK
  5
329
330
31F
100
AcDbEntity
  8
0
100
AcDbBlockBegin
  2
*D3
 70
     1
 10
0.0
 20
0.0
 30
0.0
  3
*D3
  1

  0
LINE
  5
1659
330
31F
100
AcDbEntity
  8
0
 62
     0
370
    -2
100
AcDbLine
 10
1231.99966800239
 20
1080.354498474443
 30
0.0
 11
1210.505725603733
 21
1080.354498474443
 31
0.0
  0
LINE
  5
165A
330
31F
100
AcDbEntity
  8
0
 62
     0
370
    -2
100
AcDbLine
 10
1231.99966800239
 20
870.354498474443
 30
0.0
 11
1210.505725603733
 21
870.354498474443
 31
0.0
  0
LINE
  5
165B
330
31F
100
AcDbEntity
  8
0
 62
     0
370
    -2
100
AcDbLine
 10
1211.755725603733
 20
1077.854498474443
 30
0.0
 11
1211.755725603733
 21
872.8544984744431
 31
0.0
  0
SOLID
  5
165C
330
31F
100
AcDbEntity
  8
0
 62
     0
100
AcDbTrace
 10
1211.339058937066
 20
1077.854498474443
 30
0.0
 11
1212.1723922704
 21
1077.854498474443
 31
0.0
 12
1211.755725603733
 22
1080.354498474443
 32
0.0
 13
1211.755725603733
 23
1080.354498474443
 33
0.0
  0
SOLID
  5
165D
330
31F
100
AcDbEntity
  8
0
 62
     0
100
AcDbTrace
 10
1211.339058937066
 20
872.8544984744431
 30
0.0
 11
1212.1723922704
 21
872.8544984744431
 31
0.0
 12
1211.755725603733
 22
870.354498474443
 32
0.0
 13
1211.755725603733
 23
870.354498474443
 33
0.0
  0
MTEXT
  5
165E
330
31F
100
AcDbEntity
  8
0
 62
     0
100
AcDbMText
 10
1206.130725603733
 20
975.3544984744431
 30
0.0
 40
10.0
 41
0.0
 46
0.0
 71
     5
 72
     1
  1
210
 11
0.0000000000000001
 21
1.0
 31
0.0
 73
     1
 44
1.0
  0
POINT
  5
165F
330
31F
100
AcDbEntity
  8
Defpoints
 62
     0
100
AcDbPoint
 10
1232.62466800239
 20
1080.354498474443
 30
0.0
  0
POINT
  5
1660
330
31F
100
AcDbEntity
  8
Defpoints
 62
     0
100
AcDbPoint
 10
1232.62466800239
 20
870.354498474443
 30
0.0
  0
POINT
  5
1661
330
31F
100
AcDbEntity
  8
Defpoints
 62
     0
100
AcDbPoint
 10
1211.755725603733
 20
870.354498474443
 30
0.0
  0
ENDBLK
  5
32A
330
31F
100
AcDbEntity
  8
0
100
AcDbBlockEnd
  0
BLOCK
  5
341
330
337
100
AcDbEntity
  8
0
100
AcDbBlockBegin
  2
*D4
 70
     1
 10
0.0
 20
0.0
 30
0.0
  3
*D4
  1

  0
LINE
  5
1650
330
337
100
AcDbEntity
  8
0
 62
     0
370
    -2
100
AcDbLine
 10
1098.628199623015
 20
918.3880607494876
 30
0.0
 11
1098.628199623015
 21
898.9936485448462
 31
0.0
  0
LINE
  5
1651
330
337
100
AcDbEntity
  8
0
 62
     0
370
    -2
100
AcDbLine
 10
1308.628199623015
 20
918.3880607494876
 30
0.0
 11
1308.628199623015
 21
898.9936485448462
 31
0.0
  0
LINE
  5
1652
330
337
100
AcDbEntity
  8
0
 62
     0
370
    -2
100
AcDbLine
 10
1101.128199623015
 20
900.2436485448463
 30
0.0
 11
1306.128199623015
 21
900.2436485448463
 31
0.0
  0
SOLID
  5
1653
330
337
100
AcDbEntity
  8
0
 62
     0
100
AcDbTrace
 10
1101.128199623015
 20
900.6603152115129
 30
0.0
 11
1101.128199623015
 21
899.8269818781796
 31
0.0
 12
1098.628199623015
 22
900.2436485448463
 32
0.0
 13
1098.628199623015
 23
900.2436485448463
 33
0.0
  0
SOLID
  5
1654
330
337
100
AcDbEntity
  8
0
 62
     0
100
AcDbTrace
 10
1306.128199623015
 20
900.6603152115129
 30
0.0
 11
1306.128199623015
 21
899.8269818781796
 31
0.0
 12
1308.628199623015
 22
900.2436485448463
 32
0.0
 13
1308.628199623015
 23
900.2436485448463
 33
0.0
  0
MTEXT
  5
1655
330
337
100
AcDbEntity
  8
0
 62
     0
100
AcDbMText
 10
1203.628199623015
 20
905.8686485448459
 30
0.0
 40
10.0
 41
0.0
 46
0.0
 71
     5
 72
     1
  1
210
 73
     1
 44
1.0
  0
POINT
  5
1656
330
337
100
AcDbEntity
  8
Defpoints
 62
     0
100
AcDbPoint
 10
1098.628199623015
 20
919.0130607494877
 30
0.0
  0
POINT
  5
1657
330
337
100
AcDbEntity
  8
Defpoints
 62
     0
100
AcDbPoint
 10
1308.628199623015
 20
919.0130607494877
 30
0.0
  0
POINT
  5
1658
330
337
100
AcDbEntity
  8
Defpoints
 62
     0
100
AcDbPoint
 10
1308.628199623015
 20
900.2436485448463
 30
0.0
  0
ENDBLK
  5
342
330
337
100
AcDbEntity
  8
0
100
AcDbBlockEnd
  0
BLOCK
  5
359
330
34F
100
AcDbEntity
  8
0
100
AcDbBlockBegin
  2
*D5
 70
     1
 10
0.0
 20
0.0
 30
0.0
  3
*D5
  1

  0
LINE
  5
1662
330
34F
100
AcDbEntity
  8
0
 62
     0
370
    -2
100
AcDbLine
 10
1308.628199623015
 20
1035.234006318949
 30
0.0
 11
1308.628199623015
 21
1031.531530808721
 31
0.0
  0
LINE
  5
1663
330
34F
100
AcDbEntity
  8
0
 62
     0
370
    -2
100
AcDbLine
 10
1463.628199623015
 20
1035.234006318949
 30
0.0
 11
1463.628199623015
 21
1031.531530808721
 31
0.0
  0
LINE
  5
1664
330
34F
100
AcDbEntity
  8
0
 62
     0
370
    -2
100
AcDbLine
 10
1311.128199623015
 20
1032.781530808721
 30
0.0
 11
1461.128199623015
 21
1032.781530808721
 31
0.0
  0
SOLID
  5
1665
330
34F
100
AcDbEntity
  8
0
 62
     0
100
AcDbTrace
 10
1311.128199623015
 20
1033.198197475388
 30
0.0
 11
1311.128199623015
 21
1032.364864142054
 31
0.0
 12
1308.628199623015
 22
1032.781530808721
 32
0.0
 13
1308.628199623015
 23
1032.781530808721
 33
0.0
  0
SOLID
  5
1666
330
34F
100
AcDbEntity
  8
0
 62
     0
100
AcDbTrace
 10
1461.128199623015
 20
1033.198197475388
 30
0.0
 11
1461.128199623015
 21
1032.364864142054
 31
0.0
 12
1463.628199623015
 22
1032.781530808721
 32
0.0
 13
1463.628199623015
 23
1032.781530808721
 33
0.0
  0
MTEXT
  5
1667
330
34F
100
AcDbEntity
  8
0
 62
     0
100
AcDbMText
 10
1386.128199623015
 20
1038.406530808721
 30
0.0
 40
10.0
 41
0.0
 46
0.0
 71
     5
 72
     1
  1
155
 73
     1
 44
1.0
  0
POINT
  5
1668
330
34F
100
AcDbEntity
  8
Defpoints
 62
     0
100
AcDbPoint
 10
1308.628199623015
 20
1035.859006318949
 30
0.0
  0
POINT
  5
1669
330
34F
100
AcDbEntity
  8
Defpoints
 62
     0
100
AcDbPoint
 10
1463.628199623015
 20
1035.859006318949
 30
0.0
  0
POINT
  5
166A
330
34F
100
AcDbEntity
  8
Defpoints
 62
     0
100
AcDbPoint
 10
1463.628199623015
 20
1032.781530808721
 30
0.0
  0
ENDBLK
  5
35A
330
34F
100
AcDbEntity
  8
0
100
AcDbBlockEnd
  0
BLOCK
  5
38C
330
382
100
AcDbEntity
  8
0
 62
     3
100
AcDbBlockBegin
  2
*D6
 70
     1
 10
0.0
 20
0.0
 30
0.0
  3
*D6
  1

  0
LINE
  5
1674
330
382
100
AcDbEntity
  8
0
 62
     0
370
    -2
100
AcDbLine
 10
943.6281996230146
 20
784.729498474443
 30
0.0
 11
943.6281996230146
 21
661.187057245818
 31
0.0
  0
LINE
  5
1675
330
382
100
AcDbEntity
  8
0
 62
     0
370
    -2
100
AcDbLine
 10
1463.628199623015
 20
784.729498474443
 30
0.0
 11
1463.628199623015
 21
661.187057245818
 31
0.0
  0
LINE
  5
1676
330
382
100
AcDbEntity
  8
0
 62
     0
370
    -2
100
AcDbLine
 10
946.1281996230146
 20
662.437057245818
 30
0.0
 11
1461.128199623015
 21
662.437057245818
 31
0.0
  0
SOLID
  5
1677
330
382
100
AcDbEntity
  8
0
 62
     0
100
AcDbTrace
 10
946.1281996230146
 20
662.8537239124844
 30
0.0
 11
946.1281996230146
 21
662.0203905791512
 31
0.0
 12
943.6281996230146
 22
662.437057245818
 32
0.0
 13
943.6281996230146
 23
662.437057245818
 33
0.0
  0
SOLID
  5
1678
330
382
100
AcDbEntity
  8
0
 62
     0
100
AcDbTrace
 10
1461.128199623015
 20
662.8537239124844
 30
0.0
 11
1461.128199623015
 21
662.0203905791512
 31
0.0
 12
1463.628199623015
 22
662.437057245818
 32
0.0
 13
1463.628199623015
 23
662.437057245818
 33
0.0
  0
MTEXT
  5
1679
330
382
100
AcDbEntity
  8
0
 62
     0
100
AcDbMText
 10
1203.628199623015
 20
668.0620572458177
 30
0.0
 40
10.0
 41
0.0
 46
0.0
 71
     5
 72
     1
  1
520
 73
     1
 44
1.0
  0
POINT
  5
167A
330
382
100
AcDbEntity
  8
Defpoints
 62
     0
100
AcDbPoint
 10
943.6281996230146
 20
785.3544984744431
 30
0.0
  0
POINT
  5
167B
330
382
100
AcDbEntity
  8
Defpoints
 62
     0
100
AcDbPoint
 10
1463.628199623015
 20
785.3544984744431
 30
0.0
  0
POINT
  5
167C
330
382
100
AcDbEntity
  8
Defpoints
 62
     0
100
AcDbPoint
 10
1463.628199623015
 20
662.437057245818
 30
0.0
  0
ENDBLK
  5
38D
330
382
100
AcDbEntity
  8
0
 62
     3
100
AcDbBlockEnd
  0
BLOCK
  5
3A4
330
39A
100
AcDbEntity
  8
0
 62
     3
100
AcDbBlockBegin
  2
*D7
 70
     1
 10
0.0
 20
0.0
 30
0.0
  3
*D7
  1

  0
LINE
  5
166B
330
39A
100
AcDbEntity
  8
0
 62
     0
370
    -2
100
AcDbLine
 10
1098.003199623015
 20
715.3544984744431
 30
0.0
 11
866.5175798498195
 21
715.3544984744431
 31
0.0
  0
LINE
  5
166C
330
39A
100
AcDbEntity
  8
0
 62
     0
370
    -2
100
AcDbLine
 10
1098.003199623015
 20
1235.354498474443
 30
0.0
 11
866.5175798498196
 21
1235.354498474443
 31
0.0
  0
LINE
  5
166D
330
39A
100
AcDbEntity
  8
0
 62
     0
370
    -2
100
AcDbLine
 10
867.7675798498196
 20
717.854498474443
 30
0.0
 11
867.7675798498196
 21
1232.854498474443
 31
0.0
  0
SOLID
  5
166E
330
39A
100
AcDbEntity
  8
0
 62
     0
100
AcDbTrace
 10
867.3509131831529
 20
717.854498474443
 30
0.0
 11
868.184246516486
 21
717.854498474443
 31
0.0
 12
867.7675798498196
 22
715.3544984744431
 32
0.0
 13
867.7675798498196
 23
715.3544984744431
 33
0.0
  0
SOLID
  5
166F
330
39A
100
AcDbEntity
  8
0
 62
     0
100
AcDbTrace
 10
867.3509131831529
 20
1232.854498474443
 30
0.0
 11
868.184246516486
 21
1232.854498474443
 31
0.0
 12
867.7675798498196
 22
1235.354498474443
 32
0.0
 13
867.7675798498196
 23
1235.354498474443
 33
0.0
  0
MTEXT
  5
1670
330
39A
100
AcDbEntity
  8
0
 62
     0
100
AcDbMText
 10
862.1425798498195
 20
975.3544984744431
 30
0.0
 40
10.0
 41
0.0
 46
0.0
 71
     5
 72
     1
  1
520
 11
0.0000000000000001
 21
1.0
 31
0.0
 73
     1
 44
1.0
  0
POINT
  5
1671
330
39A
100
AcDbEntity
  8
Defpoints
 62
     0
100
AcDbPoint
 10
1098.628199623015
 20
715.3544984744431
 30
0.0
  0
POINT
  5
1672
330
39A
100
AcDbEntity
  8
Defpoints
 62
     0
100
AcDbPoint
 10
1098.628199623015
 20
1235.354498474443
 30
0.0
  0
POINT
  5
1673
330
39A
100
AcDbEntity
  8
Defpoints
 62
     0
100
AcDbPoint
 10
867.7675798498196
 20
1235.354498474443
 30
0.0
  0
ENDBLK
  5
3A5
330
39A
100
AcDbEntity
  8
0
 62
     3
100
AcDbBlockEnd
  0
BLOCK
  5
3BC
330
3B2
100
AcDbEntity
  8
0
 62
     3
100
AcDbBlockBegin
  2
*D8
 70
     1
 10
0.0
 20
0.0
 30
0.0
  3
*D8
  1

  0
LINE
  5
10A5
330
3B2
100
AcDbEntity
  8
0
 62
     0
370
    -2
100
AcDbLine
 10
1533.181593237019
 20
883.8610997788633
 30
0.0
 11
1533.181593237019
 21
715.8636005460732
 31
0.0
  0
LINE
  5
10A6
330
3B2
100
AcDbEntity
  8
0
 62
     0
370
    -2
100
AcDbLine
 10
1927.181593237019
 20
883.8610997788633
 30
0.0
 11
1927.181593237019
 21
715.8636005460732
 31
0.0
  0
LINE
  5
10A7
330
3B2
100
AcDbEntity
  8
0
 62
     0
370
    -2
100
AcDbLine
 10
1535.681593237019
 20
717.1136005460732
 30
0.0
 11
1924.681593237019
 21
717.1136005460732
 31
0.0
  0
SOLID
  5
10A8
330
3B2
100
AcDbEntity
  8
0
 62
     0
100
AcDbTrace
 10
1535.681593237019
 20
717.5302672127399
 30
0.0
 11
1535.681593237019
 21
716.6969338794066
 31
0.0
 12
1533.181593237019
 22
717.1136005460732
 32
0.0
 13
1533.181593237019
 23
717.1136005460732
 33
0.0
  0
SOLID
  5
10A9
330
3B2
100
AcDbEntity
  8
0
 62
     0
100
AcDbTrace
 10
1924.681593237019
 20
717.5302672127399
 30
0.0
 11
1924.681593237019
 21
716.6969338794066
 31
0.0
 12
1927.181593237019
 22
717.1136005460732
 32
0.0
 13
1927.181593237019
 23
717.1136005460732
 33
0.0
  0
MTEXT
  5
10AA
330
3B2
100
AcDbEntity
  8
0
 62
     0
100
AcDbMText
 10
1730.181593237019
 20
722.7386005460732
 30
0.0
 40
10.0
 41
0.0
 46
0.0
 71
     5
 72
     1
  1
394
 73
     1
 44
1.0
  0
POINT
  5
10AB
330
3B2
100
AcDbEntity
  8
Defpoints
 62
     0
100
AcDbPoint
 10
1533.181593237019
 20
884.4860997788634
 30
0.0
  0
POINT
  5
10AC
330
3B2
100
AcDbEntity
  8
Defpoints
 62
     0
100
AcDbPoint
 10
1927.181593237019
 20
884.4860997788634
 30
0.0
  0
POINT
  5
10AD
330
3B2
100
AcDbEntity
  8
Defpoints
 62
     0
100
AcDbPoint
 10
1927.181593237019
 20
717.1136005460732
 30
0.0
  0
ENDBLK
  5
3BD
330
3B2
100
AcDbEntity
  8
0
 62
     3
100
AcDbBlockEnd
  0
BLOCK
  5
3D4
330
3CA
100
AcDbEntity
  8
0
 62
     3
100
AcDbBlockBegin
  2
*D9
 70
     1
 10
0.0
 20
0.0
 30
0.0
  3
*D9
  1

  0
LINE
  5
109C
330
3CA
100
AcDbEntity
  8
0
 62
     0
370
    -2
100
AcDbLine
 10
1825.306593237019
 20
781.9860997788637
 30
0.0
 11
1994.099930707427
 21
781.9860997788637
 31
0.0
  0
LINE
  5
109D
330
3CA
100
AcDbEntity
  8
0
 62
     0
370
    -2
100
AcDbLine
 10
1825.306593237019
 20
1175.986099778864
 30
0.0
 11
1994.099930707427
 21
1175.986099778864
 31
0.0
  0
LINE
  5
109E
330
3CA
100
AcDbEntity
  8
0
 62
     0
370
    -2
100
AcDbLine
 10
1992.849930707427
 20
784.4860997788637
 30
0.0
 11
1992.849930707427
 21
1173.486099778864
 31
0.0
  0
SOLID
  5
109F
330
3CA
100
AcDbEntity
  8
0
 62
     0
100
AcDbTrace
 10
1992.43326404076
 20
784.4860997788637
 30
0.0
 11
1993.266597374094
 21
784.4860997788637
 31
0.0
 12
1992.849930707427
 22
781.9860997788637
 32
0.0
 13
1992.849930707427
 23
781.9860997788637
 33
0.0
  0
SOLID
  5
10A0
330
3CA
100
AcDbEntity
  8
0
 62
     0
100
AcDbTrace
 10
1992.43326404076
 20
1173.486099778864
 30
0.0
 11
1993.266597374094
 21
1173.486099778864
 31
0.0
 12
1992.849930707427
 22
1175.986099778864
 32
0.0
 13
1992.849930707427
 23
1175.986099778864
 33
0.0
  0
MTEXT
  5
10A1
330
3CA
100
AcDbEntity
  8
0
 62
     0
100
AcDbMText
 10
1987.224930707427
 20
978.986099778864
 30
0.0
 40
10.0
 41
0.0
 46
0.0
 71
     5
 72
     1
  1
394
 11
0.0000000000000001
 21
1.0
 31
0.0
 73
     1
 44
1.0
  0
POINT
  5
10A2
330
3CA
100
AcDbEntity
  8
Defpoints
 62
     0
100
AcDbPoint
 10
1824.681593237019
 20
781.9860997788637
 30
0.0
  0
POINT
  5
10A3
330
3CA
100
AcDbEntity
  8
Defpoints
 62
     0
100
AcDbPoint
 10
1824.681593237019
 20
1175.986099778864
 30
0.0
  0
POINT
  5
10A4
330
3CA
100
AcDbEntity
  8
Defpoints
 62
     0
100
AcDbPoint
 10
1992.849930707427
 20
1175.986099778864
 30
0.0
  0
ENDBLK
  5
3D5
330
3CA
100
AcDbEntity
  8
0
 62
     3
100
AcDbBlockEnd
  0
BLOCK
  5
3EC
330
3E2
100
AcDbEntity
  8
0
 62
     3
100
AcDbBlockBegin
  2
*D10
 70
     1
 10
0.0
 20
0.0
 30
0.0
  3
*D10
  1

  0
LINE
  5
10ED
330
3E2
100
AcDbEntity
  8
0
 62
     0
370
    -2
100
AcDbLine
 10
1622.181593237019
 20
955.9205764098978
 30
0.0
 11
1622.181593237019
 21
969.7068426744792
 31
0.0
  0
LINE
  5
10EE
330
3E2
100
AcDbEntity
  8
0
 62
     0
370
    -2
100
AcDbLine
 10
1838.181593237019
 20
955.9205764098978
 30
0.0
 11
1838.181593237019
 21
969.7068426744792
 31
0.0
  0
LINE
  5
10EF
330
3E2
100
AcDbEntity
  8
0
 62
     0
370
    -2
100
AcDbLine
 10
1624.681593237019
 20
968.4568426744791
 30
0.0
 11
1835.681593237019
 21
968.4568426744791
 31
0.0
  0
SOLID
  5
10F0
330
3E2
100
AcDbEntity
  8
0
 62
     0
100
AcDbTrace
 10
1624.681593237019
 20
968.8735093411457
 30
0.0
 11
1624.681593237019
 21
968.0401760078122
 31
0.0
 12
1622.181593237019
 22
968.4568426744791
 32
0.0
 13
1622.181593237019
 23
968.4568426744791
 33
0.0
  0
SOLID
  5
10F1
330
3E2
100
AcDbEntity
  8
0
 62
     0
100
AcDbTrace
 10
1835.681593237019
 20
968.8735093411457
 30
0.0
 11
1835.681593237019
 21
968.0401760078122
 31
0.0
 12
1838.181593237019
 22
968.4568426744791
 32
0.0
 13
1838.181593237019
 23
968.4568426744791
 33
0.0
  0
MTEXT
  5
10F2
330
3E2
100
AcDbEntity
  8
0
 62
     0
100
AcDbMText
 10
1730.181593237019
 20
974.0818426744791
 30
0.0
 40
10.0
 41
0.0
 46
0.0
 71
     5
 72
     1
  1
216
 73
     1
 44
1.0
  0
POINT
  5
10F3
330
3E2
100
AcDbEntity
  8
Defpoints
 62
     0
100
AcDbPoint
 10
1622.181593237019
 20
955.2955764098978
 30
0.0
  0
POINT
  5
10F4
330
3E2
100
AcDbEntity
  8
Defpoints
 62
     0
100
AcDbPoint
 10
1838.181593237019
 20
955.2955764098978
 30
0.0
  0
POINT
  5
10F5
330
3E2
100
AcDbEntity
  8
Defpoints
 62
     0
100
AcDbPoint
 10
1838.181593237019
 20
968.4568426744791
 30
0.0
  0
ENDBLK
  5
3ED
330
3E2
100
AcDbEntity
  8
0
 62
     3
100
AcDbBlockEnd
  0
BLOCK
  5
404
330
3FA
100
AcDbEntity
  8
0
 62
     3
100
AcDbBlockBegin
  2
*D11
 70
     1
 10
0.0
 20
0.0
 30
0.0
  3
*D11
  1

  0
LINE
  5
10E4
330
3FA
100
AcDbEntity
  8
0
 62
     0
370
    -2
100
AcDbLine
 10
1794.245172549271
 20
1086.986099778863
 30
0.0
 11
1787.975834411401
 21
1086.986099778863
 31
0.0
  0
LINE
  5
10E5
330
3FA
100
AcDbEntity
  8
0
 62
     0
370
    -2
100
AcDbLine
 10
1794.245172549271
 20
870.9860997788636
 30
0.0
 11
1787.975834411401
 21
870.9860997788636
 31
0.0
  0
LINE
  5
10E6
330
3FA
100
AcDbEntity
  8
0
 62
     0
370
    -2
100
AcDbLine
 10
1789.225834411401
 20
1084.486099778863
 30
0.0
 11
1789.225834411401
 21
873.4860997788636
 31
0.0
  0
SOLID
  5
10E7
330
3FA
100
AcDbEntity
  8
0
 62
     0
100
AcDbTrace
 10
1788.809167744734
 20
1084.486099778863
 30
0.0
 11
1789.642501078068
 21
1084.486099778863
 31
0.0
 12
1789.225834411401
 22
1086.986099778863
 32
0.0
 13
1789.225834411401
 23
1086.986099778863
 33
0.0
  0
SOLID
  5
10E8
330
3FA
100
AcDbEntity
  8
0
 62
     0
100
AcDbTrace
 10
1788.809167744734
 20
873.4860997788636
 30
0.0
 11
1789.642501078068
 21
873.4860997788636
 31
0.0
 12
1789.225834411401
 22
870.9860997788636
 32
0.0
 13
1789.225834411401
 23
870.9860997788636
 33
0.0
  0
MTEXT
  5
10E9
330
3FA
100
AcDbEntity
  8
0
 62
     0
100
AcDbMText
 10
1783.600834411401
 20
978.9860997788636
 30
0.0
 40
10.0
 41
0.0
 46
0.0
 71
     5
 72
     1
  1
216
 11
0.0000000000000001
 21
1.0
 31
0.0
 73
     1
 44
1.0
  0
POINT
  5
10EA
330
3FA
100
AcDbEntity
  8
Defpoints
 62
     0
100
AcDbPoint
 10
1794.870172549271
 20
1086.986099778863
 30
0.0
  0
POINT
  5
10EB
330
3FA
100
AcDbEntity
  8
Defpoints
 62
     0
100
AcDbPoint
 10
1794.870172549271
 20
870.9860997788636
 30
0.0
  0
POINT
  5
10EC
330
3FA
100
AcDbEntity
  8
Defpoints
 62
     0
100
AcDbPoint
 10
1789.225834411401
 20
870.9860997788636
 30
0.0
  0
ENDBLK
  5
405
330
3FA
100
AcDbEntity
  8
0
 62
     3
100
AcDbBlockEnd
  0
BLOCK
  5
41C
330
412
100
AcDbEntity
  8
0
 62
     3
100
AcDbBlockBegin
  2
*D12
 70
     1
 10
0.0
 20
0.0
 30
0.0
  3
*D12
  1

  0
LINE
  5
10DB
330
412
100
AcDbEntity
  8
0
 62
     0
370
    -2
100
AcDbLine
 10
1838.181593237019
 20
1011.214123183913
 30
0.0
 11
1838.181593237019
 21
1018.001111530112
 31
0.0
  0
LINE
  5
10DC
330
412
100
AcDbEntity
  8
0
 62
     0
370
    -2
100
AcDbLine
 10
1876.181593237019
 20
1011.214123183913
 30
0.0
 11
1876.181593237019
 21
1018.001111530112
 31
0.0
  0
LINE
  5
10DD
330
412
100
AcDbEntity
  8
0
 62
     0
370
    -2
100
AcDbLine
 10
1840.681593237019
 20
1016.751111530112
 30
0.0
 11
1873.681593237019
 21
1016.751111530112
 31
0.0
  0
SOLID
  5
10DE
330
412
100
AcDbEntity
  8
0
 62
     0
100
AcDbTrace
 10
1840.681593237019
 20
1017.167778196778
 30
0.0
 11
1840.681593237019
 21
1016.334444863445
 31
0.0
 12
1838.181593237019
 22
1016.751111530112
 32
0.0
 13
1838.181593237019
 23
1016.751111530112
 33
0.0
  0
SOLID
  5
10DF
330
412
100
AcDbEntity
  8
0
 62
     0
100
AcDbTrace
 10
1873.681593237019
 20
1017.167778196778
 30
0.0
 11
1873.681593237019
 21
1016.334444863445
 31
0.0
 12
1876.181593237019
 22
1016.751111530112
 32
0.0
 13
1876.181593237019
 23
1016.751111530112
 33
0.0
  0
MTEXT
  5
10E0
330
412
100
AcDbEntity
  8
0
 62
     0
100
AcDbMText
 10
1857.181593237019
 20
1022.376111530112
 30
0.0
 40
10.0
 41
0.0
 46
0.0
 71
     5
 72
     1
  1
38
 73
     1
 44
1.0
  0
POINT
  5
10E1
330
412
100
AcDbEntity
  8
Defpoints
 62
     0
100
AcDbPoint
 10
1838.181593237019
 20
1010.589123183913
 30
0.0
  0
POINT
  5
10E2
330
412
100
AcDbEntity
  8
Defpoints
 62
     0
100
AcDbPoint
 10
1876.181593237019
 20
1010.589123183913
 30
0.0
  0
POINT
  5
10E3
330
412
100
AcDbEntity
  8
Defpoints
 62
     0
100
AcDbPoint
 10
1876.181593237019
 20
1016.751111530112
 30
0.0
  0
ENDBLK
  5
41D
330
412
100
AcDbEntity
  8
0
 62
     3
100
AcDbBlockEnd
  0
BLOCK
  5
434
330
42A
100
AcDbEntity
  8
0
 62
     3
100
AcDbBlockBegin
  2
*D13
 70
     1
 10
0.0
 20
0.0
 30
0.0
  3
*D13
  1

  0
LINE
  5
437
330
42A
100
AcDbEntity
  8
0
 62
     0
370
    -2
100
AcDbLine
 10
2710.041700824021
 20
974.0373209083172
 30
0.0
 11
2710.041700824021
 21
990.4354347995862
 31
0.0
  0
LINE
  5
438
330
42A
100
AcDbEntity
  8
0
 62
     0
370
    -2
100
AcDbLine
 10
2970.041700824023
 20
974.0373209083172
 30
0.0
 11
2970.041700824023
 21
990.4354347995862
 31
0.0
  0
LINE
  5
439
330
42A
100
AcDbEntity
  8
0
 62
     0
370
    -2
100
AcDbLine
 10
2712.541700824022
 20
989.1854347995863
 30
0.0
 11
2967.541700824023
 21
989.1854347995863
 31
0.0
  0
SOLID
  5
43A
330
42A
100
AcDbEntity
  8
0
 62
     0
100
AcDbTrace
 10
2712.541700824022
 20
989.6021014662531
 30
0.0
 11
2712.541700824022
 21
988.7687681329195
 31
0.0
 12
2710.041700824021
 22
989.1854347995863
 32
0.0
 13
2710.041700824021
 23
989.1854347995863
 33
0.0
  0
SOLID
  5
43B
330
42A
100
AcDbEntity
  8
0
 62
     0
100
AcDbTrace
 10
2967.541700824023
 20
989.6021014662531
 30
0.0
 11
2967.541700824023
 21
988.7687681329195
 31
0.0
 12
2970.041700824023
 22
989.1854347995863
 32
0.0
 13
2970.041700824023
 23
989.1854347995863
 33
0.0
  0
MTEXT
  5
43C
330
42A
100
AcDbEntity
  8
0
 62
     0
100
AcDbMText
 10
2840.041700824023
 20
994.8104347995863
 30
0.0
 40
10.0
 41
0.0
 46
0.0
 71
     5
 72
     1
  1
260
 73
     1
 44
1.0
  0
POINT
  5
43D
330
42A
100
AcDbEntity
  8
Defpoints
 62
     0
100
AcDbPoint
 10
2710.041700824021
 20
973.4123209083172
 30
0.0
  0
POINT
  5
43E
330
42A
100
AcDbEntity
  8
Defpoints
 62
     0
100
AcDbPoint
 10
2970.041700824023
 20
973.4123209083172
 30
0.0
  0
POINT
  5
43F
330
42A
100
AcDbEntity
  8
Defpoints
 62
     0
100
AcDbPoint
 10
2970.041700824023
 20
989.1854347995863
 30
0.0
  0
ENDBLK
  5
435
330
42A
100
AcDbEntity
  8
0
 62
     3
100
AcDbBlockEnd
  0
BLOCK
  5
44C
330
442
100
AcDbEntity
  8
0
 62
     3
100
AcDbBlockBegin
  2
*D14
 70
     1
 10
0.0
 20
0.0
 30
0.0
  3
*D14
  1

  0
LINE
  5
44F
330
442
100
AcDbEntity
  8
0
 62
     0
370
    -2
100
AcDbLine
 10
2916.828147496186
 20
1103.412320908317
 30
0.0
 11
2914.659769502826
 21
1103.412320908317
 31
0.0
  0
LINE
  5
450
330
442
100
AcDbEntity
  8
0
 62
     0
370
    -2
100
AcDbLine
 10
2916.828147496186
 20
843.4123209083173
 30
0.0
 11
2914.659769502825
 21
843.4123209083173
 31
0.0
  0
LINE
  5
451
330
442
100
AcDbEntity
  8
0
 62
     0
370
    -2
100
AcDbLine
 10
2915.909769502825
 20
1100.912320908317
 30
0.0
 11
2915.909769502825
 21
845.9123209083172
 31
0.0
  0
SOLID
  5
452
330
442
100
AcDbEntity
  8
0
 62
     0
100
AcDbTrace
 10
2915.493102836159
 20
1100.912320908317
 30
0.0
 11
2916.326436169493
 21
1100.912320908317
 31
0.0
 12
2915.909769502825
 22
1103.412320908317
 32
0.0
 13
2915.909769502825
 23
1103.412320908317
 33
0.0
  0
SOLID
  5
453
330
442
100
AcDbEntity
  8
0
 62
     0
100
AcDbTrace
 10
2915.493102836159
 20
845.9123209083172
 30
0.0
 11
2916.326436169491
 21
845.9123209083172
 31
0.0
 12
2915.909769502825
 22
843.4123209083173
 32
0.0
 13
2915.909769502825
 23
843.4123209083173
 33
0.0
  0
MTEXT
  5
454
330
442
100
AcDbEntity
  8
0
 62
     0
100
AcDbMText
 10
2910.284769502825
 20
973.4123209083175
 30
0.0
 40
10.0
 41
0.0
 46
0.0
 71
     5
 72
     1
  1
260
 11
0.0000000000000001
 21
1.0
 31
0.0
 73
     1
 44
1.0
  0
POINT
  5
455
330
442
100
AcDbEntity
  8
Defpoints
 62
     0
100
AcDbPoint
 10
2917.453147496186
 20
1103.412320908317
 30
0.0
  0
POINT
  5
456
330
442
100
AcDbEntity
  8
Defpoints
 62
     0
100
AcDbPoint
 10
2917.453147496186
 20
843.4123209083173
 30
0.0
  0
POINT
  5
457
330
442
100
AcDbEntity
  8
Defpoints
 62
     0
100
AcDbPoint
 10
2915.909769502825
 20
843.4123209083173
 30
0.0
  0
ENDBLK
  5
44D
330
442
100
AcDbEntity
  8
0
 62
     3
100
AcDbBlockEnd
  0
BLOCK
  5
464
330
45A
100
AcDbEntity
  8
0
 62
     3
100
AcDbBlockBegin
  2
*D15
 70
     1
 10
0.0
 20
0.0
 30
0.0
  3
*D15
  1

  0
LINE
  5
467
330
45A
100
AcDbEntity
  8
0
 62
     0
370
    -2
100
AcDbLine
 10
2970.041700824023
 20
1041.272987568285
 30
0.0
 11
2970.041700824023
 21
1029.851628012659
 31
0.0
  0
LINE
  5
468
330
45A
100
AcDbEntity
  8
0
 62
     0
370
    -2
100
AcDbLine
 10
3120.041700824023
 20
1047.956447230969
 30
0.0
 11
3120.041700824023
 21
1029.851628012659
 31
0.0
  0
LINE
  5
469
330
45A
100
AcDbEntity
  8
0
 62
     0
370
    -2
100
AcDbLine
 10
2972.541700824022
 20
1031.101628012659
 30
0.0
 11
3117.541700824022
 21
1031.101628012659
 31
0.0
  0
SOLID
  5
46A
330
45A
100
AcDbEntity
  8
0
 62
     0
100
AcDbTrace
 10
2972.541700824022
 20
1031.518294679326
 30
0.0
 11
2972.541700824022
 21
1030.684961345992
 31
0.0
 12
2970.041700824023
 22
1031.101628012659
 32
0.0
 13
2970.041700824023
 23
1031.101628012659
 33
0.0
  0
SOLID
  5
46B
330
45A
100
AcDbEntity
  8
0
 62
     0
100
AcDbTrace
 10
3117.541700824022
 20
1031.518294679326
 30
0.0
 11
3117.541700824022
 21
1030.684961345992
 31
0.0
 12
3120.041700824023
 22
1031.101628012659
 32
0.0
 13
3120.041700824023
 23
1031.101628012659
 33
0.0
  0
MTEXT
  5
46C
330
45A
100
AcDbEntity
  8
0
 62
     0
100
AcDbMText
 10
3045.041700824023
 20
1036.726628012659
 30
0.0
 40
10.0
 41
0.0
 46
0.0
 71
     5
 72
     1
  1
150
 73
     1
 44
1.0
  0
POINT
  5
46D
330
45A
100
AcDbEntity
  8
Defpoints
 62
     0
100
AcDbPoint
 10
2970.041700824023
 20
1041.897987568285
 30
0.0
  0
POINT
  5
46E
330
45A
100
AcDbEntity
  8
Defpoints
 62
     0
100
AcDbPoint
 10
3120.041700824023
 20
1048.581447230969
 30
0.0
  0
POINT
  5
46F
330
45A
100
AcDbEntity
  8
Defpoints
 62
     0
100
AcDbPoint
 10
3120.041700824023
 20
1031.101628012659
 30
0.0
  0
ENDBLK
  5
465
330
45A
100
AcDbEntity
  8
0
 62
     3
100
AcDbBlockEnd
  0
BLOCK
  5
47C
330
472
100
AcDbEntity
  8
0
 62
     3
100
AcDbBlockBegin
  2
*D16
 70
     1
 10
0.0
 20
0.0
 30
0.0
  3
*D16
  1

  0
LINE
  5
47F
330
472
100
AcDbEntity
  8
0
 62
     0
370
    -2
100
AcDbLine
 10
2560.041700824021
 20
757.7873209083172
 30
0.0
 11
2560.041700824021
 21
641.3808431712667
 31
0.0
  0
LINE
  5
480
330
472
100
AcDbEntity
  8
0
 62
     0
370
    -2
100
AcDbLine
 10
3120.041700824023
 20
757.7873209083172
 30
0.0
 11
3120.041700824023
 21
641.3808431712667
 31
0.0
  0
LINE
  5
481
330
472
100
AcDbEntity
  8
0
 62
     0
370
    -2
100
AcDbLine
 10
2562.541700824021
 20
642.6308431712667
 30
0.0
 11
3117.541700824022
 21
642.6308431712667
 31
0.0
  0
SOLID
  5
482
330
472
100
AcDbEntity
  8
0
 62
     0
100
AcDbTrace
 10
2562.541700824021
 20
643.0475098379335
 30
0.0
 11
2562.541700824021
 21
642.2141765046002
 31
0.0
 12
2560.041700824021
 22
642.6308431712667
 32
0.0
 13
2560.041700824021
 23
642.6308431712667
 33
0.0
  0
SOLID
  5
483
330
472
100
AcDbEntity
  8
0
 62
     0
100
AcDbTrace
 10
3117.541700824022
 20
643.0475098379335
 30
0.0
 11
3117.541700824022
 21
642.2141765046002
 31
0.0
 12
3120.041700824023
 22
642.6308431712667
 32
0.0
 13
3120.041700824023
 23
642.6308431712667
 33
0.0
  0
MTEXT
  5
484
330
472
100
AcDbEntity
  8
0
 62
     0
100
AcDbMText
 10
2840.041700824023
 20
648.2558431712667
 30
0.0
 40
10.0
 41
0.0
 46
0.0
 71
     5
 72
     1
  1
560
 73
     1
 44
1.0
  0
POINT
  5
485
330
472
100
AcDbEntity
  8
Defpoints
 62
     0
100
AcDbPoint
 10
2560.041700824021
 20
758.4123209083172
 30
0.0
  0
POINT
  5
486
330
472
100
AcDbEntity
  8
Defpoints
 62
     0
100
AcDbPoint
 10
3120.041700824023
 20
758.4123209083172
 30
0.0
  0
POINT
  5
487
330
472
100
AcDbEntity
  8
Defpoints
 62
     0
100
AcDbPoint
 10
3120.041700824023
 20
642.6308431712667
 30
0.0
  0
ENDBLK
  5
47D
330
472
100
AcDbEntity
  8
0
 62
     3
100
AcDbBlockEnd
  0
BLOCK
  5
494
330
48A
100
AcDbEntity
  8
0
 62
     3
100
AcDbBlockBegin
  2
*D17
 70
     1
 10
0.0
 20
0.0
 30
0.0
  3
*D17
  1

  0
LINE
  5
497
330
48A
100
AcDbEntity
  8
0
 62
     0
370
    -2
100
AcDbLine
 10
2709.416700824022
 20
693.4123209083172
 30
0.0
 11
2450.848654004371
 21
693.4123209083172
 31
0.0
  0
LINE
  5
498
330
48A
100
AcDbEntity
  8
0
 62
     0
370
    -2
100
AcDbLine
 10
2709.416700824022
 20
1253.412320908317
 30
0.0
 11
2450.848654004372
 21
1253.412320908317
 31
0.0
  0
LINE
  5
499
330
48A
100
AcDbEntity
  8
0
 62
     0
370
    -2
100
AcDbLine
 10
2452.098654004371
 20
695.9123209083172
 30
0.0
 11
2452.098654004372
 21
1250.912320908317
 31
0.0
  0
SOLID
  5
49A
330
48A
100
AcDbEntity
  8
0
 62
     0
100
AcDbTrace
 10
2451.681987337705
 20
695.9123209083172
 30
0.0
 11
2452.515320671038
 21
695.9123209083172
 31
0.0
 12
2452.098654004371
 22
693.4123209083172
 32
0.0
 13
2452.098654004371
 23
693.4123209083172
 33
0.0
  0
SOLID
  5
49B
330
48A
100
AcDbEntity
  8
0
 62
     0
100
AcDbTrace
 10
2451.681987337705
 20
1250.912320908317
 30
0.0
 11
2452.515320671038
 21
1250.912320908317
 31
0.0
 12
2452.098654004372
 22
1253.412320908317
 32
0.0
 13
2452.098654004372
 23
1253.412320908317
 33
0.0
  0
MTEXT
  5
49C
330
48A
100
AcDbEntity
  8
0
 62
     0
100
AcDbMText
 10
2446.473654004371
 20
973.4123209083175
 30
0.0
 40
10.0
 41
0.0
 46
0.0
 71
     5
 72
     1
  1
560
 11
0.0000000000000001
 21
1.0
 31
0.0
 73
     1
 44
1.0
  0
POINT
  5
49D
330
48A
100
AcDbEntity
  8
Defpoints
 62
     0
100
AcDbPoint
 10
2710.041700824021
 20
693.4123209083172
 30
0.0
  0
POINT
  5
49E
330
48A
100
AcDbEntity
  8
Defpoints
 62
     0
100
AcDbPoint
 10
2710.041700824021
 20
1253.412320908317
 30
0.0
  0
POINT
  5
49F
330
48A
100
AcDbEntity
  8
Defpoints
 62
     0
100
AcDbPoint
 10
2452.098654004372
 20
1253.412320908317
 30
0.0
  0
ENDBLK
  5
495
330
48A
100
AcDbEntity
  8
0
 62
     3
100
AcDbBlockEnd
  0
BLOCK
  5
4AC
330
4A2
100
AcDbEntity
  8
0
 62
     3
100
AcDbBlockBegin
  2
*D18
 70
     1
 10
0.0
 20
0.0
 30
0.0
  3
*D18
  1

  0
LINE
  5
4AF
330
4A2
100
AcDbEntity
  8
0
 62
     0
370
    -2
100
AcDbLine
 10
3283.595094438026
 20
961.805509624683
 30
0.0
 11
3283.595094438026
 21
962.430509624683
 31
0.0
  0
LINE
  5
4B0
330
4A2
100
AcDbEntity
  8
0
 62
     0
370
    -2
100
AcDbLine
 10
3549.595094438025
 20
961.805509624683
 30
0.0
 11
3549.595094438025
 21
962.430509624683
 31
0.0
  0
LINE
  5
4B1
330
4A2
100
AcDbEntity
  8
0
 62
     0
370
    -2
100
AcDbLine
 10
3286.095094438027
 20
961.1805096246833
 30
0.0
 11
3547.095094438026
 21
961.1805096246833
 31
0.0
  0
SOLID
  5
4B2
330
4A2
100
AcDbEntity
  8
0
 62
     0
100
AcDbTrace
 10
3286.095094438027
 20
961.5971762913497
 30
0.0
 11
3286.095094438027
 21
960.7638429580163
 31
0.0
 12
3283.595094438026
 22
961.1805096246833
 32
0.0
 13
3283.595094438026
 23
961.1805096246833
 33
0.0
  0
SOLID
  5
4B3
330
4A2
100
AcDbEntity
  8
0
 62
     0
100
AcDbTrace
 10
3547.095094438026
 20
961.5971762913497
 30
0.0
 11
3547.095094438026
 21
960.7638429580163
 31
0.0
 12
3549.595094438025
 22
961.1805096246833
 32
0.0
 13
3549.595094438025
 23
961.1805096246833
 33
0.0
  0
MTEXT
  5
4B4
330
4A2
100
AcDbEntity
  8
0
 62
     0
100
AcDbMText
 10
3416.595094438026
 20
966.8055096246828
 30
0.0
 40
10.0
 41
0.0
 46
0.0
 71
     5
 72
     1
  1
266
 73
     1
 44
1.0
  0
POINT
  5
4B5
330
4A2
100
AcDbEntity
  8
Defpoints
 62
     0
100
AcDbPoint
 10
3283.595094438026
 20
961.1805096246833
 30
0.0
  0
POINT
  5
4B6
330
4A2
100
AcDbEntity
  8
Defpoints
 62
     0
100
AcDbPoint
 10
3549.595094438025
 20
961.1805096246833
 30
0.0
  0
POINT
  5
4B7
330
4A2
100
AcDbEntity
  8
Defpoints
 62
     0
100
AcDbPoint
 10
3549.595094438025
 20
961.1805096246833
 30
0.0
  0
ENDBLK
  5
4AD
330
4A2
100
AcDbEntity
  8
0
 62
     3
100
AcDbBlockEnd
  0
BLOCK
  5
4C4
330
4BA
100
AcDbEntity
  8
0
 62
     3
100
AcDbBlockBegin
  2
*D19
 70
     1
 10
0.0
 20
0.0
 30
0.0
  3
*D19
  1

  0
LINE
  5
4C7
330
4BA
100
AcDbEntity
  8
0
 62
     0
370
    -2
100
AcDbLine
 10
3503.013045583563
 20
1110.043922212737
 30
0.0
 11
3512.848104612806
 21
1110.043922212737
 31
0.0
  0
LINE
  5
4C8
330
4BA
100
AcDbEntity
  8
0
 62
     0
370
    -2
100
AcDbLine
 10
3503.013045583563
 20
844.0439222127379
 30
0.0
 11
3512.848104612805
 21
844.0439222127379
 31
0.0
  0
LINE
  5
4C9
330
4BA
100
AcDbEntity
  8
0
 62
     0
370
    -2
100
AcDbLine
 10
3511.598104612807
 20
1107.543922212737
 30
0.0
 11
3511.598104612807
 21
846.5439222127379
 31
0.0
  0
SOLID
  5
4CA
330
4BA
100
AcDbEntity
  8
0
 62
     0
100
AcDbTrace
 10
3511.181437946139
 20
1107.543922212737
 30
0.0
 11
3512.014771279473
 21
1107.543922212737
 31
0.0
 12
3511.598104612807
 22
1110.043922212737
 32
0.0
 13
3511.598104612807
 23
1110.043922212737
 33
0.0
  0
SOLID
  5
4CB
330
4BA
100
AcDbEntity
  8
0
 62
     0
100
AcDbTrace
 10
3511.181437946139
 20
846.5439222127379
 30
0.0
 11
3512.014771279472
 21
846.5439222127379
 31
0.0
 12
3511.598104612807
 22
844.0439222127379
 32
0.0
 13
3511.598104612807
 23
844.0439222127379
 33
0.0
  0
MTEXT
  5
4CC
330
4BA
100
AcDbEntity
  8
0
 62
     0
100
AcDbMText
 10
3505.973104612806
 20
977.0439222127381
 30
0.0
 40
10.0
 41
0.0
 46
0.0
 71
     5
 72
     1
  1
266
 11
0.0000000000000001
 21
1.0
 31
0.0
 73
     1
 44
1.0
  0
POINT
  5
4CD
330
4BA
100
AcDbEntity
  8
Defpoints
 62
     0
100
AcDbPoint
 10
3502.388045583562
 20
1110.043922212737
 30
0.0
  0
POINT
  5
4CE
330
4BA
100
AcDbEntity
  8
Defpoints
 62
     0
100
AcDbPoint
 10
3502.388045583562
 20
844.0439222127379
 30
0.0
  0
POINT
  5
4CF
330
4BA
100
AcDbEntity
  8
Defpoints
 62
     0
100
AcDbPoint
 10
3511.598104612807
 20
844.0439222127379
 30
0.0
  0
ENDBLK
  5
4C5
330
4BA
100
AcDbEntity
  8
0
 62
     3
100
AcDbBlockEnd
  0
BLOCK
  5
4DC
330
4D2
100
AcDbEntity
  8
0
 62
     3
100
AcDbBlockBegin
  2
*D20
 70
     1
 10
0.0
 20
0.0
 30
0.0
  3
*D20
  1

  0
LINE
  5
4DF
330
4D2
100
AcDbEntity
  8
0
 62
     0
370
    -2
100
AcDbLine
 10
3549.595094438025
 20
916.5871243582726
 30
0.0
 11
3549.595094438025
 21
917.2121243582727
 31
0.0
  0
LINE
  5
4E0
330
4D2
100
AcDbEntity
  8
0
 62
     0
370
    -2
100
AcDbLine
 10
3587.595094438027
 20
916.5871243582726
 30
0.0
 11
3587.595094438027
 21
917.2121243582727
 31
0.0
  0
LINE
  5
4E1
330
4D2
100
AcDbEntity
  8
0
 62
     0
370
    -2
100
AcDbLine
 10
3552.095094438026
 20
915.9621243582726
 30
0.0
 11
3585.095094438026
 21
915.9621243582726
 31
0.0
  0
SOLID
  5
4E2
330
4D2
100
AcDbEntity
  8
0
 62
     0
100
AcDbTrace
 10
3552.095094438026
 20
916.3787910249395
 30
0.0
 11
3552.095094438026
 21
915.5454576916064
 31
0.0
 12
3549.595094438025
 22
915.9621243582726
 32
0.0
 13
3549.595094438025
 23
915.9621243582726
 33
0.0
  0
SOLID
  5
4E3
330
4D2
100
AcDbEntity
  8
0
 62
     0
100
AcDbTrace
 10
3585.095094438026
 20
916.3787910249395
 30
0.0
 11
3585.095094438026
 21
915.5454576916064
 31
0.0
 12
3587.595094438027
 22
915.9621243582726
 32
0.0
 13
3587.595094438027
 23
915.9621243582726
 33
0.0
  0
MTEXT
  5
4E4
330
4D2
100
AcDbEntity
  8
0
 62
     0
100
AcDbMText
 10
3568.595094438026
 20
921.5871243582727
 30
0.0
 40
10.0
 41
0.0
 46
0.0
 71
     5
 72
     1
  1
38
 73
     1
 44
1.0
  0
POINT
  5
4E5
330
4D2
100
AcDbEntity
  8
Defpoints
 62
     0
100
AcDbPoint
 10
3549.595094438025
 20
915.9621243582726
 30
0.0
  0
POINT
  5
4E6
330
4D2
100
AcDbEntity
  8
Defpoints
 62
     0
100
AcDbPoint
 10
3587.595094438027
 20
915.9621243582726
 30
0.0
  0
POINT
  5
4E7
330
4D2
100
AcDbEntity
  8
Defpoints
 62
     0
100
AcDbPoint
 10
3587.595094438027
 20
915.9621243582726
 30
0.0
  0
ENDBLK
  5
4DD
330
4D2
100
AcDbEntity
  8
0
 62
     3
100
AcDbBlockEnd
  0
BLOCK
  5
4F4
330
4EA
100
AcDbEntity
  8
0
 62
     3
100
AcDbBlockBegin
  2
*D21
 70
     1
 10
0.0
 20
0.0
 30
0.0
  3
*D21
  1

  0
LINE
  5
4F7
330
4EA
100
AcDbEntity
  8
0
 62
     0
370
    -2
100
AcDbLine
 10
3194.595094438026
 20
856.9189222127375
 30
0.0
 11
3194.595094438026
 21
687.0453163591072
 31
0.0
  0
LINE
  5
4F8
330
4EA
100
AcDbEntity
  8
0
 62
     0
370
    -2
100
AcDbLine
 10
3638.595094438026
 20
856.9189222127375
 30
0.0
 11
3638.595094438026
 21
687.0453163591072
 31
0.0
  0
LINE
  5
4F9
330
4EA
100
AcDbEntity
  8
0
 62
     0
370
    -2
100
AcDbLine
 10
3197.095094438026
 20
688.2953163591072
 30
0.0
 11
3636.095094438026
 21
688.2953163591072
 31
0.0
  0
SOLID
  5
4FA
330
4EA
100
AcDbEntity
  8
0
 62
     0
100
AcDbTrace
 10
3197.095094438026
 20
688.711983025774
 30
0.0
 11
3197.095094438026
 21
687.8786496924408
 31
0.0
 12
3194.595094438026
 22
688.2953163591072
 32
0.0
 13
3194.595094438026
 23
688.2953163591072
 33
0.0
  0
SOLID
  5
4FB
330
4EA
100
AcDbEntity
  8
0
 62
     0
100
AcDbTrace
 10
3636.095094438026
 20
688.711983025774
 30
0.0
 11
3636.095094438026
 21
687.8786496924408
 31
0.0
 12
3638.595094438026
 22
688.2953163591072
 32
0.0
 13
3638.595094438026
 23
688.2953163591072
 33
0.0
  0
MTEXT
  5
4FC
330
4EA
100
AcDbEntity
  8
0
 62
     0
100
AcDbMText
 10
3416.595094438026
 20
693.9203163591074
 30
0.0
 40
10.0
 41
0.0
 46
0.0
 71
     5
 72
     1
  1
444
 73
     1
 44
1.0
  0
POINT
  5
4FD
330
4EA
100
AcDbEntity
  8
Defpoints
 62
     0
100
AcDbPoint
 10
3194.595094438026
 20
857.5439222127375
 30
0.0
  0
POINT
  5
4FE
330
4EA
100
AcDbEntity
  8
Defpoints
 62
     0
100
AcDbPoint
 10
3638.595094438026
 20
857.5439222127375
 30
0.0
  0
POINT
  5
4FF
330
4EA
100
AcDbEntity
  8
Defpoints
 62
     0
100
AcDbPoint
 10
3638.595094438026
 20
688.2953163591072
 30
0.0
  0
ENDBLK
  5
4F5
330
4EA
100
AcDbEntity
  8
0
 62
     3
100
AcDbBlockEnd
  0
BLOCK
  5
50C
330
502
100
AcDbEntity
  8
0
 62
     3
100
AcDbBlockBegin
  2
*D22
 70
     1
 10
0.0
 20
0.0
 30
0.0
  3
*D22
  1

  0
LINE
  5
50F
330
502
100
AcDbEntity
  8
0
 62
     0
370
    -2
100
AcDbLine
 10
3536.720094438027
 20
755.0439222127379
 30
0.0
 11
3729.152321883415
 21
755.0439222127379
 31
0.0
  0
LINE
  5
510
330
502
100
AcDbEntity
  8
0
 62
     0
370
    -2
100
AcDbLine
 10
3536.720094438027
 20
1199.043922212738
 30
0.0
 11
3729.152321883417
 21
1199.043922212738
 31
0.0
  0
LINE
  5
511
330
502
100
AcDbEntity
  8
0
 62
     0
370
    -2
100
AcDbLine
 10
3727.902321883415
 20
757.5439222127377
 30
0.0
 11
3727.902321883416
 21
1196.543922212738
 31
0.0
  0
SOLID
  5
512
330
502
100
AcDbEntity
  8
0
 62
     0
100
AcDbTrace
 10
3727.485655216749
 20
757.5439222127377
 30
0.0
 11
3728.318988550082
 21
757.5439222127377
 31
0.0
 12
3727.902321883415
 22
755.0439222127379
 32
0.0
 13
3727.902321883415
 23
755.0439222127379
 33
0.0
  0
SOLID
  5
513
330
502
100
AcDbEntity
  8
0
 62
     0
100
AcDbTrace
 10
3727.485655216749
 20
1196.543922212738
 30
0.0
 11
3728.318988550082
 21
1196.543922212738
 31
0.0
 12
3727.902321883416
 22
1199.043922212738
 32
0.0
 13
3727.902321883416
 23
1199.043922212738
 33
0.0
  0
MTEXT
  5
514
330
502
100
AcDbEntity
  8
0
 62
     0
100
AcDbMText
 10
3722.277321883415
 20
977.0439222127386
 30
0.0
 40
10.0
 41
0.0
 46
0.0
 71
     5
 72
     1
  1
444
 11
0.0000000000000001
 21
1.0
 31
0.0
 73
     1
 44
1.0
  0
POINT
  5
515
330
502
100
AcDbEntity
  8
Defpoints
 62
     0
100
AcDbPoint
 10
3536.095094438027
 20
755.0439222127379
 30
0.0
  0
POINT
  5
516
330
502
100
AcDbEntity
  8
Defpoints
 62
     0
100
AcDbPoint
 10
3536.095094438027
 20
1199.043922212738
 30
0.0
  0
POINT
  5
517
330
502
100
AcDbEntity
  8
Defpoints
 62
     0
100
AcDbPoint
 10
3727.902321883416
 20
1199.043922212738
 30
0.0
  0
ENDBLK
  5
50D
330
502
100
AcDbEntity
  8
0
 62
     3
100
AcDbBlockEnd
  0
BLOCK
  5
51B
330
51A
100
AcDbEntity
  8
0
 62
     3
100
AcDbBlockBegin
  2
*D23
 70
     1
 10
0.0
 20
0.0
 30
0.0
  3
*D23
  1

  0
LINE
  5
51C
330
51A
100
AcDbEntity
  8
0
 62
     0
370
    -2
100
AcDbLine
 10
2710.041700824021
 20
974.0373209083172
 30
0.0
 11
2710.041700824021
 21
990.4354347995862
 31
0.0
  0
LINE
  5
51D
330
51A
100
AcDbEntity
  8
0
 62
     0
370
    -2
100
AcDbLine
 10
2970.041700824023
 20
974.0373209083172
 30
0.0
 11
2970.041700824023
 21
990.4354347995862
 31
0.0
  0
LINE
  5
51E
330
51A
100
AcDbEntity
  8
0
 62
     0
370
    -2
100
AcDbLine
 10
2712.541700824022
 20
989.1854347995863
 30
0.0
 11
2967.541700824023
 21
989.1854347995863
 31
0.0
  0
SOLID
  5
51F
330
51A
100
AcDbEntity
  8
0
 62
     0
100
AcDbTrace
 10
2712.541700824022
 20
989.6021014662531
 30
0.0
 11
2712.541700824022
 21
988.7687681329195
 31
0.0
 12
2710.041700824021
 22
989.1854347995863
 32
0.0
 13
2710.041700824021
 23
989.1854347995863
 33
0.0
  0
SOLID
  5
520
330
51A
100
AcDbEntity
  8
0
 62
     0
100
AcDbTrace
 10
2967.541700824023
 20
989.6021014662531
 30
0.0
 11
2967.541700824023
 21
988.7687681329195
 31
0.0
 12
2970.041700824023
 22
989.1854347995863
 32
0.0
 13
2970.041700824023
 23
989.1854347995863
 33
0.0
  0
MTEXT
  5
521
330
51A
100
AcDbEntity
  8
0
 62
     0
100
AcDbMText
 10
2840.041700824023
 20
994.8104347995863
 30
0.0
 40
10.0
 41
0.0
 46
0.0
 71
     5
 72
     1
  1
260
 73
     1
 44
1.0
  0
POINT
  5
522
330
51A
100
AcDbEntity
  8
Defpoints
 62
     0
100
AcDbPoint
 10
2710.041700824021
 20
973.4123209083172
 30
0.0
  0
POINT
  5
523
330
51A
100
AcDbEntity
  8
Defpoints
 62
     0
100
AcDbPoint
 10
2970.041700824023
 20
973.4123209083172
 30
0.0
  0
POINT
  5
524
330
51A
100
AcDbEntity
  8
Defpoints
 62
     0
100
AcDbPoint
 10
2970.041700824023
 20
989.1854347995863
 30
0.0
  0
ENDBLK
  5
525
330
51A
100
AcDbEntity
  8
0
 62
     3
100
AcDbBlockEnd
  0
BLOCK
  5
527
330
526
100
AcDbEntity
  8
0
 62
     3
100
AcDbBlockBegin
  2
*D24
 70
     1
 10
0.0
 20
0.0
 30
0.0
  3
*D24
  1

  0
LINE
  5
528
330
526
100
AcDbEntity
  8
0
 62
     0
370
    -2
100
AcDbLine
 10
2916.828147496186
 20
1103.412320908317
 30
0.0
 11
2914.659769502826
 21
1103.412320908317
 31
0.0
  0
LINE
  5
529
330
526
100
AcDbEntity
  8
0
 62
     0
370
    -2
100
AcDbLine
 10
2916.828147496186
 20
843.4123209083173
 30
0.0
 11
2914.659769502825
 21
843.4123209083173
 31
0.0
  0
LINE
  5
52A
330
526
100
AcDbEntity
  8
0
 62
     0
370
    -2
100
AcDbLine
 10
2915.909769502825
 20
1100.912320908317
 30
0.0
 11
2915.909769502825
 21
845.9123209083172
 31
0.0
  0
SOLID
  5
52B
330
526
100
AcDbEntity
  8
0
 62
     0
100
AcDbTrace
 10
2915.493102836159
 20
1100.912320908317
 30
0.0
 11
2916.326436169493
 21
1100.912320908317
 31
0.0
 12
2915.909769502825
 22
1103.412320908317
 32
0.0
 13
2915.909769502825
 23
1103.412320908317
 33
0.0
  0
SOLID
  5
52C
330
526
100
AcDbEntity
  8
0
 62
     0
100
AcDbTrace
 10
2915.493102836159
 20
845.9123209083172
 30
0.0
 11
2916.326436169491
 21
845.9123209083172
 31
0.0
 12
2915.909769502825
 22
843.4123209083173
 32
0.0
 13
2915.909769502825
 23
843.4123209083173
 33
0.0
  0
MTEXT
  5
52D
330
526
100
AcDbEntity
  8
0
 62
     0
100
AcDbMText
 10
2910.284769502825
 20
973.4123209083175
 30
0.0
 40
10.0
 41
0.0
 46
0.0
 71
     5
 72
     1
  1
260
 11
0.0000000000000001
 21
1.0
 31
0.0
 73
     1
 44
1.0
  0
POINT
  5
52E
330
526
100
AcDbEntity
  8
Defpoints
 62
     0
100
AcDbPoint
 10
2917.453147496186
 20
1103.412320908317
 30
0.0
  0
POINT
  5
52F
330
526
100
AcDbEntity
  8
Defpoints
 62
     0
100
AcDbPoint
 10
2917.453147496186
 20
843.4123209083173
 30
0.0
  0
POINT
  5
530
330
526
100
AcDbEntity
  8
Defpoints
 62
     0
100
AcDbPoint
 10
2915.909769502825
 20
843.4123209083173
 30
0.0
  0
ENDBLK
  5
531
330
526
100
AcDbEntity
  8
0
 62
     3
100
AcDbBlockEnd
  0
BLOCK
  5
533
330
532
100
AcDbEntity
  8
0
 62
     3
100
AcDbBlockBegin
  2
*D25
 70
     1
 10
0.0
 20
0.0
 30
0.0
  3
*D25
  1

  0
LINE
  5
534
330
532
100
AcDbEntity
  8
0
 62
     0
370
    -2
100
AcDbLine
 10
2970.041700824023
 20
1041.272987568285
 30
0.0
 11
2970.041700824023
 21
1029.851628012659
 31
0.0
  0
LINE
  5
535
330
532
100
AcDbEntity
  8
0
 62
     0
370
    -2
100
AcDbLine
 10
3120.041700824023
 20
1047.956447230969
 30
0.0
 11
3120.041700824023
 21
1029.851628012659
 31
0.0
  0
LINE
  5
536
330
532
100
AcDbEntity
  8
0
 62
     0
370
    -2
100
AcDbLine
 10
2972.541700824022
 20
1031.101628012659
 30
0.0
 11
3117.541700824022
 21
1031.101628012659
 31
0.0
  0
SOLID
  5
537
330
532
100
AcDbEntity
  8
0
 62
     0
100
AcDbTrace
 10
2972.541700824022
 20
1031.518294679326
 30
0.0
 11
2972.541700824022
 21
1030.684961345992
 31
0.0
 12
2970.041700824023
 22
1031.101628012659
 32
0.0
 13
2970.041700824023
 23
1031.101628012659
 33
0.0
  0
SOLID
  5
538
330
532
100
AcDbEntity
  8
0
 62
     0
100
AcDbTrace
 10
3117.541700824022
 20
1031.518294679326
 30
0.0
 11
3117.541700824022
 21
1030.684961345992
 31
0.0
 12
3120.041700824023
 22
1031.101628012659
 32
0.0
 13
3120.041700824023
 23
1031.101628012659
 33
0.0
  0
MTEXT
  5
539
330
532
100
AcDbEntity
  8
0
 62
     0
100
AcDbMText
 10
3045.041700824023
 20
1036.726628012659
 30
0.0
 40
10.0
 41
0.0
 46
0.0
 71
     5
 72
     1
  1
150
 73
     1
 44
1.0
  0
POINT
  5
53A
330
532
100
AcDbEntity
  8
Defpoints
 62
     0
100
AcDbPoint
 10
2970.041700824023
 20
1041.897987568285
 30
0.0
  0
POINT
  5
53B
330
532
100
AcDbEntity
  8
Defpoints
 62
     0
100
AcDbPoint
 10
3120.041700824023
 20
1048.581447230969
 30
0.0
  0
POINT
  5
53C
330
532
100
AcDbEntity
  8
Defpoints
 62
     0
100
AcDbPoint
 10
3120.041700824023
 20
1031.101628012659
 30
0.0
  0
ENDBLK
  5
53D
330
532
100
AcDbEntity
  8
0
 62
     3
100
AcDbBlockEnd
  0
BLOCK
  5
53F
330
53E
100
AcDbEntity
  8
0
 62
     3
100
AcDbBlockBegin
  2
*D26
 70
     1
 10
0.0
 20
0.0
 30
0.0
  3
*D26
  1

  0
LINE
  5
540
330
53E
100
AcDbEntity
  8
0
 62
     0
370
    -2
100
AcDbLine
 10
2560.041700824021
 20
757.7873209083172
 30
0.0
 11
2560.041700824021
 21
641.3808431712667
 31
0.0
  0
LINE
  5
541
330
53E
100
AcDbEntity
  8
0
 62
     0
370
    -2
100
AcDbLine
 10
3120.041700824023
 20
757.7873209083172
 30
0.0
 11
3120.041700824023
 21
641.3808431712667
 31
0.0
  0
LINE
  5
542
330
53E
100
AcDbEntity
  8
0
 62
     0
370
    -2
100
AcDbLine
 10
2562.541700824021
 20
642.6308431712667
 30
0.0
 11
3117.541700824022
 21
642.6308431712667
 31
0.0
  0
SOLID
  5
543
330
53E
100
AcDbEntity
  8
0
 62
     0
100
AcDbTrace
 10
2562.541700824021
 20
643.0475098379335
 30
0.0
 11
2562.541700824021
 21
642.2141765046002
 31
0.0
 12
2560.041700824021
 22
642.6308431712667
 32
0.0
 13
2560.041700824021
 23
642.6308431712667
 33
0.0
  0
SOLID
  5
544
330
53E
100
AcDbEntity
  8
0
 62
     0
100
AcDbTrace
 10
3117.541700824022
 20
643.0475098379335
 30
0.0
 11
3117.541700824022
 21
642.2141765046002
 31
0.0
 12
3120.041700824023
 22
642.6308431712667
 32
0.0
 13
3120.041700824023
 23
642.6308431712667
 33
0.0
  0
MTEXT
  5
545
330
53E
100
AcDbEntity
  8
0
 62
     0
100
AcDbMText
 10
2840.041700824023
 20
648.2558431712667
 30
0.0
 40
10.0
 41
0.0
 46
0.0
 71
     5
 72
     1
  1
560
 73
     1
 44
1.0
  0
POINT
  5
546
330
53E
100
AcDbEntity
  8
Defpoints
 62
     0
100
AcDbPoint
 10
2560.041700824021
 20
758.4123209083172
 30
0.0
  0
POINT
  5
547
330
53E
100
AcDbEntity
  8
Defpoints
 62
     0
100
AcDbPoint
 10
3120.041700824023
 20
758.4123209083172
 30
0.0
  0
POINT
  5
548
330
53E
100
AcDbEntity
  8
Defpoints
 62
     0
100
AcDbPoint
 10
3120.041700824023
 20
642.6308431712667
 30
0.0
  0
ENDBLK
  5
549
330
53E
100
AcDbEntity
  8
0
 62
     3
100
AcDbBlockEnd
  0
BLOCK
  5
54B
330
54A
100
AcDbEntity
  8
0
 62
     3
100
AcDbBlockBegin
  2
*D27
 70
     1
 10
0.0
 20
0.0
 30
0.0
  3
*D27
  1

  0
LINE
  5
54C
330
54A
100
AcDbEntity
  8
0
 62
     0
370
    -2
100
AcDbLine
 10
2709.416700824022
 20
693.4123209083172
 30
0.0
 11
2450.848654004371
 21
693.4123209083172
 31
0.0
  0
LINE
  5
54D
330
54A
100
AcDbEntity
  8
0
 62
     0
370
    -2
100
AcDbLine
 10
2709.416700824022
 20
1253.412320908317
 30
0.0
 11
2450.848654004372
 21
1253.412320908317
 31
0.0
  0
LINE
  5
54E
330
54A
100
AcDbEntity
  8
0
 62
     0
370
    -2
100
AcDbLine
 10
2452.098654004371
 20
695.9123209083172
 30
0.0
 11
2452.098654004372
 21
1250.912320908317
 31
0.0
  0
SOLID
  5
54F
330
54A
100
AcDbEntity
  8
0
 62
     0
100
AcDbTrace
 10
2451.681987337705
 20
695.9123209083172
 30
0.0
 11
2452.515320671038
 21
695.9123209083172
 31
0.0
 12
2452.098654004371
 22
693.4123209083172
 32
0.0
 13
2452.098654004371
 23
693.4123209083172
 33
0.0
  0
SOLID
  5
550
330
54A
100
AcDbEntity
  8
0
 62
     0
100
AcDbTrace
 10
2451.681987337705
 20
1250.912320908317
 30
0.0
 11
2452.515320671038
 21
1250.912320908317
 31
0.0
 12
2452.098654004372
 22
1253.412320908317
 32
0.0
 13
2452.098654004372
 23
1253.412320908317
 33
0.0
  0
MTEXT
  5
551
330
54A
100
AcDbEntity
  8
0
 62
     0
100
AcDbMText
 10
2446.473654004371
 20
973.4123209083175
 30
0.0
 40
10.0
 41
0.0
 46
0.0
 71
     5
 72
     1
  1
560
 11
0.0000000000000001
 21
1.0
 31
0.0
 73
     1
 44
1.0
  0
POINT
  5
552
330
54A
100
AcDbEntity
  8
Defpoints
 62
     0
100
AcDbPoint
 10
2710.041700824021
 20
693.4123209083172
 30
0.0
  0
POINT
  5
553
330
54A
100
AcDbEntity
  8
Defpoints
 62
     0
100
AcDbPoint
 10
2710.041700824021
 20
1253.412320908317
 30
0.0
  0
POINT
  5
554
330
54A
100
AcDbEntity
  8
Defpoints
 62
     0
100
AcDbPoint
 10
2452.098654004372
 20
1253.412320908317
 30
0.0
  0
ENDBLK
  5
555
330
54A
100
AcDbEntity
  8
0
 62
     3
100
AcDbBlockEnd
  0
BLOCK
  5
557
330
556
100
AcDbEntity
  8
0
 62
     3
100
AcDbBlockBegin
  2
*D28
 70
     1
 10
0.0
 20
0.0
 30
0.0
  3
*D28
  1

  0
LINE
  5
558
330
556
100
AcDbEntity
  8
0
 62
     0
370
    -2
100
AcDbLine
 10
3283.595094438026
 20
961.805509624683
 30
0.0
 11
3283.595094438026
 21
962.430509624683
 31
0.0
  0
LINE
  5
559
330
556
100
AcDbEntity
  8
0
 62
     0
370
    -2
100
AcDbLine
 10
3549.595094438025
 20
961.805509624683
 30
0.0
 11
3549.595094438025
 21
962.430509624683
 31
0.0
  0
LINE
  5
55A
330
556
100
AcDbEntity
  8
0
 62
     0
370
    -2
100
AcDbLine
 10
3286.095094438027
 20
961.1805096246833
 30
0.0
 11
3547.095094438026
 21
961.1805096246833
 31
0.0
  0
SOLID
  5
55B
330
556
100
AcDbEntity
  8
0
 62
     0
100
AcDbTrace
 10
3286.095094438027
 20
961.5971762913497
 30
0.0
 11
3286.095094438027
 21
960.7638429580163
 31
0.0
 12
3283.595094438026
 22
961.1805096246833
 32
0.0
 13
3283.595094438026
 23
961.1805096246833
 33
0.0
  0
SOLID
  5
55C
330
556
100
AcDbEntity
  8
0
 62
     0
100
AcDbTrace
 10
3547.095094438026
 20
961.5971762913497
 30
0.0
 11
3547.095094438026
 21
960.7638429580163
 31
0.0
 12
3549.595094438025
 22
961.1805096246833
 32
0.0
 13
3549.595094438025
 23
961.1805096246833
 33
0.0
  0
MTEXT
  5
55D
330
556
100
AcDbEntity
  8
0
 62
     0
100
AcDbMText
 10
3416.595094438026
 20
966.8055096246828
 30
0.0
 40
10.0
 41
0.0
 46
0.0
 71
     5
 72
     1
  1
266
 73
     1
 44
1.0
  0
POINT
  5
55E
330
556
100
AcDbEntity
  8
Defpoints
 62
     0
100
AcDbPoint
 10
3283.595094438026
 20
961.1805096246833
 30
0.0
  0
POINT
  5
55F
330
556
100
AcDbEntity
  8
Defpoints
 62
     0
100
AcDbPoint
 10
3549.595094438025
 20
961.1805096246833
 30
0.0
  0
POINT
  5
560
330
556
100
AcDbEntity
  8
Defpoints
 62
     0
100
AcDbPoint
 10
3549.595094438025
 20
961.1805096246833
 30
0.0
  0
ENDBLK
  5
561
330
556
100
AcDbEntity
  8
0
 62
     3
100
AcDbBlockEnd
  0
BLOCK
  5
563
330
562
100
AcDbEntity
  8
0
 62
     3
100
AcDbBlockBegin
  2
*D29
 70
     1
 10
0.0
 20
0.0
 30
0.0
  3
*D29
  1

  0
LINE
  5
564
330
562
100
AcDbEntity
  8
0
 62
     0
370
    -2
100
AcDbLine
 10
3503.013045583563
 20
1110.043922212737
 30
0.0
 11
3512.848104612806
 21
1110.043922212737
 31
0.0
  0
LINE
  5
565
330
562
100
AcDbEntity
  8
0
 62
     0
370
    -2
100
AcDbLine
 10
3503.013045583563
 20
844.0439222127379
 30
0.0
 11
3512.848104612805
 21
844.0439222127379
 31
0.0
  0
LINE
  5
566
330
562
100
AcDbEntity
  8
0
 62
     0
370
    -2
100
AcDbLine
 10
3511.598104612807
 20
1107.543922212737
 30
0.0
 11
3511.598104612807
 21
846.5439222127379
 31
0.0
  0
SOLID
  5
567
330
562
100
AcDbEntity
  8
0
 62
     0
100
AcDbTrace
 10
3511.181437946139
 20
1107.543922212737
 30
0.0
 11
3512.014771279473
 21
1107.543922212737
 31
0.0
 12
3511.598104612807
 22
1110.043922212737
 32
0.0
 13
3511.598104612807
 23
1110.043922212737
 33
0.0
  0
SOLID
  5
568
330
562
100
AcDbEntity
  8
0
 62
     0
100
AcDbTrace
 10
3511.181437946139
 20
846.5439222127379
 30
0.0
 11
3512.014771279472
 21
846.5439222127379
 31
0.0
 12
3511.598104612807
 22
844.0439222127379
 32
0.0
 13
3511.598104612807
 23
844.0439222127379
 33
0.0
  0
MTEXT
  5
569
330
562
100
AcDbEntity
  8
0
 62
     0
100
AcDbMText
 10
3505.973104612806
 20
977.0439222127381
 30
0.0
 40
10.0
 41
0.0
 46
0.0
 71
     5
 72
     1
  1
266
 11
0.0000000000000001
 21
1.0
 31
0.0
 73
     1
 44
1.0
  0
POINT
  5
56A
330
562
100
AcDbEntity
  8
Defpoints
 62
     0
100
AcDbPoint
 10
3502.388045583562
 20
1110.043922212737
 30
0.0
  0
POINT
  5
56B
330
562
100
AcDbEntity
  8
Defpoints
 62
     0
100
AcDbPoint
 10
3502.388045583562
 20
844.0439222127379
 30
0.0
  0
POINT
  5
56C
330
562
100
AcDbEntity
  8
Defpoints
 62
     0
100
AcDbPoint
 10
3511.598104612807
 20
844.0439222127379
 30
0.0
  0
ENDBLK
  5
56D
330
562
100
AcDbEntity
  8
0
 62
     3
100
AcDbBlockEnd
  0
BLOCK
  5
56F
330
56E
100
AcDbEntity
  8
0
 62
     3
100
AcDbBlockBegin
  2
*D30
 70
     1
 10
0.0
 20
0.0
 30
0.0
  3
*D30
  1

  0
LINE
  5
570
330
56E
100
AcDbEntity
  8
0
 62
     0
370
    -2
100
AcDbLine
 10
3549.595094438025
 20
916.5871243582726
 30
0.0
 11
3549.595094438025
 21
917.2121243582727
 31
0.0
  0
LINE
  5
571
330
56E
100
AcDbEntity
  8
0
 62
     0
370
    -2
100
AcDbLine
 10
3587.595094438027
 20
916.5871243582726
 30
0.0
 11
3587.595094438027
 21
917.2121243582727
 31
0.0
  0
LINE
  5
572
330
56E
100
AcDbEntity
  8
0
 62
     0
370
    -2
100
AcDbLine
 10
3552.095094438026
 20
915.9621243582726
 30
0.0
 11
3585.095094438026
 21
915.9621243582726
 31
0.0
  0
SOLID
  5
573
330
56E
100
AcDbEntity
  8
0
 62
     0
100
AcDbTrace
 10
3552.095094438026
 20
916.3787910249395
 30
0.0
 11
3552.095094438026
 21
915.5454576916064
 31
0.0
 12
3549.595094438025
 22
915.9621243582726
 32
0.0
 13
3549.595094438025
 23
915.9621243582726
 33
0.0
  0
SOLID
  5
574
330
56E
100
AcDbEntity
  8
0
 62
     0
100
AcDbTrace
 10
3585.095094438026
 20
916.3787910249395
 30
0.0
 11
3585.095094438026
 21
915.5454576916064
 31
0.0
 12
3587.595094438027
 22
915.9621243582726
 32
0.0
 13
3587.595094438027
 23
915.9621243582726
 33
0.0
  0
MTEXT
  5
575
330
56E
100
AcDbEntity
  8
0
 62
     0
100
AcDbMText
 10
3568.595094438026
 20
921.5871243582727
 30
0.0
 40
10.0
 41
0.0
 46
0.0
 71
     5
 72
     1
  1
38
 73
     1
 44
1.0
  0
POINT
  5
576
330
56E
100
AcDbEntity
  8
Defpoints
 62
     0
100
AcDbPoint
 10
3549.595094438025
 20
915.9621243582726
 30
0.0
  0
POINT
  5
577
330
56E
100
AcDbEntity
  8
Defpoints
 62
     0
100
AcDbPoint
 10
3587.595094438027
 20
915.9621243582726
 30
0.0
  0
POINT
  5
578
330
56E
100
AcDbEntity
  8
Defpoints
 62
     0
100
AcDbPoint
 10
3587.595094438027
 20
915.9621243582726
 30
0.0
  0
ENDBLK
  5
579
330
56E
100
AcDbEntity
  8
0
 62
     3
100
AcDbBlockEnd
  0
BLOCK
  5
57B
330
57A
100
AcDbEntity
  8
0
 62
     3
100
AcDbBlockBegin
  2
*D31
 70
     1
 10
0.0
 20
0.0
 30
0.0
  3
*D31
  1

  0
LINE
  5
57C
330
57A
100
AcDbEntity
  8
0
 62
     0
370
    -2
100
AcDbLine
 10
3194.595094438026
 20
856.9189222127375
 30
0.0
 11
3194.595094438026
 21
687.0453163591072
 31
0.0
  0
LINE
  5
57D
330
57A
100
AcDbEntity
  8
0
 62
     0
370
    -2
100
AcDbLine
 10
3638.595094438026
 20
856.9189222127375
 30
0.0
 11
3638.595094438026
 21
687.0453163591072
 31
0.0
  0
LINE
  5
57E
330
57A
100
AcDbEntity
  8
0
 62
     0
370
    -2
100
AcDbLine
 10
3197.095094438026
 20
688.2953163591072
 30
0.0
 11
3636.095094438026
 21
688.2953163591072
 31
0.0
  0
SOLID
  5
57F
330
57A
100
AcDbEntity
  8
0
 62
     0
100
AcDbTrace
 10
3197.095094438026
 20
688.711983025774
 30
0.0
 11
3197.095094438026
 21
687.8786496924408
 31
0.0
 12
3194.595094438026
 22
688.2953163591072
 32
0.0
 13
3194.595094438026
 23
688.2953163591072
 33
0.0
  0
SOLID
  5
580
330
57A
100
AcDbEntity
  8
0
 62
     0
100
AcDbTrace
 10
3636.095094438026
 20
688.711983025774
 30
0.0
 11
3636.095094438026
 21
687.8786496924408
 31
0.0
 12
3638.595094438026
 22
688.2953163591072
 32
0.0
 13
3638.595094438026
 23
688.2953163591072
 33
0.0
  0
MTEXT
  5
581
330
57A
100
AcDbEntity
  8
0
 62
     0
100
AcDbMText
 10
3416.595094438026
 20
693.9203163591074
 30
0.0
 40
10.0
 41
0.0
 46
0.0
 71
     5
 72
     1
  1
444
 73
     1
 44
1.0
  0
POINT
  5
582
330
57A
100
AcDbEntity
  8
Defpoints
 62
     0
100
AcDbPoint
 10
3194.595094438026
 20
857.5439222127375
 30
0.0
  0
POINT
  5
583
330
57A
100
AcDbEntity
  8
Defpoints
 62
     0
100
AcDbPoint
 10
3638.595094438026
 20
857.5439222127375
 30
0.0
  0
POINT
  5
584
330
57A
100
AcDbEntity
  8
Defpoints
 62
     0
100
AcDbPoint
 10
3638.595094438026
 20
688.2953163591072
 30
0.0
  0
ENDBLK
  5
585
330
57A
100
AcDbEntity
  8
0
 62
     3
100
AcDbBlockEnd
  0
BLOCK
  5
587
330
586
100
AcDbEntity
  8
0
 62
     3
100
AcDbBlockBegin
  2
*D32
 70
     1
 10
0.0
 20
0.0
 30
0.0
  3
*D32
  1

  0
LINE
  5
588
330
586
100
AcDbEntity
  8
0
 62
     0
370
    -2
100
AcDbLine
 10
3536.720094438027
 20
755.0439222127379
 30
0.0
 11
3729.152321883415
 21
755.0439222127379
 31
0.0
  0
LINE
  5
589
330
586
100
AcDbEntity
  8
0
 62
     0
370
    -2
100
AcDbLine
 10
3536.720094438027
 20
1199.043922212738
 30
0.0
 11
3729.152321883417
 21
1199.043922212738
 31
0.0
  0
LINE
  5
58A
330
586
100
AcDbEntity
  8
0
 62
     0
370
    -2
100
AcDbLine
 10
3727.902321883415
 20
757.5439222127377
 30
0.0
 11
3727.902321883416
 21
1196.543922212738
 31
0.0
  0
SOLID
  5
58B
330
586
100
AcDbEntity
  8
0
 62
     0
100
AcDbTrace
 10
3727.485655216749
 20
757.5439222127377
 30
0.0
 11
3728.318988550082
 21
757.5439222127377
 31
0.0
 12
3727.902321883415
 22
755.0439222127379
 32
0.0
 13
3727.902321883415
 23
755.0439222127379
 33
0.0
  0
SOLID
  5
58C
330
586
100
AcDbEntity
  8
0
 62
     0
100
AcDbTrace
 10
3727.485655216749
 20
1196.543922212738
 30
0.0
 11
3728.318988550082
 21
1196.543922212738
 31
0.0
 12
3727.902321883416
 22
1199.043922212738
 32
0.0
 13
3727.902321883416
 23
1199.043922212738
 33
0.0
  0
MTEXT
  5
58D
330
586
100
AcDbEntity
  8
0
 62
     0
100
AcDbMText
 10
3722.277321883415
 20
977.0439222127386
 30
0.0
 40
10.0
 41
0.0
 46
0.0
 71
     5
 72
     1
  1
444
 11
0.0000000000000001
 21
1.0
 31
0.0
 73
     1
 44
1.0
  0
POINT
  5
58E
330
586
100
AcDbEntity
  8
Defpoints
 62
     0
100
AcDbPoint
 10
3536.095094438027
 20
755.0439222127379
 30
0.0
  0
POINT
  5
58F
330
586
100
AcDbEntity
  8
Defpoints
 62
     0
100
AcDbPoint
 10
3536.095094438027
 20
1199.043922212738
 30
0.0
  0
POINT
  5
590
330
586
100
AcDbEntity
  8
Defpoints
 62
     0
100
AcDbPoint
 10
3727.902321883416
 20
1199.043922212738
 30
0.0
  0
ENDBLK
  5
591
330
586
100
AcDbEntity
  8
0
 62
     3
100
AcDbBlockEnd
  0
BLOCK
  5
6CA
330
6C0
100
AcDbEntity
  8
0
 62
     3
100
AcDbBlockBegin
  2
*D33
 70
     1
 10
0.0
 20
0.0
 30
0.0
  3
*D33
  1

  0
LINE
  5
7E3
330
6C0
100
AcDbEntity
  8
0
 62
     0
370
    -2
100
AcDbLine
 10
4527.049638986198
 20
973.7956685172679
 30
0.0
 11
4527.049638986198
 21
990.193782408537
 31
0.0
  0
LINE
  5
7E4
330
6C0
100
AcDbEntity
  8
0
 62
     0
370
    -2
100
AcDbLine
 10
4802.049638986198
 20
973.7956685172679
 30
0.0
 11
4802.049638986198
 21
990.193782408537
 31
0.0
  0
LINE
  5
7E5
330
6C0
100
AcDbEntity
  8
0
 62
     0
370
    -2
100
AcDbLine
 10
4529.549638986198
 20
988.9437824085373
 30
0.0
 11
4799.549638986198
 21
988.9437824085373
 31
0.0
  0
SOLID
  5
7E6
330
6C0
100
AcDbEntity
  8
0
 62
     0
100
AcDbTrace
 10
4529.549638986198
 20
989.3604490752036
 30
0.0
 11
4529.549638986198
 21
988.5271157418703
 31
0.0
 12
4527.049638986198
 22
988.9437824085373
 32
0.0
 13
4527.049638986198
 23
988.9437824085373
 33
0.0
  0
SOLID
  5
7E7
330
6C0
100
AcDbEntity
  8
0
 62
     0
100
AcDbTrace
 10
4799.549638986198
 20
989.3604490752036
 30
0.0
 11
4799.549638986198
 21
988.5271157418703
 31
0.0
 12
4802.049638986198
 22
988.9437824085373
 32
0.0
 13
4802.049638986198
 23
988.9437824085373
 33
0.0
  0
MTEXT
  5
7E8
330
6C0
100
AcDbEntity
  8
0
 62
     0
100
AcDbMText
 10
4664.549638986198
 20
994.5687824085373
 30
0.0
 40
10.0
 41
0.0
 46
0.0
 71
     5
 72
     1
  1
275
 73
     1
 44
1.0
  0
POINT
  5
7E9
330
6C0
100
AcDbEntity
  8
Defpoints
 62
     0
100
AcDbPoint
 10
4527.049638986198
 20
973.170668517268
 30
0.0
  0
POINT
  5
7EA
330
6C0
100
AcDbEntity
  8
Defpoints
 62
     0
100
AcDbPoint
 10
4802.049638986198
 20
973.170668517268
 30
0.0
  0
POINT
  5
7EB
330
6C0
100
AcDbEntity
  8
Defpoints
 62
     0
100
AcDbPoint
 10
4802.049638986198
 20
988.9437824085373
 30
0.0
  0
ENDBLK
  5
6CB
330
6C0
100
AcDbEntity
  8
0
 62
     3
100
AcDbBlockEnd
  0
BLOCK
  5
6D6
330
6CC
100
AcDbEntity
  8
0
 62
     3
100
AcDbBlockBegin
  2
*D34
 70
     1
 10
0.0
 20
0.0
 30
0.0
  3
*D34
  1

  0
LINE
  5
7D1
330
6CC
100
AcDbEntity
  8
0
 62
     0
370
    -2
100
AcDbLine
 10
4745.802130658677
 20
1110.670668517268
 30
0.0
 11
4743.63375266532
 21
1110.670668517268
 31
0.0
  0
LINE
  5
7D2
330
6CC
100
AcDbEntity
  8
0
 62
     0
370
    -2
100
AcDbLine
 10
4745.802130658677
 20
835.670668517268
 30
0.0
 11
4743.63375266532
 21
835.670668517268
 31
0.0
  0
LINE
  5
7D3
330
6CC
100
AcDbEntity
  8
0
 62
     0
370
    -2
100
AcDbLine
 10
4744.88375266532
 20
1108.170668517268
 30
0.0
 11
4744.88375266532
 21
838.170668517268
 31
0.0
  0
SOLID
  5
7D4
330
6CC
100
AcDbEntity
  8
0
 62
     0
100
AcDbTrace
 10
4744.467085998651
 20
1108.170668517268
 30
0.0
 11
4745.300419331985
 21
1108.170668517268
 31
0.0
 12
4744.88375266532
 22
1110.670668517268
 32
0.0
 13
4744.88375266532
 23
1110.670668517268
 33
0.0
  0
SOLID
  5
7D5
330
6CC
100
AcDbEntity
  8
0
 62
     0
100
AcDbTrace
 10
4744.467085998651
 20
838.170668517268
 30
0.0
 11
4745.300419331985
 21
838.170668517268
 31
0.0
 12
4744.88375266532
 22
835.670668517268
 32
0.0
 13
4744.88375266532
 23
835.670668517268
 33
0.0
  0
MTEXT
  5
7D6
330
6CC
100
AcDbEntity
  8
0
 62
     0
100
AcDbMText
 10
4739.258752665318
 20
973.1706685172687
 30
0.0
 40
10.0
 41
0.0
 46
0.0
 71
     5
 72
     1
  1
275
 11
0.0000000000000001
 21
1.0
 31
0.0
 73
     1
 44
1.0
  0
POINT
  5
7D7
330
6CC
100
AcDbEntity
  8
Defpoints
 62
     0
100
AcDbPoint
 10
4746.427130658679
 20
1110.670668517268
 30
0.0
  0
POINT
  5
7D8
330
6CC
100
AcDbEntity
  8
Defpoints
 62
     0
100
AcDbPoint
 10
4746.427130658679
 20
835.670668517268
 30
0.0
  0
POINT
  5
7D9
330
6CC
100
AcDbEntity
  8
Defpoints
 62
     0
100
AcDbPoint
 10
4744.88375266532
 20
835.670668517268
 30
0.0
  0
ENDBLK
  5
6D7
330
6CC
100
AcDbEntity
  8
0
 62
     3
100
AcDbBlockEnd
  0
BLOCK
  5
6E2
330
6D8
100
AcDbEntity
  8
0
 62
     3
100
AcDbBlockBegin
  2
*D35
 70
     1
 10
0.0
 20
0.0
 30
0.0
  3
*D35
  1

  0
LINE
  5
867
330
6D8
100
AcDbEntity
  8
0
 62
     0
370
    -2
100
AcDbLine
 10
4802.049638986198
 20
1044.982431330696
 30
0.0
 11
4802.049638986198
 21
1033.56107177507
 31
0.0
  0
LINE
  5
868
330
6D8
100
AcDbEntity
  8
0
 62
     0
370
    -2
100
AcDbLine
 10
4967.049638986198
 20
1050.336973665128
 30
0.0
 11
4967.049638986198
 21
1033.56107177507
 31
0.0
  0
LINE
  5
869
330
6D8
100
AcDbEntity
  8
0
 62
     0
370
    -2
100
AcDbLine
 10
4804.549638986198
 20
1034.811071775069
 30
0.0
 11
4964.549638986198
 21
1034.811071775069
 31
0.0
  0
SOLID
  5
86A
330
6D8
100
AcDbEntity
  8
0
 62
     0
100
AcDbTrace
 10
4804.549638986198
 20
1035.227738441736
 30
0.0
 11
4804.549638986198
 21
1034.394405108403
 31
0.0
 12
4802.049638986198
 22
1034.811071775069
 32
0.0
 13
4802.049638986198
 23
1034.811071775069
 33
0.0
  0
SOLID
  5
86B
330
6D8
100
AcDbEntity
  8
0
 62
     0
100
AcDbTrace
 10
4964.549638986198
 20
1035.227738441736
 30
0.0
 11
4964.549638986198
 21
1034.394405108403
 31
0.0
 12
4967.049638986198
 22
1034.811071775069
 32
0.0
 13
4967.049638986198
 23
1034.811071775069
 33
0.0
  0
MTEXT
  5
86C
330
6D8
100
AcDbEntity
  8
0
 62
     0
100
AcDbMText
 10
4884.549638986198
 20
1040.43607177507
 30
0.0
 40
10.0
 41
0.0
 46
0.0
 71
     5
 72
     1
  1
165
 73
     1
 44
1.0
  0
POINT
  5
86D
330
6D8
100
AcDbEntity
  8
Defpoints
 62
     0
100
AcDbPoint
 10
4802.049638986198
 20
1045.607431330696
 30
0.0
  0
POINT
  5
86E
330
6D8
100
AcDbEntity
  8
Defpoints
 62
     0
100
AcDbPoint
 10
4967.049638986198
 20
1050.961973665128
 30
0.0
  0
POINT
  5
86F
330
6D8
100
AcDbEntity
  8
Defpoints
 62
     0
100
AcDbPoint
 10
4967.049638986198
 20
1034.811071775069
 30
0.0
  0
ENDBLK
  5
6E3
330
6D8
100
AcDbEntity
  8
0
 62
     3
100
AcDbBlockEnd
  0
BLOCK
  5
6EE
330
6E4
100
AcDbEntity
  8
0
 62
     3
100
AcDbBlockBegin
  2
*D36
 70
     1
 10
0.0
 20
0.0
 30
0.0
  3
*D36
  1

  0
LINE
  5
88B
330
6E4
100
AcDbEntity
  8
0
 62
     0
370
    -2
100
AcDbLine
 10
4362.049638986198
 20
750.045668517268
 30
0.0
 11
4362.049638986198
 21
624.2641907802176
 31
0.0
  0
LINE
  5
88C
330
6E4
100
AcDbEntity
  8
0
 62
     0
370
    -2
100
AcDbLine
 10
4967.049638986198
 20
750.045668517268
 30
0.0
 11
4967.049638986198
 21
624.2641907802176
 31
0.0
  0
LINE
  5
88D
330
6E4
100
AcDbEntity
  8
0
 62
     0
370
    -2
100
AcDbLine
 10
4364.549638986197
 20
625.5141907802176
 30
0.0
 11
4964.549638986198
 21
625.5141907802176
 31
0.0
  0
SOLID
  5
88E
330
6E4
100
AcDbEntity
  8
0
 62
     0
100
AcDbTrace
 10
4364.549638986197
 20
625.9308574468843
 30
0.0
 11
4364.549638986197
 21
625.097524113551
 31
0.0
 12
4362.049638986198
 22
625.5141907802176
 32
0.0
 13
4362.049638986198
 23
625.5141907802176
 33
0.0
  0
SOLID
  5
88F
330
6E4
100
AcDbEntity
  8
0
 62
     0
100
AcDbTrace
 10
4964.549638986198
 20
625.9308574468843
 30
0.0
 11
4964.549638986198
 21
625.097524113551
 31
0.0
 12
4967.049638986198
 22
625.5141907802176
 32
0.0
 13
4967.049638986198
 23
625.5141907802176
 33
0.0
  0
MTEXT
  5
890
330
6E4
100
AcDbEntity
  8
0
 62
     0
100
AcDbMText
 10
4664.549638986198
 20
631.1391907802176
 30
0.0
 40
10.0
 41
0.0
 46
0.0
 71
     5
 72
     1
  1
605
 73
     1
 44
1.0
  0
POINT
  5
891
330
6E4
100
AcDbEntity
  8
Defpoints
 62
     0
100
AcDbPoint
 10
4362.049638986198
 20
750.670668517268
 30
0.0
  0
POINT
  5
892
330
6E4
100
AcDbEntity
  8
Defpoints
 62
     0
100
AcDbPoint
 10
4967.049638986198
 20
750.670668517268
 30
0.0
  0
POINT
  5
893
330
6E4
100
AcDbEntity
  8
Defpoints
 62
     0
100
AcDbPoint
 10
4967.049638986198
 20
625.5141907802176
 30
0.0
  0
ENDBLK
  5
6EF
330
6E4
100
AcDbEntity
  8
0
 62
     3
100
AcDbBlockEnd
  0
BLOCK
  5
6FA
330
6F0
100
AcDbEntity
  8
0
 62
     3
100
AcDbBlockBegin
  2
*D37
 70
     1
 10
0.0
 20
0.0
 30
0.0
  3
*D37
  1

  0
LINE
  5
882
330
6F0
100
AcDbEntity
  8
0
 62
     0
370
    -2
100
AcDbLine
 10
4526.424638986198
 20
670.670668517268
 30
0.0
 11
4267.856592166547
 21
670.6706685172681
 31
0.0
  0
LINE
  5
883
330
6F0
100
AcDbEntity
  8
0
 62
     0
370
    -2
100
AcDbLine
 10
4526.424638986198
 20
1275.670668517268
 30
0.0
 11
4267.856592166547
 21
1275.670668517268
 31
0.0
  0
LINE
  5
884
330
6F0
100
AcDbEntity
  8
0
 62
     0
370
    -2
100
AcDbLine
 10
4269.106592166547
 20
673.1706685172683
 30
0.0
 11
4269.106592166547
 21
1273.170668517268
 31
0.0
  0
SOLID
  5
885
330
6F0
100
AcDbEntity
  8
0
 62
     0
100
AcDbTrace
 10
4268.68992549988
 20
673.1706685172683
 30
0.0
 11
4269.523258833213
 21
673.1706685172683
 31
0.0
 12
4269.106592166547
 22
670.6706685172681
 32
0.0
 13
4269.106592166547
 23
670.6706685172681
 33
0.0
  0
SOLID
  5
886
330
6F0
100
AcDbEntity
  8
0
 62
     0
100
AcDbTrace
 10
4268.68992549988
 20
1273.170668517268
 30
0.0
 11
4269.523258833213
 21
1273.170668517268
 31
0.0
 12
4269.106592166547
 22
1275.670668517268
 32
0.0
 13
4269.106592166547
 23
1275.670668517268
 33
0.0
  0
MTEXT
  5
887
330
6F0
100
AcDbEntity
  8
0
 62
     0
100
AcDbMText
 10
4263.481592166548
 20
973.1706685172687
 30
0.0
 40
10.0
 41
0.0
 46
0.0
 71
     5
 72
     1
  1
605
 11
0.0000000000000001
 21
1.0
 31
0.0
 73
     1
 44
1.0
  0
POINT
  5
888
330
6F0
100
AcDbEntity
  8
Defpoints
 62
     0
100
AcDbPoint
 10
4527.049638986198
 20
670.670668517268
 30
0.0
  0
POINT
  5
889
330
6F0
100
AcDbEntity
  8
Defpoints
 62
     0
100
AcDbPoint
 10
4527.049638986198
 20
1275.670668517268
 30
0.0
  0
POINT
  5
88A
330
6F0
100
AcDbEntity
  8
Defpoints
 62
     0
100
AcDbPoint
 10
4269.106592166547
 20
1275.670668517268
 30
0.0
  0
ENDBLK
  5
6FB
330
6F0
100
AcDbEntity
  8
0
 62
     3
100
AcDbBlockEnd
  0
BLOCK
  5
706
330
6FC
100
AcDbEntity
  8
0
 62
     3
100
AcDbBlockBegin
  2
*D38
 70
     1
 10
0.0
 20
0.0
 30
0.0
  3
*D38
  1

  0
LINE
  5
84C
330
6FC
100
AcDbEntity
  8
0
 62
     0
370
    -2
100
AcDbLine
 10
5108.103032600202
 20
968.1693038922022
 30
0.0
 11
5108.103032600202
 21
968.794303892202
 31
0.0
  0
LINE
  5
84D
330
6FC
100
AcDbEntity
  8
0
 62
     0
370
    -2
100
AcDbLine
 10
5389.103032600202
 20
968.1693038922022
 30
0.0
 11
5389.103032600202
 21
968.794303892202
 31
0.0
  0
LINE
  5
84E
330
6FC
100
AcDbEntity
  8
0
 62
     0
370
    -2
100
AcDbLine
 10
5110.603032600202
 20
967.5443038922022
 30
0.0
 11
5386.603032600202
 21
967.5443038922022
 31
0.0
  0
SOLID
  5
84F
330
6FC
100
AcDbEntity
  8
0
 62
     0
100
AcDbTrace
 10
5110.603032600202
 20
967.9609705588687
 30
0.0
 11
5110.603032600202
 21
967.1276372255356
 31
0.0
 12
5108.103032600202
 22
967.5443038922022
 32
0.0
 13
5108.103032600202
 23
967.5443038922022
 33
0.0
  0
SOLID
  5
850
330
6FC
100
AcDbEntity
  8
0
 62
     0
100
AcDbTrace
 10
5386.603032600202
 20
967.9609705588687
 30
0.0
 11
5386.603032600202
 21
967.1276372255356
 31
0.0
 12
5389.103032600202
 22
967.5443038922022
 32
0.0
 13
5389.103032600202
 23
967.5443038922022
 33
0.0
  0
MTEXT
  5
851
330
6FC
100
AcDbEntity
  8
0
 62
     0
100
AcDbMText
 10
5248.603032600202
 20
973.1693038922021
 30
0.0
 40
10.0
 41
0.0
 46
0.0
 71
     5
 72
     1
  1
281
 73
     1
 44
1.0
  0
POINT
  5
852
330
6FC
100
AcDbEntity
  8
Defpoints
 62
     0
100
AcDbPoint
 10
5108.103032600202
 20
967.5443038922022
 30
0.0
  0
POINT
  5
853
330
6FC
100
AcDbEntity
  8
Defpoints
 62
     0
100
AcDbPoint
 10
5389.103032600202
 20
967.5443038922022
 30
0.0
  0
POINT
  5
854
330
6FC
100
AcDbEntity
  8
Defpoints
 62
     0
100
AcDbPoint
 10
5389.103032600202
 20
967.5443038922022
 30
0.0
  0
ENDBLK
  5
707
330
6FC
100
AcDbEntity
  8
0
 62
     3
100
AcDbBlockEnd
  0
BLOCK
  5
712
330
708
100
AcDbEntity
  8
0
 62
     3
100
AcDbBlockBegin
  2
*D39
 70
     1
 10
0.0
 20
0.0
 30
0.0
  3
*D39
  1

  0
LINE
  5
843
330
708
100
AcDbEntity
  8
0
 62
     0
370
    -2
100
AcDbLine
 10
5339.858932118607
 20
1124.802269821688
 30
0.0
 11
5349.693991147852
 21
1124.802269821688
 31
0.0
  0
LINE
  5
844
330
708
100
AcDbEntity
  8
0
 62
     0
370
    -2
100
AcDbLine
 10
5339.858932118607
 20
843.8022698216885
 30
0.0
 11
5349.693991147852
 21
843.8022698216885
 31
0.0
  0
LINE
  5
845
330
708
100
AcDbEntity
  8
0
 62
     0
370
    -2
100
AcDbLine
 10
5348.443991147849
 20
1122.302269821688
 30
0.0
 11
5348.443991147849
 21
846.3022698216885
 31
0.0
  0
SOLID
  5
846
330
708
100
AcDbEntity
  8
0
 62
     0
100
AcDbTrace
 10
5348.027324481183
 20
1122.302269821688
 30
0.0
 11
5348.860657814517
 21
1122.302269821688
 31
0.0
 12
5348.443991147849
 22
1124.802269821688
 32
0.0
 13
5348.443991147849
 23
1124.802269821688
 33
0.0
  0
SOLID
  5
847
330
708
100
AcDbEntity
  8
0
 62
     0
100
AcDbTrace
 10
5348.027324481183
 20
846.3022698216885
 30
0.0
 11
5348.860657814517
 21
846.3022698216885
 31
0.0
 12
5348.443991147849
 22
843.8022698216885
 32
0.0
 13
5348.443991147849
 23
843.8022698216885
 33
0.0
  0
MTEXT
  5
848
330
708
100
AcDbEntity
  8
0
 62
     0
100
AcDbMText
 10
5342.818991147851
 20
984.302269821689
 30
0.0
 40
10.0
 41
0.0
 46
0.0
 71
     5
 72
     1
  1
281
 11
0.0000000000000001
 21
1.0
 31
0.0
 73
     1
 44
1.0
  0
POINT
  5
849
330
708
100
AcDbEntity
  8
Defpoints
 62
     0
100
AcDbPoint
 10
5339.233932118607
 20
1124.802269821688
 30
0.0
  0
POINT
  5
84A
330
708
100
AcDbEntity
  8
Defpoints
 62
     0
100
AcDbPoint
 10
5339.233932118607
 20
843.8022698216885
 30
0.0
  0
POINT
  5
84B
330
708
100
AcDbEntity
  8
Defpoints
 62
     0
100
AcDbPoint
 10
5348.443991147849
 20
843.8022698216885
 30
0.0
  0
ENDBLK
  5
713
330
708
100
AcDbEntity
  8
0
 62
     3
100
AcDbBlockEnd
  0
BLOCK
  5
71E
330
714
100
AcDbEntity
  8
0
 62
     3
100
AcDbBlockBegin
  2
*D40
 70
     1
 10
0.0
 20
0.0
 30
0.0
  3
*D40
  1

  0
LINE
  5
855
330
714
100
AcDbEntity
  8
0
 62
     0
370
    -2
100
AcDbLine
 10
5389.103032600202
 20
920.4010096821972
 30
0.0
 11
5389.103032600202
 21
921.0260096821974
 31
0.0
  0
LINE
  5
856
330
714
100
AcDbEntity
  8
0
 62
     0
370
    -2
100
AcDbLine
 10
5427.103032600202
 20
920.4010096821972
 30
0.0
 11
5427.103032600202
 21
921.0260096821974
 31
0.0
  0
LINE
  5
857
330
714
100
AcDbEntity
  8
0
 62
     0
370
    -2
100
AcDbLine
 10
5391.603032600202
 20
919.7760096821973
 30
0.0
 11
5424.603032600202
 21
919.7760096821973
 31
0.0
  0
SOLID
  5
858
330
714
100
AcDbEntity
  8
0
 62
     0
100
AcDbTrace
 10
5391.603032600202
 20
920.1926763488639
 30
0.0
 11
5391.603032600202
 21
919.3593430155306
 31
0.0
 12
5389.103032600202
 22
919.7760096821973
 32
0.0
 13
5389.103032600202
 23
919.7760096821973
 33
0.0
  0
SOLID
  5
859
330
714
100
AcDbEntity
  8
0
 62
     0
100
AcDbTrace
 10
5424.603032600202
 20
920.1926763488639
 30
0.0
 11
5424.603032600202
 21
919.3593430155306
 31
0.0
 12
5427.103032600202
 22
919.7760096821973
 32
0.0
 13
5427.103032600202
 23
919.7760096821973
 33
0.0
  0
MTEXT
  5
85A
330
714
100
AcDbEntity
  8
0
 62
     0
100
AcDbMText
 10
5408.103032600202
 20
925.4010096821971
 30
0.0
 40
10.0
 41
0.0
 46
0.0
 71
     5
 72
     1
  1
38
 73
     1
 44
1.0
  0
POINT
  5
85B
330
714
100
AcDbEntity
  8
Defpoints
 62
     0
100
AcDbPoint
 10
5389.103032600202
 20
919.7760096821973
 30
0.0
  0
POINT
  5
85C
330
714
100
AcDbEntity
  8
Defpoints
 62
     0
100
AcDbPoint
 10
5427.103032600202
 20
919.7760096821973
 30
0.0
  0
POINT
  5
85D
330
714
100
AcDbEntity
  8
Defpoints
 62
     0
100
AcDbPoint
 10
5427.103032600202
 20
919.7760096821973
 30
0.0
  0
ENDBLK
  5
71F
330
714
100
AcDbEntity
  8
0
 62
     3
100
AcDbBlockEnd
  0
BLOCK
  5
72A
330
720
100
AcDbEntity
  8
0
 62
     3
100
AcDbBlockBegin
  2
*D41
 70
     1
 10
0.0
 20
0.0
 30
0.0
  3
*D41
  1

  0
LINE
  5
80D
330
720
100
AcDbEntity
  8
0
 62
     0
370
    -2
100
AcDbLine
 10
5019.103032600202
 20
856.6772698216881
 30
0.0
 11
5019.103032600202
 21
686.8036639680581
 31
0.0
  0
LINE
  5
80E
330
720
100
AcDbEntity
  8
0
 62
     0
370
    -2
100
AcDbLine
 10
5478.103032600202
 20
856.6772698216881
 30
0.0
 11
5478.103032600202
 21
686.8036639680581
 31
0.0
  0
LINE
  5
80F
330
720
100
AcDbEntity
  8
0
 62
     0
370
    -2
100
AcDbLine
 10
5021.603032600202
 20
688.0536639680581
 30
0.0
 11
5475.603032600202
 21
688.0536639680581
 31
0.0
  0
SOLID
  5
810
330
720
100
AcDbEntity
  8
0
 62
     0
100
AcDbTrace
 10
5021.603032600202
 20
688.4703306347248
 30
0.0
 11
5021.603032600202
 21
687.6369973013915
 31
0.0
 12
5019.103032600202
 22
688.0536639680581
 32
0.0
 13
5019.103032600202
 23
688.0536639680581
 33
0.0
  0
SOLID
  5
811
330
720
100
AcDbEntity
  8
0
 62
     0
100
AcDbTrace
 10
5475.603032600202
 20
688.4703306347248
 30
0.0
 11
5475.603032600202
 21
687.6369973013915
 31
0.0
 12
5478.103032600202
 22
688.0536639680581
 32
0.0
 13
5478.103032600202
 23
688.0536639680581
 33
0.0
  0
MTEXT
  5
812
330
720
100
AcDbEntity
  8
0
 62
     0
100
AcDbMText
 10
5248.603032600202
 20
693.6786639680581
 30
0.0
 40
10.0
 41
0.0
 46
0.0
 71
     5
 72
     1
  1
459
 73
     1
 44
1.0
  0
POINT
  5
813
330
720
100
AcDbEntity
  8
Defpoints
 62
     0
100
AcDbPoint
 10
5019.103032600202
 20
857.3022698216883
 30
0.0
  0
POINT
  5
814
330
720
100
AcDbEntity
  8
Defpoints
 62
     0
100
AcDbPoint
 10
5478.103032600202
 20
857.3022698216883
 30
0.0
  0
POINT
  5
815
330
720
100
AcDbEntity
  8
Defpoints
 62
     0
100
AcDbPoint
 10
5478.103032600202
 20
688.0536639680581
 30
0.0
  0
ENDBLK
  5
72B
330
720
100
AcDbEntity
  8
0
 62
     3
100
AcDbBlockEnd
  0
BLOCK
  5
736
330
72C
100
AcDbEntity
  8
0
 62
     3
100
AcDbBlockBegin
  2
*D42
 70
     1
 10
0.0
 20
0.0
 30
0.0
  3
*D42
  1

  0
LINE
  5
83A
330
72C
100
AcDbEntity
  8
0
 62
     0
370
    -2
100
AcDbLine
 10
5376.228032600202
 20
754.8022698216885
 30
0.0
 11
5568.660260045592
 21
754.8022698216885
 31
0.0
  0
LINE
  5
83B
330
72C
100
AcDbEntity
  8
0
 62
     0
370
    -2
100
AcDbLine
 10
5376.228032600202
 20
1213.802269821689
 30
0.0
 11
5568.660260045592
 21
1213.802269821689
 31
0.0
  0
LINE
  5
83C
330
72C
100
AcDbEntity
  8
0
 62
     0
370
    -2
100
AcDbLine
 10
5567.410260045591
 20
757.3022698216886
 30
0.0
 11
5567.410260045591
 21
1211.302269821689
 31
0.0
  0
SOLID
  5
83D
330
72C
100
AcDbEntity
  8
0
 62
     0
100
AcDbTrace
 10
5566.993593378924
 20
757.3022698216886
 30
0.0
 11
5567.826926712259
 21
757.3022698216886
 31
0.0
 12
5567.410260045591
 22
754.8022698216885
 32
0.0
 13
5567.410260045591
 23
754.8022698216885
 33
0.0
  0
SOLID
  5
83E
330
72C
100
AcDbEntity
  8
0
 62
     0
100
AcDbTrace
 10
5566.993593378924
 20
1211.302269821689
 30
0.0
 11
5567.826926712259
 21
1211.302269821689
 31
0.0
 12
5567.410260045591
 22
1213.802269821689
 32
0.0
 13
5567.410260045591
 23
1213.802269821689
 33
0.0
  0
MTEXT
  5
83F
330
72C
100
AcDbEntity
  8
0
 62
     0
100
AcDbMText
 10
5561.785260045592
 20
984.3022698216897
 30
0.0
 40
10.0
 41
0.0
 46
0.0
 71
     5
 72
     1
  1
459
 11
0.0000000000000001
 21
1.0
 31
0.0
 73
     1
 44
1.0
  0
POINT
  5
840
330
72C
100
AcDbEntity
  8
Defpoints
 62
     0
100
AcDbPoint
 10
5375.603032600202
 20
754.8022698216887
 30
0.0
  0
POINT
  5
841
330
72C
100
AcDbEntity
  8
Defpoints
 62
     0
100
AcDbPoint
 10
5375.603032600202
 20
1213.802269821689
 30
0.0
  0
POINT
  5
842
330
72C
100
AcDbEntity
  8
Defpoints
 62
     0
100
AcDbPoint
 10
5567.410260045591
 20
1213.802269821689
 30
0.0
  0
ENDBLK
  5
737
330
72C
100
AcDbEntity
  8
0
 62
     3
100
AcDbBlockEnd
  0
BLOCK
  5
7F7
330
7ED
100
AcDbEntity
  8
0
 62
     3
100
AcDbBlockBegin
  2
*D43
 70
     1
 10
0.0
 20
0.0
 30
0.0
  3
*D43
  1

  0
LINE
  5
7FA
330
7ED
100
AcDbEntity
  8
0
 62
     0
370
    -2
100
AcDbLine
 10
2628.666700824022
 20
973.4123209083174
 30
0.0
 11
2636.117813871547
 21
973.4123209083174
 31
0.0
  0
LINE
  5
7FB
330
7ED
100
AcDbEntity
  8
0
 62
     0
370
    -2
100
AcDbLine
 10
2633.666700824022
 20
1103.412320908317
 30
0.0
 11
2636.117813871547
 21
1103.412320908317
 31
0.0
  0
LINE
  5
7FC
330
7ED
100
AcDbEntity
  8
0
 62
     0
370
    -2
100
AcDbLine
 10
2634.867813871546
 20
975.9123209083174
 30
0.0
 11
2634.867813871547
 21
1100.912320908317
 31
0.0
  0
SOLID
  5
7FD
330
7ED
100
AcDbEntity
  8
0
 62
     0
100
AcDbTrace
 10
2634.451147204881
 20
975.9123209083174
 30
0.0
 11
2635.284480538213
 21
975.9123209083174
 31
0.0
 12
2634.867813871546
 22
973.4123209083174
 32
0.0
 13
2634.867813871546
 23
973.4123209083174
 33
0.0
  0
SOLID
  5
7FE
330
7ED
100
AcDbEntity
  8
0
 62
     0
100
AcDbTrace
 10
2634.451147204881
 20
1100.912320908317
 30
0.0
 11
2635.284480538214
 21
1100.912320908317
 31
0.0
 12
2634.867813871547
 22
1103.412320908317
 32
0.0
 13
2634.867813871547
 23
1103.412320908317
 33
0.0
  0
MTEXT
  5
7FF
330
7ED
100
AcDbEntity
  8
0
 62
     0
100
AcDbMText
 10
2629.242813871547
 20
1038.412320908318
 30
0.0
 40
10.0
 41
0.0
 46
0.0
 71
     5
 72
     1
  1
130
 11
0.0000000000000001
 21
1.0
 31
0.0
 73
     1
 44
1.0
  0
POINT
  5
800
330
7ED
100
AcDbEntity
  8
Defpoints
 62
     0
100
AcDbPoint
 10
2628.041700824022
 20
973.4123209083174
 30
0.0
  0
POINT
  5
801
330
7ED
100
AcDbEntity
  8
Defpoints
 62
     0
100
AcDbPoint
 10
2633.041700824022
 20
1103.412320908317
 30
0.0
  0
POINT
  5
802
330
7ED
100
AcDbEntity
  8
Defpoints
 62
     0
100
AcDbPoint
 10
2634.867813871547
 20
1103.412320908317
 30
0.0
  0
ENDBLK
  5
7F8
330
7ED
100
AcDbEntity
  8
0
 62
     3
100
AcDbBlockEnd
  0
BLOCK
  5
895
330
894
100
AcDbEntity
  8
0
 62
     3
100
AcDbBlockBegin
  2
*D44
 70
     1
 10
0.0
 20
0.0
 30
0.0
  3
*D44
  1

  0
LINE
  5
896
330
894
100
AcDbEntity
  8
0
 62
     0
370
    -2
100
AcDbLine
 10
4527.049638986198
 20
973.7956685172679
 30
0.0
 11
4527.049638986198
 21
990.193782408537
 31
0.0
  0
LINE
  5
897
330
894
100
AcDbEntity
  8
0
 62
     0
370
    -2
100
AcDbLine
 10
4802.049638986198
 20
973.7956685172679
 30
0.0
 11
4802.049638986198
 21
990.193782408537
 31
0.0
  0
LINE
  5
898
330
894
100
AcDbEntity
  8
0
 62
     0
370
    -2
100
AcDbLine
 10
4529.549638986198
 20
988.9437824085373
 30
0.0
 11
4799.549638986198
 21
988.9437824085373
 31
0.0
  0
SOLID
  5
899
330
894
100
AcDbEntity
  8
0
 62
     0
100
AcDbTrace
 10
4529.549638986198
 20
989.3604490752036
 30
0.0
 11
4529.549638986198
 21
988.5271157418703
 31
0.0
 12
4527.049638986198
 22
988.9437824085373
 32
0.0
 13
4527.049638986198
 23
988.9437824085373
 33
0.0
  0
SOLID
  5
89A
330
894
100
AcDbEntity
  8
0
 62
     0
100
AcDbTrace
 10
4799.549638986198
 20
989.3604490752036
 30
0.0
 11
4799.549638986198
 21
988.5271157418703
 31
0.0
 12
4802.049638986198
 22
988.9437824085373
 32
0.0
 13
4802.049638986198
 23
988.9437824085373
 33
0.0
  0
MTEXT
  5
89B
330
894
100
AcDbEntity
  8
0
 62
     0
100
AcDbMText
 10
4664.549638986198
 20
994.5687824085373
 30
0.0
 40
10.0
 41
0.0
 46
0.0
 71
     5
 72
     1
  1
275
 73
     1
 44
1.0
  0
POINT
  5
89C
330
894
100
AcDbEntity
  8
Defpoints
 62
     0
100
AcDbPoint
 10
4527.049638986198
 20
973.170668517268
 30
0.0
  0
POINT
  5
89D
330
894
100
AcDbEntity
  8
Defpoints
 62
     0
100
AcDbPoint
 10
4802.049638986198
 20
973.170668517268
 30
0.0
  0
POINT
  5
89E
330
894
100
AcDbEntity
  8
Defpoints
 62
     0
100
AcDbPoint
 10
4802.049638986198
 20
988.9437824085373
 30
0.0
  0
ENDBLK
  5
89F
330
894
100
AcDbEntity
  8
0
 62
     3
100
AcDbBlockEnd
  0
BLOCK
  5
8A1
330
8A0
100
AcDbEntity
  8
0
 62
     3
100
AcDbBlockBegin
  2
*D45
 70
     1
 10
0.0
 20
0.0
 30
0.0
  3
*D45
  1

  0
LINE
  5
8A2
330
8A0
100
AcDbEntity
  8
0
 62
     0
370
    -2
100
AcDbLine
 10
4745.802130658677
 20
1110.670668517268
 30
0.0
 11
4743.63375266532
 21
1110.670668517268
 31
0.0
  0
LINE
  5
8A3
330
8A0
100
AcDbEntity
  8
0
 62
     0
370
    -2
100
AcDbLine
 10
4745.802130658677
 20
835.670668517268
 30
0.0
 11
4743.63375266532
 21
835.670668517268
 31
0.0
  0
LINE
  5
8A4
330
8A0
100
AcDbEntity
  8
0
 62
     0
370
    -2
100
AcDbLine
 10
4744.88375266532
 20
1108.170668517268
 30
0.0
 11
4744.88375266532
 21
838.170668517268
 31
0.0
  0
SOLID
  5
8A5
330
8A0
100
AcDbEntity
  8
0
 62
     0
100
AcDbTrace
 10
4744.467085998651
 20
1108.170668517268
 30
0.0
 11
4745.300419331985
 21
1108.170668517268
 31
0.0
 12
4744.88375266532
 22
1110.670668517268
 32
0.0
 13
4744.88375266532
 23
1110.670668517268
 33
0.0
  0
SOLID
  5
8A6
330
8A0
100
AcDbEntity
  8
0
 62
     0
100
AcDbTrace
 10
4744.467085998651
 20
838.170668517268
 30
0.0
 11
4745.300419331985
 21
838.170668517268
 31
0.0
 12
4744.88375266532
 22
835.670668517268
 32
0.0
 13
4744.88375266532
 23
835.670668517268
 33
0.0
  0
MTEXT
  5
8A7
330
8A0
100
AcDbEntity
  8
0
 62
     0
100
AcDbMText
 10
4739.258752665318
 20
973.1706685172687
 30
0.0
 40
10.0
 41
0.0
 46
0.0
 71
     5
 72
     1
  1
275
 11
0.0000000000000001
 21
1.0
 31
0.0
 73
     1
 44
1.0
  0
POINT
  5
8A8
330
8A0
100
AcDbEntity
  8
Defpoints
 62
     0
100
AcDbPoint
 10
4746.427130658679
 20
1110.670668517268
 30
0.0
  0
POINT
  5
8A9
330
8A0
100
AcDbEntity
  8
Defpoints
 62
     0
100
AcDbPoint
 10
4746.427130658679
 20
835.670668517268
 30
0.0
  0
POINT
  5
8AA
330
8A0
100
AcDbEntity
  8
Defpoints
 62
     0
100
AcDbPoint
 10
4744.88375266532
 20
835.670668517268
 30
0.0
  0
ENDBLK
  5
8AB
330
8A0
100
AcDbEntity
  8
0
 62
     3
100
AcDbBlockEnd
  0
BLOCK
  5
8AD
330
8AC
100
AcDbEntity
  8
0
 62
     3
100
AcDbBlockBegin
  2
*D46
 70
     1
 10
0.0
 20
0.0
 30
0.0
  3
*D46
  1

  0
LINE
  5
8AE
330
8AC
100
AcDbEntity
  8
0
 62
     0
370
    -2
100
AcDbLine
 10
4802.049638986198
 20
1044.982431330696
 30
0.0
 11
4802.049638986198
 21
1033.56107177507
 31
0.0
  0
LINE
  5
8AF
330
8AC
100
AcDbEntity
  8
0
 62
     0
370
    -2
100
AcDbLine
 10
4967.049638986198
 20
1050.336973665128
 30
0.0
 11
4967.049638986198
 21
1033.56107177507
 31
0.0
  0
LINE
  5
8B0
330
8AC
100
AcDbEntity
  8
0
 62
     0
370
    -2
100
AcDbLine
 10
4804.549638986198
 20
1034.811071775069
 30
0.0
 11
4964.549638986198
 21
1034.811071775069
 31
0.0
  0
SOLID
  5
8B1
330
8AC
100
AcDbEntity
  8
0
 62
     0
100
AcDbTrace
 10
4804.549638986198
 20
1035.227738441736
 30
0.0
 11
4804.549638986198
 21
1034.394405108403
 31
0.0
 12
4802.049638986198
 22
1034.811071775069
 32
0.0
 13
4802.049638986198
 23
1034.811071775069
 33
0.0
  0
SOLID
  5
8B2
330
8AC
100
AcDbEntity
  8
0
 62
     0
100
AcDbTrace
 10
4964.549638986198
 20
1035.227738441736
 30
0.0
 11
4964.549638986198
 21
1034.394405108403
 31
0.0
 12
4967.049638986198
 22
1034.811071775069
 32
0.0
 13
4967.049638986198
 23
1034.811071775069
 33
0.0
  0
MTEXT
  5
8B3
330
8AC
100
AcDbEntity
  8
0
 62
     0
100
AcDbMText
 10
4884.549638986198
 20
1040.43607177507
 30
0.0
 40
10.0
 41
0.0
 46
0.0
 71
     5
 72
     1
  1
165
 73
     1
 44
1.0
  0
POINT
  5
8B4
330
8AC
100
AcDbEntity
  8
Defpoints
 62
     0
100
AcDbPoint
 10
4802.049638986198
 20
1045.607431330696
 30
0.0
  0
POINT
  5
8B5
330
8AC
100
AcDbEntity
  8
Defpoints
 62
     0
100
AcDbPoint
 10
4967.049638986198
 20
1050.961973665128
 30
0.0
  0
POINT
  5
8B6
330
8AC
100
AcDbEntity
  8
Defpoints
 62
     0
100
AcDbPoint
 10
4967.049638986198
 20
1034.811071775069
 30
0.0
  0
ENDBLK
  5
8B7
330
8AC
100
AcDbEntity
  8
0
 62
     3
100
AcDbBlockEnd
  0
BLOCK
  5
8B9
330
8B8
100
AcDbEntity
  8
0
 62
     3
100
AcDbBlockBegin
  2
*D47
 70
     1
 10
0.0
 20
0.0
 30
0.0
  3
*D47
  1

  0
LINE
  5
8BA
330
8B8
100
AcDbEntity
  8
0
 62
     0
370
    -2
100
AcDbLine
 10
4362.049638986198
 20
750.045668517268
 30
0.0
 11
4362.049638986198
 21
624.2641907802176
 31
0.0
  0
LINE
  5
8BB
330
8B8
100
AcDbEntity
  8
0
 62
     0
370
    -2
100
AcDbLine
 10
4967.049638986198
 20
750.045668517268
 30
0.0
 11
4967.049638986198
 21
624.2641907802176
 31
0.0
  0
LINE
  5
8BC
330
8B8
100
AcDbEntity
  8
0
 62
     0
370
    -2
100
AcDbLine
 10
4364.549638986197
 20
625.5141907802176
 30
0.0
 11
4964.549638986198
 21
625.5141907802176
 31
0.0
  0
SOLID
  5
8BD
330
8B8
100
AcDbEntity
  8
0
 62
     0
100
AcDbTrace
 10
4364.549638986197
 20
625.9308574468843
 30
0.0
 11
4364.549638986197
 21
625.097524113551
 31
0.0
 12
4362.049638986198
 22
625.5141907802176
 32
0.0
 13
4362.049638986198
 23
625.5141907802176
 33
0.0
  0
SOLID
  5
8BE
330
8B8
100
AcDbEntity
  8
0
 62
     0
100
AcDbTrace
 10
4964.549638986198
 20
625.9308574468843
 30
0.0
 11
4964.549638986198
 21
625.097524113551
 31
0.0
 12
4967.049638986198
 22
625.5141907802176
 32
0.0
 13
4967.049638986198
 23
625.5141907802176
 33
0.0
  0
MTEXT
  5
8BF
330
8B8
100
AcDbEntity
  8
0
 62
     0
100
AcDbMText
 10
4664.549638986198
 20
631.1391907802176
 30
0.0
 40
10.0
 41
0.0
 46
0.0
 71
     5
 72
     1
  1
605
 73
     1
 44
1.0
  0
POINT
  5
8C0
330
8B8
100
AcDbEntity
  8
Defpoints
 62
     0
100
AcDbPoint
 10
4362.049638986198
 20
750.670668517268
 30
0.0
  0
POINT
  5
8C1
330
8B8
100
AcDbEntity
  8
Defpoints
 62
     0
100
AcDbPoint
 10
4967.049638986198
 20
750.670668517268
 30
0.0
  0
POINT
  5
8C2
330
8B8
100
AcDbEntity
  8
Defpoints
 62
     0
100
AcDbPoint
 10
4967.049638986198
 20
625.5141907802176
 30
0.0
  0
ENDBLK
  5
8C3
330
8B8
100
AcDbEntity
  8
0
 62
     3
100
AcDbBlockEnd
  0
BLOCK
  5
8C5
330
8C4
100
AcDbEntity
  8
0
 62
     3
100
AcDbBlockBegin
  2
*D48
 70
     1
 10
0.0
 20
0.0
 30
0.0
  3
*D48
  1

  0
LINE
  5
8C6
330
8C4
100
AcDbEntity
  8
0
 62
     0
370
    -2
100
AcDbLine
 10
4526.424638986198
 20
670.670668517268
 30
0.0
 11
4267.856592166547
 21
670.6706685172681
 31
0.0
  0
LINE
  5
8C7
330
8C4
100
AcDbEntity
  8
0
 62
     0
370
    -2
100
AcDbLine
 10
4526.424638986198
 20
1275.670668517268
 30
0.0
 11
4267.856592166547
 21
1275.670668517268
 31
0.0
  0
LINE
  5
8C8
330
8C4
100
AcDbEntity
  8
0
 62
     0
370
    -2
100
AcDbLine
 10
4269.106592166547
 20
673.1706685172683
 30
0.0
 11
4269.106592166547
 21
1273.170668517268
 31
0.0
  0
SOLID
  5
8C9
330
8C4
100
AcDbEntity
  8
0
 62
     0
100
AcDbTrace
 10
4268.68992549988
 20
673.1706685172683
 30
0.0
 11
4269.523258833213
 21
673.1706685172683
 31
0.0
 12
4269.106592166547
 22
670.6706685172681
 32
0.0
 13
4269.106592166547
 23
670.6706685172681
 33
0.0
  0
SOLID
  5
8CA
330
8C4
100
AcDbEntity
  8
0
 62
     0
100
AcDbTrace
 10
4268.68992549988
 20
1273.170668517268
 30
0.0
 11
4269.523258833213
 21
1273.170668517268
 31
0.0
 12
4269.106592166547
 22
1275.670668517268
 32
0.0
 13
4269.106592166547
 23
1275.670668517268
 33
0.0
  0
MTEXT
  5
8CB
330
8C4
100
AcDbEntity
  8
0
 62
     0
100
AcDbMText
 10
4263.481592166548
 20
973.1706685172687
 30
0.0
 40
10.0
 41
0.0
 46
0.0
 71
     5
 72
     1
  1
605
 11
0.0000000000000001
 21
1.0
 31
0.0
 73
     1
 44
1.0
  0
POINT
  5
8CC
330
8C4
100
AcDbEntity
  8
Defpoints
 62
     0
100
AcDbPoint
 10
4527.049638986198
 20
670.670668517268
 30
0.0
  0
POINT
  5
8CD
330
8C4
100
AcDbEntity
  8
Defpoints
 62
     0
100
AcDbPoint
 10
4527.049638986198
 20
1275.670668517268
 30
0.0
  0
POINT
  5
8CE
330
8C4
100
AcDbEntity
  8
Defpoints
 62
     0
100
AcDbPoint
 10
4269.106592166547
 20
1275.670668517268
 30
0.0
  0
ENDBLK
  5
8CF
330
8C4
100
AcDbEntity
  8
0
 62
     3
100
AcDbBlockEnd
  0
BLOCK
  5
8D1
330
8D0
100
AcDbEntity
  8
0
 62
     3
100
AcDbBlockBegin
  2
*D49
 70
     1
 10
0.0
 20
0.0
 30
0.0
  3
*D49
  1

  0
LINE
  5
8D2
330
8D0
100
AcDbEntity
  8
0
 62
     0
370
    -2
100
AcDbLine
 10
5108.103032600202
 20
968.1693038922022
 30
0.0
 11
5108.103032600202
 21
968.794303892202
 31
0.0
  0
LINE
  5
8D3
330
8D0
100
AcDbEntity
  8
0
 62
     0
370
    -2
100
AcDbLine
 10
5389.103032600202
 20
968.1693038922022
 30
0.0
 11
5389.103032600202
 21
968.794303892202
 31
0.0
  0
LINE
  5
8D4
330
8D0
100
AcDbEntity
  8
0
 62
     0
370
    -2
100
AcDbLine
 10
5110.603032600202
 20
967.5443038922022
 30
0.0
 11
5386.603032600202
 21
967.5443038922022
 31
0.0
  0
SOLID
  5
8D5
330
8D0
100
AcDbEntity
  8
0
 62
     0
100
AcDbTrace
 10
5110.603032600202
 20
967.9609705588687
 30
0.0
 11
5110.603032600202
 21
967.1276372255356
 31
0.0
 12
5108.103032600202
 22
967.5443038922022
 32
0.0
 13
5108.103032600202
 23
967.5443038922022
 33
0.0
  0
SOLID
  5
8D6
330
8D0
100
AcDbEntity
  8
0
 62
     0
100
AcDbTrace
 10
5386.603032600202
 20
967.9609705588687
 30
0.0
 11
5386.603032600202
 21
967.1276372255356
 31
0.0
 12
5389.103032600202
 22
967.5443038922022
 32
0.0
 13
5389.103032600202
 23
967.5443038922022
 33
0.0
  0
MTEXT
  5
8D7
330
8D0
100
AcDbEntity
  8
0
 62
     0
100
AcDbMText
 10
5248.603032600202
 20
973.1693038922021
 30
0.0
 40
10.0
 41
0.0
 46
0.0
 71
     5
 72
     1
  1
281
 73
     1
 44
1.0
  0
POINT
  5
8D8
330
8D0
100
AcDbEntity
  8
Defpoints
 62
     0
100
AcDbPoint
 10
5108.103032600202
 20
967.5443038922022
 30
0.0
  0
POINT
  5
8D9
330
8D0
100
AcDbEntity
  8
Defpoints
 62
     0
100
AcDbPoint
 10
5389.103032600202
 20
967.5443038922022
 30
0.0
  0
POINT
  5
8DA
330
8D0
100
AcDbEntity
  8
Defpoints
 62
     0
100
AcDbPoint
 10
5389.103032600202
 20
967.5443038922022
 30
0.0
  0
ENDBLK
  5
8DB
330
8D0
100
AcDbEntity
  8
0
 62
     3
100
AcDbBlockEnd
  0
BLOCK
  5
8DD
330
8DC
100
AcDbEntity
  8
0
 62
     3
100
AcDbBlockBegin
  2
*D50
 70
     1
 10
0.0
 20
0.0
 30
0.0
  3
*D50
  1

  0
LINE
  5
8DE
330
8DC
100
AcDbEntity
  8
0
 62
     0
370
    -2
100
AcDbLine
 10
5339.858932118607
 20
1124.802269821688
 30
0.0
 11
5349.693991147852
 21
1124.802269821688
 31
0.0
  0
LINE
  5
8DF
330
8DC
100
AcDbEntity
  8
0
 62
     0
370
    -2
100
AcDbLine
 10
5339.858932118607
 20
843.8022698216885
 30
0.0
 11
5349.693991147852
 21
843.8022698216885
 31
0.0
  0
LINE
  5
8E0
330
8DC
100
AcDbEntity
  8
0
 62
     0
370
    -2
100
AcDbLine
 10
5348.443991147849
 20
1122.302269821688
 30
0.0
 11
5348.443991147849
 21
846.3022698216885
 31
0.0
  0
SOLID
  5
8E1
330
8DC
100
AcDbEntity
  8
0
 62
     0
100
AcDbTrace
 10
5348.027324481183
 20
1122.302269821688
 30
0.0
 11
5348.860657814517
 21
1122.302269821688
 31
0.0
 12
5348.443991147849
 22
1124.802269821688
 32
0.0
 13
5348.443991147849
 23
1124.802269821688
 33
0.0
  0
SOLID
  5
8E2
330
8DC
100
AcDbEntity
  8
0
 62
     0
100
AcDbTrace
 10
5348.027324481183
 20
846.3022698216885
 30
0.0
 11
5348.860657814517
 21
846.3022698216885
 31
0.0
 12
5348.443991147849
 22
843.8022698216885
 32
0.0
 13
5348.443991147849
 23
843.8022698216885
 33
0.0
  0
MTEXT
  5
8E3
330
8DC
100
AcDbEntity
  8
0
 62
     0
100
AcDbMText
 10
5342.818991147851
 20
984.302269821689
 30
0.0
 40
10.0
 41
0.0
 46
0.0
 71
     5
 72
     1
  1
281
 11
0.0000000000000001
 21
1.0
 31
0.0
 73
     1
 44
1.0
  0
POINT
  5
8E4
330
8DC
100
AcDbEntity
  8
Defpoints
 62
     0
100
AcDbPoint
 10
5339.233932118607
 20
1124.802269821688
 30
0.0
  0
POINT
  5
8E5
330
8DC
100
AcDbEntity
  8
Defpoints
 62
     0
100
AcDbPoint
 10
5339.233932118607
 20
843.8022698216885
 30
0.0
  0
POINT
  5
8E6
330
8DC
100
AcDbEntity
  8
Defpoints
 62
     0
100
AcDbPoint
 10
5348.443991147849
 20
843.8022698216885
 30
0.0
  0
ENDBLK
  5
8E7
330
8DC
100
AcDbEntity
  8
0
 62
     3
100
AcDbBlockEnd
  0
BLOCK
  5
8E9
330
8E8
100
AcDbEntity
  8
0
 62
     3
100
AcDbBlockBegin
  2
*D51
 70
     1
 10
0.0
 20
0.0
 30
0.0
  3
*D51
  1

  0
LINE
  5
8EA
330
8E8
100
AcDbEntity
  8
0
 62
     0
370
    -2
100
AcDbLine
 10
5389.103032600202
 20
920.4010096821972
 30
0.0
 11
5389.103032600202
 21
921.0260096821974
 31
0.0
  0
LINE
  5
8EB
330
8E8
100
AcDbEntity
  8
0
 62
     0
370
    -2
100
AcDbLine
 10
5427.103032600202
 20
920.4010096821972
 30
0.0
 11
5427.103032600202
 21
921.0260096821974
 31
0.0
  0
LINE
  5
8EC
330
8E8
100
AcDbEntity
  8
0
 62
     0
370
    -2
100
AcDbLine
 10
5391.603032600202
 20
919.7760096821973
 30
0.0
 11
5424.603032600202
 21
919.7760096821973
 31
0.0
  0
SOLID
  5
8ED
330
8E8
100
AcDbEntity
  8
0
 62
     0
100
AcDbTrace
 10
5391.603032600202
 20
920.1926763488639
 30
0.0
 11
5391.603032600202
 21
919.3593430155306
 31
0.0
 12
5389.103032600202
 22
919.7760096821973
 32
0.0
 13
5389.103032600202
 23
919.7760096821973
 33
0.0
  0
SOLID
  5
8EE
330
8E8
100
AcDbEntity
  8
0
 62
     0
100
AcDbTrace
 10
5424.603032600202
 20
920.1926763488639
 30
0.0
 11
5424.603032600202
 21
919.3593430155306
 31
0.0
 12
5427.103032600202
 22
919.7760096821973
 32
0.0
 13
5427.103032600202
 23
919.7760096821973
 33
0.0
  0
MTEXT
  5
8EF
330
8E8
100
AcDbEntity
  8
0
 62
     0
100
AcDbMText
 10
5408.103032600202
 20
925.4010096821971
 30
0.0
 40
10.0
 41
0.0
 46
0.0
 71
     5
 72
     1
  1
38
 73
     1
 44
1.0
  0
POINT
  5
8F0
330
8E8
100
AcDbEntity
  8
Defpoints
 62
     0
100
AcDbPoint
 10
5389.103032600202
 20
919.7760096821973
 30
0.0
  0
POINT
  5
8F1
330
8E8
100
AcDbEntity
  8
Defpoints
 62
     0
100
AcDbPoint
 10
5427.103032600202
 20
919.7760096821973
 30
0.0
  0
POINT
  5
8F2
330
8E8
100
AcDbEntity
  8
Defpoints
 62
     0
100
AcDbPoint
 10
5427.103032600202
 20
919.7760096821973
 30
0.0
  0
ENDBLK
  5
8F3
330
8E8
100
AcDbEntity
  8
0
 62
     3
100
AcDbBlockEnd
  0
BLOCK
  5
8F5
330
8F4
100
AcDbEntity
  8
0
 62
     3
100
AcDbBlockBegin
  2
*D52
 70
     1
 10
0.0
 20
0.0
 30
0.0
  3
*D52
  1

  0
LINE
  5
8F6
330
8F4
100
AcDbEntity
  8
0
 62
     0
370
    -2
100
AcDbLine
 10
5019.103032600202
 20
856.6772698216881
 30
0.0
 11
5019.103032600202
 21
686.8036639680581
 31
0.0
  0
LINE
  5
8F7
330
8F4
100
AcDbEntity
  8
0
 62
     0
370
    -2
100
AcDbLine
 10
5478.103032600202
 20
856.6772698216881
 30
0.0
 11
5478.103032600202
 21
686.8036639680581
 31
0.0
  0
LINE
  5
8F8
330
8F4
100
AcDbEntity
  8
0
 62
     0
370
    -2
100
AcDbLine
 10
5021.603032600202
 20
688.0536639680581
 30
0.0
 11
5475.603032600202
 21
688.0536639680581
 31
0.0
  0
SOLID
  5
8F9
330
8F4
100
AcDbEntity
  8
0
 62
     0
100
AcDbTrace
 10
5021.603032600202
 20
688.4703306347248
 30
0.0
 11
5021.603032600202
 21
687.6369973013915
 31
0.0
 12
5019.103032600202
 22
688.0536639680581
 32
0.0
 13
5019.103032600202
 23
688.0536639680581
 33
0.0
  0
SOLID
  5
8FA
330
8F4
100
AcDbEntity
  8
0
 62
     0
100
AcDbTrace
 10
5475.603032600202
 20
688.4703306347248
 30
0.0
 11
5475.603032600202
 21
687.6369973013915
 31
0.0
 12
5478.103032600202
 22
688.0536639680581
 32
0.0
 13
5478.103032600202
 23
688.0536639680581
 33
0.0
  0
MTEXT
  5
8FB
330
8F4
100
AcDbEntity
  8
0
 62
     0
100
AcDbMText
 10
5248.603032600202
 20
693.6786639680581
 30
0.0
 40
10.0
 41
0.0
 46
0.0
 71
     5
 72
     1
  1
459
 73
     1
 44
1.0
  0
POINT
  5
8FC
330
8F4
100
AcDbEntity
  8
Defpoints
 62
     0
100
AcDbPoint
 10
5019.103032600202
 20
857.3022698216883
 30
0.0
  0
POINT
  5
8FD
330
8F4
100
AcDbEntity
  8
Defpoints
 62
     0
100
AcDbPoint
 10
5478.103032600202
 20
857.3022698216883
 30
0.0
  0
POINT
  5
8FE
330
8F4
100
AcDbEntity
  8
Defpoints
 62
     0
100
AcDbPoint
 10
5478.103032600202
 20
688.0536639680581
 30
0.0
  0
ENDBLK
  5
8FF
330
8F4
100
AcDbEntity
  8
0
 62
     3
100
AcDbBlockEnd
  0
BLOCK
  5
901
330
900
100
AcDbEntity
  8
0
 62
     3
100
AcDbBlockBegin
  2
*D53
 70
     1
 10
0.0
 20
0.0
 30
0.0
  3
*D53
  1

  0
LINE
  5
902
330
900
100
AcDbEntity
  8
0
 62
     0
370
    -2
100
AcDbLine
 10
5376.228032600202
 20
754.8022698216885
 30
0.0
 11
5568.660260045592
 21
754.8022698216885
 31
0.0
  0
LINE
  5
903
330
900
100
AcDbEntity
  8
0
 62
     0
370
    -2
100
AcDbLine
 10
5376.228032600202
 20
1213.802269821689
 30
0.0
 11
5568.660260045592
 21
1213.802269821689
 31
0.0
  0
LINE
  5
904
330
900
100
AcDbEntity
  8
0
 62
     0
370
    -2
100
AcDbLine
 10
5567.410260045591
 20
757.3022698216886
 30
0.0
 11
5567.410260045591
 21
1211.302269821689
 31
0.0
  0
SOLID
  5
905
330
900
100
AcDbEntity
  8
0
 62
     0
100
AcDbTrace
 10
5566.993593378924
 20
757.3022698216886
 30
0.0
 11
5567.826926712259
 21
757.3022698216886
 31
0.0
 12
5567.410260045591
 22
754.8022698216885
 32
0.0
 13
5567.410260045591
 23
754.8022698216885
 33
0.0
  0
SOLID
  5
906
330
900
100
AcDbEntity
  8
0
 62
     0
100
AcDbTrace
 10
5566.993593378924
 20
1211.302269821689
 30
0.0
 11
5567.826926712259
 21
1211.302269821689
 31
0.0
 12
5567.410260045591
 22
1213.802269821689
 32
0.0
 13
5567.410260045591
 23
1213.802269821689
 33
0.0
  0
MTEXT
  5
907
330
900
100
AcDbEntity
  8
0
 62
     0
100
AcDbMText
 10
5561.785260045592
 20
984.3022698216897
 30
0.0
 40
10.0
 41
0.0
 46
0.0
 71
     5
 72
     1
  1
459
 11
0.0000000000000001
 21
1.0
 31
0.0
 73
     1
 44
1.0
  0
POINT
  5
908
330
900
100
AcDbEntity
  8
Defpoints
 62
     0
100
AcDbPoint
 10
5375.603032600202
 20
754.8022698216887
 30
0.0
  0
POINT
  5
909
330
900
100
AcDbEntity
  8
Defpoints
 62
     0
100
AcDbPoint
 10
5375.603032600202
 20
1213.802269821689
 30
0.0
  0
POINT
  5
90A
330
900
100
AcDbEntity
  8
Defpoints
 62
     0
100
AcDbPoint
 10
5567.410260045591
 20
1213.802269821689
 30
0.0
  0
ENDBLK
  5
90B
330
900
100
AcDbEntity
  8
0
 62
     3
100
AcDbBlockEnd
  0
BLOCK
  5
A44
330
A3A
100
AcDbEntity
  8
0
 62
     3
100
AcDbBlockBegin
  2
*D54
 70
     1
 10
0.0
 20
0.0
 30
0.0
  3
*D54
  1

  0
LINE
  5
BAE
330
A3A
100
AcDbEntity
  8
0
 62
     0
370
    -2
100
AcDbLine
 10
6240.668046307099
 20
959.7677641100814
 30
0.0
 11
6240.668046307099
 21
976.1658780013503
 31
0.0
  0
LINE
  5
BAF
330
A3A
100
AcDbEntity
  8
0
 62
     0
370
    -2
100
AcDbLine
 10
6555.668046307101
 20
959.7677641100814
 30
0.0
 11
6555.668046307101
 21
976.1658780013503
 31
0.0
  0
LINE
  5
BB0
330
A3A
100
AcDbEntity
  8
0
 62
     0
370
    -2
100
AcDbLine
 10
6243.1680463071
 20
974.9158780013503
 30
0.0
 11
6553.168046307098
 21
974.9158780013503
 31
0.0
  0
SOLID
  5
BB1
330
A3A
100
AcDbEntity
  8
0
 62
     0
100
AcDbTrace
 10
6243.1680463071
 20
975.332544668017
 30
0.0
 11
6243.1680463071
 21
974.4992113346837
 31
0.0
 12
6240.668046307099
 22
974.9158780013503
 32
0.0
 13
6240.668046307099
 23
974.9158780013503
 33
0.0
  0
SOLID
  5
BB2
330
A3A
100
AcDbEntity
  8
0
 62
     0
100
AcDbTrace
 10
6553.168046307098
 20
975.332544668017
 30
0.0
 11
6553.168046307098
 21
974.4992113346837
 31
0.0
 12
6555.668046307101
 22
974.9158780013503
 32
0.0
 13
6555.668046307101
 23
974.9158780013503
 33
0.0
  0
MTEXT
  5
BB3
330
A3A
100
AcDbEntity
  8
0
 62
     0
100
AcDbMText
 10
6398.168046307098
 20
980.5408780013504
 30
0.0
 40
10.0
 41
0.0
 46
0.0
 71
     5
 72
     1
  1
315
 73
     1
 44
1.0
  0
POINT
  5
BB4
330
A3A
100
AcDbEntity
  8
Defpoints
 62
     0
100
AcDbPoint
 10
6240.668046307099
 20
959.1427641100812
 30
0.0
  0
POINT
  5
BB5
330
A3A
100
AcDbEntity
  8
Defpoints
 62
     0
100
AcDbPoint
 10
6555.668046307101
 20
959.1427641100812
 30
0.0
  0
POINT
  5
BB6
330
A3A
100
AcDbEntity
  8
Defpoints
 62
     0
100
AcDbPoint
 10
6555.668046307101
 20
974.9158780013503
 30
0.0
  0
ENDBLK
  5
A45
330
A3A
100
AcDbEntity
  8
0
 62
     3
100
AcDbBlockEnd
  0
BLOCK
  5
A50
330
A46
100
AcDbEntity
  8
0
 62
     3
100
AcDbBlockBegin
  2
*D55
 70
     1
 10
0.0
 20
0.0
 30
0.0
  3
*D55
  1

  0
LINE
  5
BB7
330
A46
100
AcDbEntity
  8
0
 62
     0
370
    -2
100
AcDbLine
 10
6491.329991313759
 20
1116.642764110081
 30
0.0
 11
6489.161613320399
 21
1116.642764110081
 31
0.0
  0
LINE
  5
BB8
330
A46
100
AcDbEntity
  8
0
 62
     0
370
    -2
100
AcDbLine
 10
6491.329991313759
 20
801.6427641100811
 30
0.0
 11
6489.161613320399
 21
801.6427641100811
 31
0.0
  0
LINE
  5
BB9
330
A46
100
AcDbEntity
  8
0
 62
     0
370
    -2
100
AcDbLine
 10
6490.411613320398
 20
1114.142764110081
 30
0.0
 11
6490.411613320398
 21
804.1427641100812
 31
0.0
  0
SOLID
  5
BBA
330
A46
100
AcDbEntity
  8
0
 62
     0
100
AcDbTrace
 10
6489.994946653732
 20
1114.142764110081
 30
0.0
 11
6490.828279987066
 21
1114.142764110081
 31
0.0
 12
6490.411613320398
 22
1116.642764110081
 32
0.0
 13
6490.411613320398
 23
1116.642764110081
 33
0.0
  0
SOLID
  5
BBB
330
A46
100
AcDbEntity
  8
0
 62
     0
100
AcDbTrace
 10
6489.994946653732
 20
804.1427641100812
 30
0.0
 11
6490.828279987066
 21
804.1427641100812
 31
0.0
 12
6490.411613320398
 22
801.6427641100811
 32
0.0
 13
6490.411613320398
 23
801.6427641100811
 33
0.0
  0
MTEXT
  5
BBC
330
A46
100
AcDbEntity
  8
0
 62
     0
100
AcDbMText
 10
6484.786613320399
 20
959.1427641100825
 30
0.0
 40
10.0
 41
0.0
 46
0.0
 71
     5
 72
     1
  1
315
 11
0.0000000000000001
 21
1.0
 31
0.0
 73
     1
 44
1.0
  0
POINT
  5
BBD
330
A46
100
AcDbEntity
  8
Defpoints
 62
     0
100
AcDbPoint
 10
6491.954991313758
 20
1116.642764110081
 30
0.0
  0
POINT
  5
BBE
330
A46
100
AcDbEntity
  8
Defpoints
 62
     0
100
AcDbPoint
 10
6491.954991313758
 20
801.6427641100811
 30
0.0
  0
POINT
  5
BBF
330
A46
100
AcDbEntity
  8
Defpoints
 62
     0
100
AcDbPoint
 10
6490.411613320398
 20
801.6427641100811
 30
0.0
  0
ENDBLK
  5
A51
330
A46
100
AcDbEntity
  8
0
 62
     3
100
AcDbBlockEnd
  0
BLOCK
  5
A5C
330
A52
100
AcDbEntity
  8
0
 62
     3
100
AcDbBlockBegin
  2
*D56
 70
     1
 10
0.0
 20
0.0
 30
0.0
  3
*D56
  1

  0
LINE
  5
B9C
330
A52
100
AcDbEntity
  8
0
 62
     0
370
    -2
100
AcDbLine
 10
6555.668046307101
 20
1041.490783332735
 30
0.0
 11
6555.668046307101
 21
1030.069423777105
 31
0.0
  0
LINE
  5
B9D
330
A52
100
AcDbEntity
  8
0
 62
     0
370
    -2
100
AcDbLine
 10
6725.668046307099
 20
1043.301546125165
 30
0.0
 11
6725.668046307099
 21
1030.069423777105
 31
0.0
  0
LINE
  5
B9E
330
A52
100
AcDbEntity
  8
0
 62
     0
370
    -2
100
AcDbLine
 10
6558.168046307099
 20
1031.319423777106
 30
0.0
 11
6723.168046307098
 21
1031.319423777106
 31
0.0
  0
SOLID
  5
B9F
330
A52
100
AcDbEntity
  8
0
 62
     0
100
AcDbTrace
 10
6558.168046307099
 20
1031.736090443772
 30
0.0
 11
6558.168046307099
 21
1030.902757110439
 31
0.0
 12
6555.668046307101
 22
1031.319423777106
 32
0.0
 13
6555.668046307101
 23
1031.319423777106
 33
0.0
  0
SOLID
  5
BA0
330
A52
100
AcDbEntity
  8
0
 62
     0
100
AcDbTrace
 10
6723.168046307098
 20
1031.736090443772
 30
0.0
 11
6723.168046307098
 21
1030.902757110439
 31
0.0
 12
6725.668046307099
 22
1031.319423777106
 32
0.0
 13
6725.668046307099
 23
1031.319423777106
 33
0.0
  0
MTEXT
  5
BA1
330
A52
100
AcDbEntity
  8
0
 62
     0
100
AcDbMText
 10
6640.668046307098
 20
1036.944423777106
 30
0.0
 40
10.0
 41
0.0
 46
0.0
 71
     5
 72
     1
  1
170
 73
     1
 44
1.0
  0
POINT
  5
BA2
330
A52
100
AcDbEntity
  8
Defpoints
 62
     0
100
AcDbPoint
 10
6555.668046307101
 20
1042.115783332735
 30
0.0
  0
POINT
  5
BA3
330
A52
100
AcDbEntity
  8
Defpoints
 62
     0
100
AcDbPoint
 10
6725.668046307099
 20
1043.926546125165
 30
0.0
  0
POINT
  5
BA4
330
A52
100
AcDbEntity
  8
Defpoints
 62
     0
100
AcDbPoint
 10
6725.668046307099
 20
1031.319423777106
 30
0.0
  0
ENDBLK
  5
A5D
330
A52
100
AcDbEntity
  8
0
 62
     3
100
AcDbBlockEnd
  0
BLOCK
  5
A68
330
A5E
100
AcDbEntity
  8
0
 62
     3
100
AcDbBlockBegin
  2
*D57
 70
     1
 10
0.0
 20
0.0
 30
0.0
  3
*D57
  1

  0
LINE
  5
B93
330
A5E
100
AcDbEntity
  8
0
 62
     0
370
    -2
100
AcDbLine
 10
6070.668046307098
 20
716.0177641100812
 30
0.0
 11
6070.668046307098
 21
585.2362863730308
 31
0.0
  0
LINE
  5
B94
330
A5E
100
AcDbEntity
  8
0
 62
     0
370
    -2
100
AcDbLine
 10
6725.668046307099
 20
716.0177641100812
 30
0.0
 11
6725.668046307099
 21
585.2362863730308
 31
0.0
  0
LINE
  5
B95
330
A5E
100
AcDbEntity
  8
0
 62
     0
370
    -2
100
AcDbLine
 10
6073.168046307098
 20
586.4862863730309
 30
0.0
 11
6723.168046307098
 21
586.4862863730309
 31
0.0
  0
SOLID
  5
B96
330
A5E
100
AcDbEntity
  8
0
 62
     0
100
AcDbTrace
 10
6073.168046307098
 20
586.9029530396975
 30
0.0
 11
6073.168046307098
 21
586.0696197063641
 31
0.0
 12
6070.668046307098
 22
586.4862863730309
 32
0.0
 13
6070.668046307098
 23
586.4862863730309
 33
0.0
  0
SOLID
  5
B97
330
A5E
100
AcDbEntity
  8
0
 62
     0
100
AcDbTrace
 10
6723.168046307098
 20
586.9029530396975
 30
0.0
 11
6723.168046307098
 21
586.0696197063641
 31
0.0
 12
6725.668046307099
 22
586.4862863730309
 32
0.0
 13
6725.668046307099
 23
586.4862863730309
 33
0.0
  0
MTEXT
  5
B98
330
A5E
100
AcDbEntity
  8
0
 62
     0
100
AcDbMText
 10
6398.168046307098
 20
592.1112863730309
 30
0.0
 40
10.0
 41
0.0
 46
0.0
 71
     5
 72
     1
  1
655
 73
     1
 44
1.0
  0
POINT
  5
B99
330
A5E
100
AcDbEntity
  8
Defpoints
 62
     0
100
AcDbPoint
 10
6070.668046307098
 20
716.6427641100812
 30
0.0
  0
POINT
  5
B9A
330
A5E
100
AcDbEntity
  8
Defpoints
 62
     0
100
AcDbPoint
 10
6725.668046307099
 20
716.6427641100812
 30
0.0
  0
POINT
  5
B9B
330
A5E
100
AcDbEntity
  8
Defpoints
 62
     0
100
AcDbPoint
 10
6725.668046307099
 20
586.4862863730309
 30
0.0
  0
ENDBLK
  5
A69
330
A5E
100
AcDbEntity
  8
0
 62
     3
100
AcDbBlockEnd
  0
BLOCK
  5
A74
330
A6A
100
AcDbEntity
  8
0
 62
     3
100
AcDbBlockBegin
  2
*D58
 70
     1
 10
0.0
 20
0.0
 30
0.0
  3
*D58
  1

  0
LINE
  5
B42
330
A6A
100
AcDbEntity
  8
0
 62
     0
370
    -2
100
AcDbLine
 10
6240.0430463071
 20
631.6427641100812
 30
0.0
 11
5976.474999487447
 21
631.6427641100812
 31
0.0
  0
LINE
  5
B43
330
A6A
100
AcDbEntity
  8
0
 62
     0
370
    -2
100
AcDbLine
 10
6240.0430463071
 20
1286.642764110081
 30
0.0
 11
5976.474999487447
 21
1286.642764110081
 31
0.0
  0
LINE
  5
B44
330
A6A
100
AcDbEntity
  8
0
 62
     0
370
    -2
100
AcDbLine
 10
5977.724999487447
 20
634.1427641100811
 30
0.0
 11
5977.724999487447
 21
1284.142764110081
 31
0.0
  0
SOLID
  5
B45
330
A6A
100
AcDbEntity
  8
0
 62
     0
100
AcDbTrace
 10
5977.308332820781
 20
634.1427641100811
 30
0.0
 11
5978.141666154115
 21
634.1427641100811
 31
0.0
 12
5977.724999487447
 22
631.6427641100812
 32
0.0
 13
5977.724999487447
 23
631.6427641100812
 33
0.0
  0
SOLID
  5
B46
330
A6A
100
AcDbEntity
  8
0
 62
     0
100
AcDbTrace
 10
5977.308332820781
 20
1284.142764110081
 30
0.0
 11
5978.141666154115
 21
1284.142764110081
 31
0.0
 12
5977.724999487447
 22
1286.642764110081
 32
0.0
 13
5977.724999487447
 23
1286.642764110081
 33
0.0
  0
MTEXT
  5
B47
330
A6A
100
AcDbEntity
  8
0
 62
     0
100
AcDbMText
 10
5972.099999487447
 20
959.1427641100825
 30
0.0
 40
10.0
 41
0.0
 46
0.0
 71
     5
 72
     1
  1
655
 11
0.0000000000000001
 21
1.0
 31
0.0
 73
     1
 44
1.0
  0
POINT
  5
B48
330
A6A
100
AcDbEntity
  8
Defpoints
 62
     0
100
AcDbPoint
 10
6240.668046307099
 20
631.6427641100812
 30
0.0
  0
POINT
  5
B49
330
A6A
100
AcDbEntity
  8
Defpoints
 62
     0
100
AcDbPoint
 10
6240.668046307099
 20
1286.642764110081
 30
0.0
  0
POINT
  5
B4A
330
A6A
100
AcDbEntity
  8
Defpoints
 62
     0
100
AcDbPoint
 10
5977.724999487447
 20
1286.642764110081
 30
0.0
  0
ENDBLK
  5
A75
330
A6A
100
AcDbEntity
  8
0
 62
     3
100
AcDbBlockEnd
  0
BLOCK
  5
A80
330
A76
100
AcDbEntity
  8
0
 62
     3
100
AcDbBlockBegin
  2
*D59
 70
     1
 10
0.0
 20
0.0
 30
0.0
  3
*D59
  1

  0
LINE
  5
C08
330
A76
100
AcDbEntity
  8
0
 62
     0
370
    -2
100
AcDbLine
 10
6861.721439921102
 20
971.7559239078644
 30
0.0
 11
6861.721439921102
 21
972.3809239078644
 31
0.0
  0
LINE
  5
C09
330
A76
100
AcDbEntity
  8
0
 62
     0
370
    -2
100
AcDbLine
 10
7182.721439921103
 20
971.7559239078644
 30
0.0
 11
7182.721439921103
 21
972.3809239078644
 31
0.0
  0
LINE
  5
C0A
330
A76
100
AcDbEntity
  8
0
 62
     0
370
    -2
100
AcDbLine
 10
6864.221439921102
 20
971.1309239078643
 30
0.0
 11
7180.221439921102
 21
971.1309239078643
 31
0.0
  0
SOLID
  5
C0B
330
A76
100
AcDbEntity
  8
0
 62
     0
100
AcDbTrace
 10
6864.221439921102
 20
971.5475905745307
 30
0.0
 11
6864.221439921102
 21
970.7142572411978
 31
0.0
 12
6861.721439921102
 22
971.1309239078643
 32
0.0
 13
6861.721439921102
 23
971.1309239078643
 33
0.0
  0
SOLID
  5
C0C
330
A76
100
AcDbEntity
  8
0
 62
     0
100
AcDbTrace
 10
7180.221439921102
 20
971.5475905745307
 30
0.0
 11
7180.221439921102
 21
970.7142572411978
 31
0.0
 12
7182.721439921103
 22
971.1309239078643
 32
0.0
 13
7182.721439921103
 23
971.1309239078643
 33
0.0
  0
MTEXT
  5
C0D
330
A76
100
AcDbEntity
  8
0
 62
     0
100
AcDbMText
 10
7022.221439921104
 20
976.7559239078643
 30
0.0
 40
10.0
 41
0.0
 46
0.0
 71
     5
 72
     1
  1
321
 73
     1
 44
1.0
  0
POINT
  5
C0E
330
A76
100
AcDbEntity
  8
Defpoints
 62
     0
100
AcDbPoint
 10
6861.721439921102
 20
971.1309239078643
 30
0.0
  0
POINT
  5
C0F
330
A76
100
AcDbEntity
  8
Defpoints
 62
     0
100
AcDbPoint
 10
7182.721439921103
 20
971.1309239078643
 30
0.0
  0
POINT
  5
C10
330
A76
100
AcDbEntity
  8
Defpoints
 62
     0
100
AcDbPoint
 10
7182.721439921103
 20
971.1309239078643
 30
0.0
  0
ENDBLK
  5
A81
330
A76
100
AcDbEntity
  8
0
 62
     3
100
AcDbBlockEnd
  0
BLOCK
  5
A8C
330
A82
100
AcDbEntity
  8
0
 62
     3
100
AcDbBlockBegin
  2
*D60
 70
     1
 10
0.0
 20
0.0
 30
0.0
  3
*D60
  1

  0
LINE
  5
BFF
330
A82
100
AcDbEntity
  8
0
 62
     0
370
    -2
100
AcDbLine
 10
7126.378535100491
 20
1150.774365414501
 30
0.0
 11
7136.213594129734
 21
1150.774365414501
 31
0.0
  0
LINE
  5
C00
330
A82
100
AcDbEntity
  8
0
 62
     0
370
    -2
100
AcDbLine
 10
7126.378535100491
 20
829.7743654145017
 30
0.0
 11
7136.213594129734
 21
829.7743654145017
 31
0.0
  0
LINE
  5
C01
330
A82
100
AcDbEntity
  8
0
 62
     0
370
    -2
100
AcDbLine
 10
7134.963594129733
 20
1148.274365414501
 30
0.0
 11
7134.963594129733
 21
832.2743654145018
 31
0.0
  0
SOLID
  5
C02
330
A82
100
AcDbEntity
  8
0
 62
     0
100
AcDbTrace
 10
7134.546927463067
 20
1148.274365414501
 30
0.0
 11
7135.380260796401
 21
1148.274365414501
 31
0.0
 12
7134.963594129733
 22
1150.774365414501
 32
0.0
 13
7134.963594129733
 23
1150.774365414501
 33
0.0
  0
SOLID
  5
C03
330
A82
100
AcDbEntity
  8
0
 62
     0
100
AcDbTrace
 10
7134.546927463067
 20
832.2743654145018
 30
0.0
 11
7135.380260796401
 21
832.2743654145018
 31
0.0
 12
7134.963594129733
 22
829.7743654145017
 32
0.0
 13
7134.963594129733
 23
829.7743654145017
 33
0.0
  0
MTEXT
  5
C04
330
A82
100
AcDbEntity
  8
0
 62
     0
100
AcDbMText
 10
7129.338594129734
 20
990.2743654145027
 30
0.0
 40
10.0
 41
0.0
 46
0.0
 71
     5
 72
     1
  1
321
 11
0.0000000000000001
 21
1.0
 31
0.0
 73
     1
 44
1.0
  0
POINT
  5
C05
330
A82
100
AcDbEntity
  8
Defpoints
 62
     0
100
AcDbPoint
 10
7125.75353510049
 20
1150.774365414501
 30
0.0
  0
POINT
  5
C06
330
A82
100
AcDbEntity
  8
Defpoints
 62
     0
100
AcDbPoint
 10
7125.75353510049
 20
829.7743654145017
 30
0.0
  0
POINT
  5
C07
330
A82
100
AcDbEntity
  8
Defpoints
 62
     0
100
AcDbPoint
 10
7134.963594129733
 20
829.7743654145017
 30
0.0
  0
ENDBLK
  5
A8D
330
A82
100
AcDbEntity
  8
0
 62
     3
100
AcDbBlockEnd
  0
BLOCK
  5
A98
330
A8E
100
AcDbEntity
  8
0
 62
     3
100
AcDbBlockBegin
  2
*D61
 70
     1
 10
0.0
 20
0.0
 30
0.0
  3
*D61
  1

  0
LINE
  5
C11
330
A8E
100
AcDbEntity
  8
0
 62
     0
370
    -2
100
AcDbLine
 10
7182.721439921103
 20
917.1878725149408
 30
0.0
 11
7182.721439921103
 21
917.8128725149408
 31
0.0
  0
LINE
  5
C12
330
A8E
100
AcDbEntity
  8
0
 62
     0
370
    -2
100
AcDbLine
 10
7220.721439921104
 20
917.1878725149408
 30
0.0
 11
7220.721439921104
 21
917.8128725149408
 31
0.0
  0
LINE
  5
C13
330
A8E
100
AcDbEntity
  8
0
 62
     0
370
    -2
100
AcDbLine
 10
7185.221439921102
 20
916.5628725149407
 30
0.0
 11
7218.221439921101
 21
916.5628725149407
 31
0.0
  0
SOLID
  5
C14
330
A8E
100
AcDbEntity
  8
0
 62
     0
100
AcDbTrace
 10
7185.221439921102
 20
916.9795391816071
 30
0.0
 11
7185.221439921102
 21
916.1462058482738
 31
0.0
 12
7182.721439921103
 22
916.5628725149407
 32
0.0
 13
7182.721439921103
 23
916.5628725149407
 33
0.0
  0
SOLID
  5
C15
330
A8E
100
AcDbEntity
  8
0
 62
     0
100
AcDbTrace
 10
7218.221439921101
 20
916.9795391816071
 30
0.0
 11
7218.221439921101
 21
916.1462058482738
 31
0.0
 12
7220.721439921104
 22
916.5628725149407
 32
0.0
 13
7220.721439921104
 23
916.5628725149407
 33
0.0
  0
MTEXT
  5
C16
330
A8E
100
AcDbEntity
  8
0
 62
     0
100
AcDbMText
 10
7201.721439921104
 20
922.1878725149407
 30
0.0
 40
10.0
 41
0.0
 46
0.0
 71
     5
 72
     1
  1
38
 73
     1
 44
1.0
  0
POINT
  5
C17
330
A8E
100
AcDbEntity
  8
Defpoints
 62
     0
100
AcDbPoint
 10
7182.721439921103
 20
916.5628725149407
 30
0.0
  0
POINT
  5
C18
330
A8E
100
AcDbEntity
  8
Defpoints
 62
     0
100
AcDbPoint
 10
7220.721439921104
 20
916.5628725149407
 30
0.0
  0
POINT
  5
C19
330
A8E
100
AcDbEntity
  8
Defpoints
 62
     0
100
AcDbPoint
 10
7220.721439921104
 20
916.5628725149407
 30
0.0
  0
ENDBLK
  5
A99
330
A8E
100
AcDbEntity
  8
0
 62
     3
100
AcDbBlockEnd
  0
BLOCK
  5
AA4
330
A9A
100
AcDbEntity
  8
0
 62
     3
100
AcDbBlockBegin
  2
*D62
 70
     1
 10
0.0
 20
0.0
 30
0.0
  3
*D62
  1

  0
LINE
  5
BC9
330
A9A
100
AcDbEntity
  8
0
 62
     0
370
    -2
100
AcDbLine
 10
6772.721439921102
 20
842.6493654145016
 30
0.0
 11
6772.721439921102
 21
672.7757595608713
 31
0.0
  0
LINE
  5
BCA
330
A9A
100
AcDbEntity
  8
0
 62
     0
370
    -2
100
AcDbLine
 10
7271.721439921103
 20
842.6493654145016
 30
0.0
 11
7271.721439921103
 21
672.7757595608713
 31
0.0
  0
LINE
  5
BCB
330
A9A
100
AcDbEntity
  8
0
 62
     0
370
    -2
100
AcDbLine
 10
6775.221439921104
 20
674.0257595608714
 30
0.0
 11
7269.221439921103
 21
674.0257595608714
 31
0.0
  0
SOLID
  5
BCC
330
A9A
100
AcDbEntity
  8
0
 62
     0
100
AcDbTrace
 10
6775.221439921104
 20
674.442426227538
 30
0.0
 11
6775.221439921104
 21
673.6090928942047
 31
0.0
 12
6772.721439921102
 22
674.0257595608714
 32
0.0
 13
6772.721439921102
 23
674.0257595608714
 33
0.0
  0
SOLID
  5
BCD
330
A9A
100
AcDbEntity
  8
0
 62
     0
100
AcDbTrace
 10
7269.221439921103
 20
674.442426227538
 30
0.0
 11
7269.221439921103
 21
673.6090928942047
 31
0.0
 12
7271.721439921103
 22
674.0257595608714
 32
0.0
 13
7271.721439921103
 23
674.0257595608714
 33
0.0
  0
MTEXT
  5
BCE
330
A9A
100
AcDbEntity
  8
0
 62
     0
100
AcDbMText
 10
7022.221439921104
 20
679.6507595608714
 30
0.0
 40
10.0
 41
0.0
 46
0.0
 71
     5
 72
     1
  1
499
 73
     1
 44
1.0
  0
POINT
  5
BCF
330
A9A
100
AcDbEntity
  8
Defpoints
 62
     0
100
AcDbPoint
 10
6772.721439921102
 20
843.2743654145015
 30
0.0
  0
POINT
  5
BD0
330
A9A
100
AcDbEntity
  8
Defpoints
 62
     0
100
AcDbPoint
 10
7271.721439921103
 20
843.2743654145015
 30
0.0
  0
POINT
  5
BD1
330
A9A
100
AcDbEntity
  8
Defpoints
 62
     0
100
AcDbPoint
 10
7271.721439921103
 20
674.0257595608714
 30
0.0
  0
ENDBLK
  5
AA5
330
A9A
100
AcDbEntity
  8
0
 62
     3
100
AcDbBlockEnd
  0
BLOCK
  5
AB0
330
AA6
100
AcDbEntity
  8
0
 62
     3
100
AcDbBlockBegin
  2
*D63
 70
     1
 10
0.0
 20
0.0
 30
0.0
  3
*D63
  1

  0
LINE
  5
BF6
330
AA6
100
AcDbEntity
  8
0
 62
     0
370
    -2
100
AcDbLine
 10
7169.846439921103
 20
740.7743654145017
 30
0.0
 11
7362.278667366492
 21
740.7743654145017
 31
0.0
  0
LINE
  5
BF7
330
AA6
100
AcDbEntity
  8
0
 62
     0
370
    -2
100
AcDbLine
 10
7169.846439921103
 20
1239.774365414502
 30
0.0
 11
7362.278667366492
 21
1239.774365414502
 31
0.0
  0
LINE
  5
BF8
330
AA6
100
AcDbEntity
  8
0
 62
     0
370
    -2
100
AcDbLine
 10
7361.028667366493
 20
743.274365414502
 30
0.0
 11
7361.028667366493
 21
1237.274365414502
 31
0.0
  0
SOLID
  5
BF9
330
AA6
100
AcDbEntity
  8
0
 62
     0
100
AcDbTrace
 10
7360.612000699825
 20
743.274365414502
 30
0.0
 11
7361.44533403316
 21
743.274365414502
 31
0.0
 12
7361.028667366493
 22
740.7743654145017
 32
0.0
 13
7361.028667366493
 23
740.7743654145017
 33
0.0
  0
SOLID
  5
BFA
330
AA6
100
AcDbEntity
  8
0
 62
     0
100
AcDbTrace
 10
7360.612000699825
 20
1237.274365414502
 30
0.0
 11
7361.44533403316
 21
1237.274365414502
 31
0.0
 12
7361.028667366493
 22
1239.774365414502
 32
0.0
 13
7361.028667366493
 23
1239.774365414502
 33
0.0
  0
MTEXT
  5
BFB
330
AA6
100
AcDbEntity
  8
0
 62
     0
100
AcDbMText
 10
7355.403667366491
 20
990.2743654145032
 30
0.0
 40
10.0
 41
0.0
 46
0.0
 71
     5
 72
     1
  1
499
 11
0.0000000000000001
 21
1.0
 31
0.0
 73
     1
 44
1.0
  0
POINT
  5
BFC
330
AA6
100
AcDbEntity
  8
Defpoints
 62
     0
100
AcDbPoint
 10
7169.221439921102
 20
740.7743654145017
 30
0.0
  0
POINT
  5
BFD
330
AA6
100
AcDbEntity
  8
Defpoints
 62
     0
100
AcDbPoint
 10
7169.221439921102
 20
1239.774365414502
 30
0.0
  0
POINT
  5
BFE
330
AA6
100
AcDbEntity
  8
Defpoints
 62
     0
100
AcDbPoint
 10
7361.028667366493
 20
1239.774365414502
 30
0.0
  0
ENDBLK
  5
AB1
330
AA6
100
AcDbEntity
  8
0
 62
     3
100
AcDbBlockEnd
  0
BLOCK
  5
C1C
330
C1B
100
AcDbEntity
  8
0
 62
     3
100
AcDbBlockBegin
  2
*D64
 70
     1
 10
0.0
 20
0.0
 30
0.0
  3
*D64
  1

  0
LINE
  5
C1D
330
C1B
100
AcDbEntity
  8
0
 62
     0
370
    -2
100
AcDbLine
 10
6240.668046307099
 20
959.7677641100814
 30
0.0
 11
6240.668046307099
 21
976.1658780013503
 31
0.0
  0
LINE
  5
C1E
330
C1B
100
AcDbEntity
  8
0
 62
     0
370
    -2
100
AcDbLine
 10
6555.668046307101
 20
959.7677641100814
 30
0.0
 11
6555.668046307101
 21
976.1658780013503
 31
0.0
  0
LINE
  5
C1F
330
C1B
100
AcDbEntity
  8
0
 62
     0
370
    -2
100
AcDbLine
 10
6243.1680463071
 20
974.9158780013503
 30
0.0
 11
6553.168046307098
 21
974.9158780013503
 31
0.0
  0
SOLID
  5
C20
330
C1B
100
AcDbEntity
  8
0
 62
     0
100
AcDbTrace
 10
6243.1680463071
 20
975.332544668017
 30
0.0
 11
6243.1680463071
 21
974.4992113346837
 31
0.0
 12
6240.668046307099
 22
974.9158780013503
 32
0.0
 13
6240.668046307099
 23
974.9158780013503
 33
0.0
  0
SOLID
  5
C21
330
C1B
100
AcDbEntity
  8
0
 62
     0
100
AcDbTrace
 10
6553.168046307098
 20
975.332544668017
 30
0.0
 11
6553.168046307098
 21
974.4992113346837
 31
0.0
 12
6555.668046307101
 22
974.9158780013503
 32
0.0
 13
6555.668046307101
 23
974.9158780013503
 33
0.0
  0
MTEXT
  5
C22
330
C1B
100
AcDbEntity
  8
0
 62
     0
100
AcDbMText
 10
6398.168046307098
 20
980.5408780013504
 30
0.0
 40
10.0
 41
0.0
 46
0.0
 71
     5
 72
     1
  1
315
 73
     1
 44
1.0
  0
POINT
  5
C23
330
C1B
100
AcDbEntity
  8
Defpoints
 62
     0
100
AcDbPoint
 10
6240.668046307099
 20
959.1427641100812
 30
0.0
  0
POINT
  5
C24
330
C1B
100
AcDbEntity
  8
Defpoints
 62
     0
100
AcDbPoint
 10
6555.668046307101
 20
959.1427641100812
 30
0.0
  0
POINT
  5
C25
330
C1B
100
AcDbEntity
  8
Defpoints
 62
     0
100
AcDbPoint
 10
6555.668046307101
 20
974.9158780013503
 30
0.0
  0
ENDBLK
  5
C26
330
C1B
100
AcDbEntity
  8
0
 62
     3
100
AcDbBlockEnd
  0
BLOCK
  5
C28
330
C27
100
AcDbEntity
  8
0
 62
     3
100
AcDbBlockBegin
  2
*D65
 70
     1
 10
0.0
 20
0.0
 30
0.0
  3
*D65
  1

  0
LINE
  5
C29
330
C27
100
AcDbEntity
  8
0
 62
     0
370
    -2
100
AcDbLine
 10
6491.329991313759
 20
1116.642764110081
 30
0.0
 11
6489.161613320399
 21
1116.642764110081
 31
0.0
  0
LINE
  5
C2A
330
C27
100
AcDbEntity
  8
0
 62
     0
370
    -2
100
AcDbLine
 10
6491.329991313759
 20
801.6427641100811
 30
0.0
 11
6489.161613320399
 21
801.6427641100811
 31
0.0
  0
LINE
  5
C2B
330
C27
100
AcDbEntity
  8
0
 62
     0
370
    -2
100
AcDbLine
 10
6490.411613320398
 20
1114.142764110081
 30
0.0
 11
6490.411613320398
 21
804.1427641100812
 31
0.0
  0
SOLID
  5
C2C
330
C27
100
AcDbEntity
  8
0
 62
     0
100
AcDbTrace
 10
6489.994946653732
 20
1114.142764110081
 30
0.0
 11
6490.828279987066
 21
1114.142764110081
 31
0.0
 12
6490.411613320398
 22
1116.642764110081
 32
0.0
 13
6490.411613320398
 23
1116.642764110081
 33
0.0
  0
SOLID
  5
C2D
330
C27
100
AcDbEntity
  8
0
 62
     0
100
AcDbTrace
 10
6489.994946653732
 20
804.1427641100812
 30
0.0
 11
6490.828279987066
 21
804.1427641100812
 31
0.0
 12
6490.411613320398
 22
801.6427641100811
 32
0.0
 13
6490.411613320398
 23
801.6427641100811
 33
0.0
  0
MTEXT
  5
C2E
330
C27
100
AcDbEntity
  8
0
 62
     0
100
AcDbMText
 10
6484.786613320399
 20
959.1427641100825
 30
0.0
 40
10.0
 41
0.0
 46
0.0
 71
     5
 72
     1
  1
315
 11
0.0000000000000001
 21
1.0
 31
0.0
 73
     1
 44
1.0
  0
POINT
  5
C2F
330
C27
100
AcDbEntity
  8
Defpoints
 62
     0
100
AcDbPoint
 10
6491.954991313758
 20
1116.642764110081
 30
0.0
  0
POINT
  5
C30
330
C27
100
AcDbEntity
  8
Defpoints
 62
     0
100
AcDbPoint
 10
6491.954991313758
 20
801.6427641100811
 30
0.0
  0
POINT
  5
C31
330
C27
100
AcDbEntity
  8
Defpoints
 62
     0
100
AcDbPoint
 10
6490.411613320398
 20
801.6427641100811
 30
0.0
  0
ENDBLK
  5
C32
330
C27
100
AcDbEntity
  8
0
 62
     3
100
AcDbBlockEnd
  0
BLOCK
  5
C34
330
C33
100
AcDbEntity
  8
0
 62
     3
100
AcDbBlockBegin
  2
*D66
 70
     1
 10
0.0
 20
0.0
 30
0.0
  3
*D66
  1

  0
LINE
  5
C35
330
C33
100
AcDbEntity
  8
0
 62
     0
370
    -2
100
AcDbLine
 10
6555.668046307101
 20
1041.490783332735
 30
0.0
 11
6555.668046307101
 21
1030.069423777105
 31
0.0
  0
LINE
  5
C36
330
C33
100
AcDbEntity
  8
0
 62
     0
370
    -2
100
AcDbLine
 10
6725.668046307099
 20
1043.301546125165
 30
0.0
 11
6725.668046307099
 21
1030.069423777105
 31
0.0
  0
LINE
  5
C37
330
C33
100
AcDbEntity
  8
0
 62
     0
370
    -2
100
AcDbLine
 10
6558.168046307099
 20
1031.319423777106
 30
0.0
 11
6723.168046307098
 21
1031.319423777106
 31
0.0
  0
SOLID
  5
C38
330
C33
100
AcDbEntity
  8
0
 62
     0
100
AcDbTrace
 10
6558.168046307099
 20
1031.736090443772
 30
0.0
 11
6558.168046307099
 21
1030.902757110439
 31
0.0
 12
6555.668046307101
 22
1031.319423777106
 32
0.0
 13
6555.668046307101
 23
1031.319423777106
 33
0.0
  0
SOLID
  5
C39
330
C33
100
AcDbEntity
  8
0
 62
     0
100
AcDbTrace
 10
6723.168046307098
 20
1031.736090443772
 30
0.0
 11
6723.168046307098
 21
1030.902757110439
 31
0.0
 12
6725.668046307099
 22
1031.319423777106
 32
0.0
 13
6725.668046307099
 23
1031.319423777106
 33
0.0
  0
MTEXT
  5
C3A
330
C33
100
AcDbEntity
  8
0
 62
     0
100
AcDbMText
 10
6640.668046307098
 20
1036.944423777106
 30
0.0
 40
10.0
 41
0.0
 46
0.0
 71
     5
 72
     1
  1
170
 73
     1
 44
1.0
  0
POINT
  5
C3B
330
C33
100
AcDbEntity
  8
Defpoints
 62
     0
100
AcDbPoint
 10
6555.668046307101
 20
1042.115783332735
 30
0.0
  0
POINT
  5
C3C
330
C33
100
AcDbEntity
  8
Defpoints
 62
     0
100
AcDbPoint
 10
6725.668046307099
 20
1043.926546125165
 30
0.0
  0
POINT
  5
C3D
330
C33
100
AcDbEntity
  8
Defpoints
 62
     0
100
AcDbPoint
 10
6725.668046307099
 20
1031.319423777106
 30
0.0
  0
ENDBLK
  5
C3E
330
C33
100
AcDbEntity
  8
0
 62
     3
100
AcDbBlockEnd
  0
BLOCK
  5
C40
330
C3F
100
AcDbEntity
  8
0
 62
     3
100
AcDbBlockBegin
  2
*D67
 70
     1
 10
0.0
 20
0.0
 30
0.0
  3
*D67
  1

  0
LINE
  5
C41
330
C3F
100
AcDbEntity
  8
0
 62
     0
370
    -2
100
AcDbLine
 10
6070.668046307098
 20
716.0177641100812
 30
0.0
 11
6070.668046307098
 21
585.2362863730308
 31
0.0
  0
LINE
  5
C42
330
C3F
100
AcDbEntity
  8
0
 62
     0
370
    -2
100
AcDbLine
 10
6725.668046307099
 20
716.0177641100812
 30
0.0
 11
6725.668046307099
 21
585.2362863730308
 31
0.0
  0
LINE
  5
C43
330
C3F
100
AcDbEntity
  8
0
 62
     0
370
    -2
100
AcDbLine
 10
6073.168046307098
 20
586.4862863730309
 30
0.0
 11
6723.168046307098
 21
586.4862863730309
 31
0.0
  0
SOLID
  5
C44
330
C3F
100
AcDbEntity
  8
0
 62
     0
100
AcDbTrace
 10
6073.168046307098
 20
586.9029530396975
 30
0.0
 11
6073.168046307098
 21
586.0696197063641
 31
0.0
 12
6070.668046307098
 22
586.4862863730309
 32
0.0
 13
6070.668046307098
 23
586.4862863730309
 33
0.0
  0
SOLID
  5
C45
330
C3F
100
AcDbEntity
  8
0
 62
     0
100
AcDbTrace
 10
6723.168046307098
 20
586.9029530396975
 30
0.0
 11
6723.168046307098
 21
586.0696197063641
 31
0.0
 12
6725.668046307099
 22
586.4862863730309
 32
0.0
 13
6725.668046307099
 23
586.4862863730309
 33
0.0
  0
MTEXT
  5
C46
330
C3F
100
AcDbEntity
  8
0
 62
     0
100
AcDbMText
 10
6398.168046307098
 20
592.1112863730309
 30
0.0
 40
10.0
 41
0.0
 46
0.0
 71
     5
 72
     1
  1
655
 73
     1
 44
1.0
  0
POINT
  5
C47
330
C3F
100
AcDbEntity
  8
Defpoints
 62
     0
100
AcDbPoint
 10
6070.668046307098
 20
716.6427641100812
 30
0.0
  0
POINT
  5
C48
330
C3F
100
AcDbEntity
  8
Defpoints
 62
     0
100
AcDbPoint
 10
6725.668046307099
 20
716.6427641100812
 30
0.0
  0
POINT
  5
C49
330
C3F
100
AcDbEntity
  8
Defpoints
 62
     0
100
AcDbPoint
 10
6725.668046307099
 20
586.4862863730309
 30
0.0
  0
ENDBLK
  5
C4A
330
C3F
100
AcDbEntity
  8
0
 62
     3
100
AcDbBlockEnd
  0
BLOCK
  5
C4C
330
C4B
100
AcDbEntity
  8
0
 62
     3
100
AcDbBlockBegin
  2
*D68
 70
     1
 10
0.0
 20
0.0
 30
0.0
  3
*D68
  1

  0
LINE
  5
C4D
330
C4B
100
AcDbEntity
  8
0
 62
     0
370
    -2
100
AcDbLine
 10
6240.0430463071
 20
631.6427641100812
 30
0.0
 11
5976.474999487447
 21
631.6427641100812
 31
0.0
  0
LINE
  5
C4E
330
C4B
100
AcDbEntity
  8
0
 62
     0
370
    -2
100
AcDbLine
 10
6240.0430463071
 20
1286.642764110081
 30
0.0
 11
5976.474999487447
 21
1286.642764110081
 31
0.0
  0
LINE
  5
C4F
330
C4B
100
AcDbEntity
  8
0
 62
     0
370
    -2
100
AcDbLine
 10
5977.724999487447
 20
634.1427641100811
 30
0.0
 11
5977.724999487447
 21
1284.142764110081
 31
0.0
  0
SOLID
  5
C50
330
C4B
100
AcDbEntity
  8
0
 62
     0
100
AcDbTrace
 10
5977.308332820781
 20
634.1427641100811
 30
0.0
 11
5978.141666154115
 21
634.1427641100811
 31
0.0
 12
5977.724999487447
 22
631.6427641100812
 32
0.0
 13
5977.724999487447
 23
631.6427641100812
 33
0.0
  0
SOLID
  5
C51
330
C4B
100
AcDbEntity
  8
0
 62
     0
100
AcDbTrace
 10
5977.308332820781
 20
1284.142764110081
 30
0.0
 11
5978.141666154115
 21
1284.142764110081
 31
0.0
 12
5977.724999487447
 22
1286.642764110081
 32
0.0
 13
5977.724999487447
 23
1286.642764110081
 33
0.0
  0
MTEXT
  5
C52
330
C4B
100
AcDbEntity
  8
0
 62
     0
100
AcDbMText
 10
5972.099999487447
 20
959.1427641100825
 30
0.0
 40
10.0
 41
0.0
 46
0.0
 71
     5
 72
     1
  1
655
 11
0.0000000000000001
 21
1.0
 31
0.0
 73
     1
 44
1.0
  0
POINT
  5
C53
330
C4B
100
AcDbEntity
  8
Defpoints
 62
     0
100
AcDbPoint
 10
6240.668046307099
 20
631.6427641100812
 30
0.0
  0
POINT
  5
C54
330
C4B
100
AcDbEntity
  8
Defpoints
 62
     0
100
AcDbPoint
 10
6240.668046307099
 20
1286.642764110081
 30
0.0
  0
POINT
  5
C55
330
C4B
100
AcDbEntity
  8
Defpoints
 62
     0
100
AcDbPoint
 10
5977.724999487447
 20
1286.642764110081
 30
0.0
  0
ENDBLK
  5
C56
330
C4B
100
AcDbEntity
  8
0
 62
     3
100
AcDbBlockEnd
  0
BLOCK
  5
C58
330
C57
100
AcDbEntity
  8
0
 62
     3
100
AcDbBlockBegin
  2
*D69
 70
     1
 10
0.0
 20
0.0
 30
0.0
  3
*D69
  1

  0
LINE
  5
C59
330
C57
100
AcDbEntity
  8
0
 62
     0
370
    -2
100
AcDbLine
 10
6861.721439921102
 20
971.7559239078644
 30
0.0
 11
6861.721439921102
 21
972.3809239078644
 31
0.0
  0
LINE
  5
C5A
330
C57
100
AcDbEntity
  8
0
 62
     0
370
    -2
100
AcDbLine
 10
7182.721439921103
 20
971.7559239078644
 30
0.0
 11
7182.721439921103
 21
972.3809239078644
 31
0.0
  0
LINE
  5
C5B
330
C57
100
AcDbEntity
  8
0
 62
     0
370
    -2
100
AcDbLine
 10
6864.221439921102
 20
971.1309239078643
 30
0.0
 11
7180.221439921102
 21
971.1309239078643
 31
0.0
  0
SOLID
  5
C5C
330
C57
100
AcDbEntity
  8
0
 62
     0
100
AcDbTrace
 10
6864.221439921102
 20
971.5475905745307
 30
0.0
 11
6864.221439921102
 21
970.7142572411978
 31
0.0
 12
6861.721439921102
 22
971.1309239078643
 32
0.0
 13
6861.721439921102
 23
971.1309239078643
 33
0.0
  0
SOLID
  5
C5D
330
C57
100
AcDbEntity
  8
0
 62
     0
100
AcDbTrace
 10
7180.221439921102
 20
971.5475905745307
 30
0.0
 11
7180.221439921102
 21
970.7142572411978
 31
0.0
 12
7182.721439921103
 22
971.1309239078643
 32
0.0
 13
7182.721439921103
 23
971.1309239078643
 33
0.0
  0
MTEXT
  5
C5E
330
C57
100
AcDbEntity
  8
0
 62
     0
100
AcDbMText
 10
7022.221439921104
 20
976.7559239078643
 30
0.0
 40
10.0
 41
0.0
 46
0.0
 71
     5
 72
     1
  1
321
 73
     1
 44
1.0
  0
POINT
  5
C5F
330
C57
100
AcDbEntity
  8
Defpoints
 62
     0
100
AcDbPoint
 10
6861.721439921102
 20
971.1309239078643
 30
0.0
  0
POINT
  5
C60
330
C57
100
AcDbEntity
  8
Defpoints
 62
     0
100
AcDbPoint
 10
7182.721439921103
 20
971.1309239078643
 30
0.0
  0
POINT
  5
C61
330
C57
100
AcDbEntity
  8
Defpoints
 62
     0
100
AcDbPoint
 10
7182.721439921103
 20
971.1309239078643
 30
0.0
  0
ENDBLK
  5
C62
330
C57
100
AcDbEntity
  8
0
 62
     3
100
AcDbBlockEnd
  0
BLOCK
  5
C64
330
C63
100
AcDbEntity
  8
0
 62
     3
100
AcDbBlockBegin
  2
*D70
 70
     1
 10
0.0
 20
0.0
 30
0.0
  3
*D70
  1

  0
LINE
  5
C65
330
C63
100
AcDbEntity
  8
0
 62
     0
370
    -2
100
AcDbLine
 10
7126.378535100491
 20
1150.774365414501
 30
0.0
 11
7136.213594129734
 21
1150.774365414501
 31
0.0
  0
LINE
  5
C66
330
C63
100
AcDbEntity
  8
0
 62
     0
370
    -2
100
AcDbLine
 10
7126.378535100491
 20
829.7743654145017
 30
0.0
 11
7136.213594129734
 21
829.7743654145017
 31
0.0
  0
LINE
  5
C67
330
C63
100
AcDbEntity
  8
0
 62
     0
370
    -2
100
AcDbLine
 10
7134.963594129733
 20
1148.274365414501
 30
0.0
 11
7134.963594129733
 21
832.2743654145018
 31
0.0
  0
SOLID
  5
C68
330
C63
100
AcDbEntity
  8
0
 62
     0
100
AcDbTrace
 10
7134.546927463067
 20
1148.274365414501
 30
0.0
 11
7135.380260796401
 21
1148.274365414501
 31
0.0
 12
7134.963594129733
 22
1150.774365414501
 32
0.0
 13
7134.963594129733
 23
1150.774365414501
 33
0.0
  0
SOLID
  5
C69
330
C63
100
AcDbEntity
  8
0
 62
     0
100
AcDbTrace
 10
7134.546927463067
 20
832.2743654145018
 30
0.0
 11
7135.380260796401
 21
832.2743654145018
 31
0.0
 12
7134.963594129733
 22
829.7743654145017
 32
0.0
 13
7134.963594129733
 23
829.7743654145017
 33
0.0
  0
MTEXT
  5
C6A
330
C63
100
AcDbEntity
  8
0
 62
     0
100
AcDbMText
 10
7129.338594129734
 20
990.2743654145027
 30
0.0
 40
10.0
 41
0.0
 46
0.0
 71
     5
 72
     1
  1
321
 11
0.0000000000000001
 21
1.0
 31
0.0
 73
     1
 44
1.0
  0
POINT
  5
C6B
330
C63
100
AcDbEntity
  8
Defpoints
 62
     0
100
AcDbPoint
 10
7125.75353510049
 20
1150.774365414501
 30
0.0
  0
POINT
  5
C6C
330
C63
100
AcDbEntity
  8
Defpoints
 62
     0
100
AcDbPoint
 10
7125.75353510049
 20
829.7743654145017
 30
0.0
  0
POINT
  5
C6D
330
C63
100
AcDbEntity
  8
Defpoints
 62
     0
100
AcDbPoint
 10
7134.963594129733
 20
829.7743654145017
 30
0.0
  0
ENDBLK
  5
C6E
330
C63
100
AcDbEntity
  8
0
 62
     3
100
AcDbBlockEnd
  0
BLOCK
  5
C70
330
C6F
100
AcDbEntity
  8
0
 62
     3
100
AcDbBlockBegin
  2
*D71
 70
     1
 10
0.0
 20
0.0
 30
0.0
  3
*D71
  1

  0
LINE
  5
C71
330
C6F
100
AcDbEntity
  8
0
 62
     0
370
    -2
100
AcDbLine
 10
7182.721439921103
 20
917.1878725149408
 30
0.0
 11
7182.721439921103
 21
917.8128725149408
 31
0.0
  0
LINE
  5
C72
330
C6F
100
AcDbEntity
  8
0
 62
     0
370
    -2
100
AcDbLine
 10
7220.721439921104
 20
917.1878725149408
 30
0.0
 11
7220.721439921104
 21
917.8128725149408
 31
0.0
  0
LINE
  5
C73
330
C6F
100
AcDbEntity
  8
0
 62
     0
370
    -2
100
AcDbLine
 10
7185.221439921102
 20
916.5628725149407
 30
0.0
 11
7218.221439921101
 21
916.5628725149407
 31
0.0
  0
SOLID
  5
C74
330
C6F
100
AcDbEntity
  8
0
 62
     0
100
AcDbTrace
 10
7185.221439921102
 20
916.9795391816071
 30
0.0
 11
7185.221439921102
 21
916.1462058482738
 31
0.0
 12
7182.721439921103
 22
916.5628725149407
 32
0.0
 13
7182.721439921103
 23
916.5628725149407
 33
0.0
  0
SOLID
  5
C75
330
C6F
100
AcDbEntity
  8
0
 62
     0
100
AcDbTrace
 10
7218.221439921101
 20
916.9795391816071
 30
0.0
 11
7218.221439921101
 21
916.1462058482738
 31
0.0
 12
7220.721439921104
 22
916.5628725149407
 32
0.0
 13
7220.721439921104
 23
916.5628725149407
 33
0.0
  0
MTEXT
  5
C76
330
C6F
100
AcDbEntity
  8
0
 62
     0
100
AcDbMText
 10
7201.721439921104
 20
922.1878725149407
 30
0.0
 40
10.0
 41
0.0
 46
0.0
 71
     5
 72
     1
  1
38
 73
     1
 44
1.0
  0
POINT
  5
C77
330
C6F
100
AcDbEntity
  8
Defpoints
 62
     0
100
AcDbPoint
 10
7182.721439921103
 20
916.5628725149407
 30
0.0
  0
POINT
  5
C78
330
C6F
100
AcDbEntity
  8
Defpoints
 62
     0
100
AcDbPoint
 10
7220.721439921104
 20
916.5628725149407
 30
0.0
  0
POINT
  5
C79
330
C6F
100
AcDbEntity
  8
Defpoints
 62
     0
100
AcDbPoint
 10
7220.721439921104
 20
916.5628725149407
 30
0.0
  0
ENDBLK
  5
C7A
330
C6F
100
AcDbEntity
  8
0
 62
     3
100
AcDbBlockEnd
  0
BLOCK
  5
C7C
330
C7B
100
AcDbEntity
  8
0
 62
     3
100
AcDbBlockBegin
  2
*D72
 70
     1
 10
0.0
 20
0.0
 30
0.0
  3
*D72
  1

  0
LINE
  5
C7D
330
C7B
100
AcDbEntity
  8
0
 62
     0
370
    -2
100
AcDbLine
 10
6772.721439921102
 20
842.6493654145016
 30
0.0
 11
6772.721439921102
 21
672.7757595608713
 31
0.0
  0
LINE
  5
C7E
330
C7B
100
AcDbEntity
  8
0
 62
     0
370
    -2
100
AcDbLine
 10
7271.721439921103
 20
842.6493654145016
 30
0.0
 11
7271.721439921103
 21
672.7757595608713
 31
0.0
  0
LINE
  5
C7F
330
C7B
100
AcDbEntity
  8
0
 62
     0
370
    -2
100
AcDbLine
 10
6775.221439921104
 20
674.0257595608714
 30
0.0
 11
7269.221439921103
 21
674.0257595608714
 31
0.0
  0
SOLID
  5
C80
330
C7B
100
AcDbEntity
  8
0
 62
     0
100
AcDbTrace
 10
6775.221439921104
 20
674.442426227538
 30
0.0
 11
6775.221439921104
 21
673.6090928942047
 31
0.0
 12
6772.721439921102
 22
674.0257595608714
 32
0.0
 13
6772.721439921102
 23
674.0257595608714
 33
0.0
  0
SOLID
  5
C81
330
C7B
100
AcDbEntity
  8
0
 62
     0
100
AcDbTrace
 10
7269.221439921103
 20
674.442426227538
 30
0.0
 11
7269.221439921103
 21
673.6090928942047
 31
0.0
 12
7271.721439921103
 22
674.0257595608714
 32
0.0
 13
7271.721439921103
 23
674.0257595608714
 33
0.0
  0
MTEXT
  5
C82
330
C7B
100
AcDbEntity
  8
0
 62
     0
100
AcDbMText
 10
7022.221439921104
 20
679.6507595608714
 30
0.0
 40
10.0
 41
0.0
 46
0.0
 71
     5
 72
     1
  1
499
 73
     1
 44
1.0
  0
POINT
  5
C83
330
C7B
100
AcDbEntity
  8
Defpoints
 62
     0
100
AcDbPoint
 10
6772.721439921102
 20
843.2743654145015
 30
0.0
  0
POINT
  5
C84
330
C7B
100
AcDbEntity
  8
Defpoints
 62
     0
100
AcDbPoint
 10
7271.721439921103
 20
843.2743654145015
 30
0.0
  0
POINT
  5
C85
330
C7B
100
AcDbEntity
  8
Defpoints
 62
     0
100
AcDbPoint
 10
7271.721439921103
 20
674.0257595608714
 30
0.0
  0
ENDBLK
  5
C86
330
C7B
100
AcDbEntity
  8
0
 62
     3
100
AcDbBlockEnd
  0
BLOCK
  5
C88
330
C87
100
AcDbEntity
  8
0
 62
     3
100
AcDbBlockBegin
  2
*D73
 70
     1
 10
0.0
 20
0.0
 30
0.0
  3
*D73
  1

  0
LINE
  5
C89
330
C87
100
AcDbEntity
  8
0
 62
     0
370
    -2
100
AcDbLine
 10
7169.846439921103
 20
740.7743654145017
 30
0.0
 11
7362.278667366492
 21
740.7743654145017
 31
0.0
  0
LINE
  5
C8A
330
C87
100
AcDbEntity
  8
0
 62
     0
370
    -2
100
AcDbLine
 10
7169.846439921103
 20
1239.774365414502
 30
0.0
 11
7362.278667366492
 21
1239.774365414502
 31
0.0
  0
LINE
  5
C8B
330
C87
100
AcDbEntity
  8
0
 62
     0
370
    -2
100
AcDbLine
 10
7361.028667366493
 20
743.274365414502
 30
0.0
 11
7361.028667366493
 21
1237.274365414502
 31
0.0
  0
SOLID
  5
C8C
330
C87
100
AcDbEntity
  8
0
 62
     0
100
AcDbTrace
 10
7360.612000699825
 20
743.274365414502
 30
0.0
 11
7361.44533403316
 21
743.274365414502
 31
0.0
 12
7361.028667366493
 22
740.7743654145017
 32
0.0
 13
7361.028667366493
 23
740.7743654145017
 33
0.0
  0
SOLID
  5
C8D
330
C87
100
AcDbEntity
  8
0
 62
     0
100
AcDbTrace
 10
7360.612000699825
 20
1237.274365414502
 30
0.0
 11
7361.44533403316
 21
1237.274365414502
 31
0.0
 12
7361.028667366493
 22
1239.774365414502
 32
0.0
 13
7361.028667366493
 23
1239.774365414502
 33
0.0
  0
MTEXT
  5
C8E
330
C87
100
AcDbEntity
  8
0
 62
     0
100
AcDbMText
 10
7355.403667366491
 20
990.2743654145032
 30
0.0
 40
10.0
 41
0.0
 46
0.0
 71
     5
 72
     1
  1
499
 11
0.0000000000000001
 21
1.0
 31
0.0
 73
     1
 44
1.0
  0
POINT
  5
C8F
330
C87
100
AcDbEntity
  8
Defpoints
 62
     0
100
AcDbPoint
 10
7169.221439921102
 20
740.7743654145017
 30
0.0
  0
POINT
  5
C90
330
C87
100
AcDbEntity
  8
Defpoints
 62
     0
100
AcDbPoint
 10
7169.221439921102
 20
1239.774365414502
 30
0.0
  0
POINT
  5
C91
330
C87
100
AcDbEntity
  8
Defpoints
 62
     0
100
AcDbPoint
 10
7361.028667366493
 20
1239.774365414502
 30
0.0
  0
ENDBLK
  5
C92
330
C87
100
AcDbEntity
  8
0
 62
     3
100
AcDbBlockEnd
  0
BLOCK
  5
DCB
330
DC1
100
AcDbEntity
  8
0
 62
     3
100
AcDbBlockBegin
  2
*D74
 70
     1
 10
0.0
 20
0.0
 30
0.0
  3
*D74
  1

  0
LINE
  5
F3E
330
DC1
100
AcDbEntity
  8
0
 62
     0
370
    -2
100
AcDbLine
 10
8084.067847562458
 20
958.2372530883054
 30
0.0
 11
8084.067847562458
 21
974.6353669795745
 31
0.0
  0
LINE
  5
F3F
330
DC1
100
AcDbEntity
  8
0
 62
     0
370
    -2
100
AcDbLine
 10
8424.06784756246
 20
958.2372530883054
 30
0.0
 11
8424.06784756246
 21
974.6353669795745
 31
0.0
  0
LINE
  5
F40
330
DC1
100
AcDbEntity
  8
0
 62
     0
370
    -2
100
AcDbLine
 10
8086.567847562458
 20
973.3853669795744
 30
0.0
 11
8421.567847562458
 21
973.3853669795744
 31
0.0
  0
SOLID
  5
F41
330
DC1
100
AcDbEntity
  8
0
 62
     0
100
AcDbTrace
 10
8086.567847562458
 20
973.802033646241
 30
0.0
 11
8086.567847562458
 21
972.9687003129075
 31
0.0
 12
8084.067847562458
 22
973.3853669795744
 32
0.0
 13
8084.067847562458
 23
973.3853669795744
 33
0.0
  0
SOLID
  5
F42
330
DC1
100
AcDbEntity
  8
0
 62
     0
100
AcDbTrace
 10
8421.567847562458
 20
973.802033646241
 30
0.0
 11
8421.567847562458
 21
972.9687003129075
 31
0.0
 12
8424.06784756246
 22
973.3853669795744
 32
0.0
 13
8424.06784756246
 23
973.3853669795744
 33
0.0
  0
MTEXT
  5
F43
330
DC1
100
AcDbEntity
  8
0
 62
     0
100
AcDbMText
 10
8254.067847562458
 20
979.0103669795744
 30
0.0
 40
10.0
 41
0.0
 46
0.0
 71
     5
 72
     1
  1
340
 73
     1
 44
1.0
  0
POINT
  5
F44
330
DC1
100
AcDbEntity
  8
Defpoints
 62
     0
100
AcDbPoint
 10
8084.067847562458
 20
957.6122530883052
 30
0.0
  0
POINT
  5
F45
330
DC1
100
AcDbEntity
  8
Defpoints
 62
     0
100
AcDbPoint
 10
8424.06784756246
 20
957.6122530883052
 30
0.0
  0
POINT
  5
F46
330
DC1
100
AcDbEntity
  8
Defpoints
 62
     0
100
AcDbPoint
 10
8424.06784756246
 20
973.3853669795744
 30
0.0
  0
ENDBLK
  5
DCC
330
DC1
100
AcDbEntity
  8
0
 62
     3
100
AcDbBlockEnd
  0
BLOCK
  5
DD7
330
DCD
100
AcDbEntity
  8
0
 62
     3
100
AcDbBlockBegin
  2
*D75
 70
     1
 10
0.0
 20
0.0
 30
0.0
  3
*D75
  1

  0
LINE
  5
F47
330
DCD
100
AcDbEntity
  8
0
 62
     0
370
    -2
100
AcDbLine
 10
8354.673200902981
 20
1127.612253088305
 30
0.0
 11
8352.504822909621
 21
1127.612253088305
 31
0.0
  0
LINE
  5
F48
330
DCD
100
AcDbEntity
  8
0
 62
     0
370
    -2
100
AcDbLine
 10
8354.673200902981
 20
787.6122530883052
 30
0.0
 11
8352.504822909621
 21
787.6122530883052
 31
0.0
  0
LINE
  5
F49
330
DCD
100
AcDbEntity
  8
0
 62
     0
370
    -2
100
AcDbLine
 10
8353.754822909619
 20
1125.112253088305
 30
0.0
 11
8353.754822909619
 21
790.1122530883052
 31
0.0
  0
SOLID
  5
F4A
330
DCD
100
AcDbEntity
  8
0
 62
     0
100
AcDbTrace
 10
8353.338156242953
 20
1125.112253088305
 30
0.0
 11
8354.171489576286
 21
1125.112253088305
 31
0.0
 12
8353.754822909619
 22
1127.612253088305
 32
0.0
 13
8353.754822909619
 23
1127.612253088305
 33
0.0
  0
SOLID
  5
F4B
330
DCD
100
AcDbEntity
  8
0
 62
     0
100
AcDbTrace
 10
8353.338156242953
 20
790.1122530883052
 30
0.0
 11
8354.171489576286
 21
790.1122530883052
 31
0.0
 12
8353.754822909619
 22
787.6122530883052
 32
0.0
 13
8353.754822909619
 23
787.6122530883052
 33
0.0
  0
MTEXT
  5
F4C
330
DCD
100
AcDbEntity
  8
0
 62
     0
100
AcDbMText
 10
8348.129822909619
 20
957.6122530883067
 30
0.0
 40
10.0
 41
0.0
 46
0.0
 71
     5
 72
     1
  1
340
 11
0.0000000000000001
 21
1.0
 31
0.0
 73
     1
 44
1.0
  0
POINT
  5
F4D
330
DCD
100
AcDbEntity
  8
Defpoints
 62
     0
100
AcDbPoint
 10
8355.29820090298
 20
1127.612253088305
 30
0.0
  0
POINT
  5
F4E
330
DCD
100
AcDbEntity
  8
Defpoints
 62
     0
100
AcDbPoint
 10
8355.29820090298
 20
787.6122530883052
 30
0.0
  0
POINT
  5
F4F
330
DCD
100
AcDbEntity
  8
Defpoints
 62
     0
100
AcDbPoint
 10
8353.754822909619
 20
787.6122530883052
 30
0.0
  0
ENDBLK
  5
DD8
330
DCD
100
AcDbEntity
  8
0
 62
     3
100
AcDbBlockEnd
  0
BLOCK
  5
DE3
330
DD9
100
AcDbEntity
  8
0
 62
     3
100
AcDbBlockBegin
  2
*D76
 70
     1
 10
0.0
 20
0.0
 30
0.0
  3
*D76
  1

  0
LINE
  5
F2C
330
DD9
100
AcDbEntity
  8
0
 62
     0
370
    -2
100
AcDbLine
 10
8424.06784756246
 20
1046.545432566725
 30
0.0
 11
8424.06784756246
 21
1034.719973589775
 31
0.0
  0
LINE
  5
F2D
330
DD9
100
AcDbEntity
  8
0
 62
     0
370
    -2
100
AcDbLine
 10
8604.067847562459
 20
1046.141333145404
 30
0.0
 11
8604.067847562459
 21
1034.719973589775
 31
0.0
  0
LINE
  5
F2E
330
DD9
100
AcDbEntity
  8
0
 62
     0
370
    -2
100
AcDbLine
 10
8426.567847562459
 20
1035.969973589776
 30
0.0
 11
8601.56784756246
 21
1035.969973589776
 31
0.0
  0
SOLID
  5
F2F
330
DD9
100
AcDbEntity
  8
0
 62
     0
100
AcDbTrace
 10
8426.567847562459
 20
1036.386640256442
 30
0.0
 11
8426.567847562459
 21
1035.553306923109
 31
0.0
 12
8424.06784756246
 22
1035.969973589776
 32
0.0
 13
8424.06784756246
 23
1035.969973589776
 33
0.0
  0
SOLID
  5
F30
330
DD9
100
AcDbEntity
  8
0
 62
     0
100
AcDbTrace
 10
8601.56784756246
 20
1036.386640256442
 30
0.0
 11
8601.56784756246
 21
1035.553306923109
 31
0.0
 12
8604.067847562459
 22
1035.969973589776
 32
0.0
 13
8604.067847562459
 23
1035.969973589776
 33
0.0
  0
MTEXT
  5
F31
330
DD9
100
AcDbEntity
  8
0
 62
     0
100
AcDbMText
 10
8514.06784756246
 20
1041.594973589775
 30
0.0
 40
10.0
 41
0.0
 46
0.0
 71
     5
 72
     1
  1
180
 73
     1
 44
1.0
  0
POINT
  5
F32
330
DD9
100
AcDbEntity
  8
Defpoints
 62
     0
100
AcDbPoint
 10
8424.06784756246
 20
1047.170432566725
 30
0.0
  0
POINT
  5
F33
330
DD9
100
AcDbEntity
  8
Defpoints
 62
     0
100
AcDbPoint
 10
8604.067847562459
 20
1046.766333145404
 30
0.0
  0
POINT
  5
F34
330
DD9
100
AcDbEntity
  8
Defpoints
 62
     0
100
AcDbPoint
 10
8604.067847562459
 20
1035.969973589776
 30
0.0
  0
ENDBLK
  5
DE4
330
DD9
100
AcDbEntity
  8
0
 62
     3
100
AcDbBlockEnd
  0
BLOCK
  5
DEF
330
DE5
100
AcDbEntity
  8
0
 62
     3
100
AcDbBlockBegin
  2
*D77
 70
     1
 10
0.0
 20
0.0
 30
0.0
  3
*D77
  1

  0
LINE
  5
F23
330
DE5
100
AcDbEntity
  8
0
 62
     0
370
    -2
100
AcDbLine
 10
7904.067847562458
 20
701.9872530883052
 30
0.0
 11
7904.067847562458
 21
561.2057753512548
 31
0.0
  0
LINE
  5
F24
330
DE5
100
AcDbEntity
  8
0
 62
     0
370
    -2
100
AcDbLine
 10
8604.067847562459
 20
701.9872530883052
 30
0.0
 11
8604.067847562459
 21
561.2057753512548
 31
0.0
  0
LINE
  5
F25
330
DE5
100
AcDbEntity
  8
0
 62
     0
370
    -2
100
AcDbLine
 10
7906.567847562458
 20
562.4557753512548
 30
0.0
 11
8601.56784756246
 21
562.4557753512548
 31
0.0
  0
SOLID
  5
F26
330
DE5
100
AcDbEntity
  8
0
 62
     0
100
AcDbTrace
 10
7906.567847562458
 20
562.8724420179215
 30
0.0
 11
7906.567847562458
 21
562.0391086845883
 31
0.0
 12
7904.067847562458
 22
562.4557753512548
 32
0.0
 13
7904.067847562458
 23
562.4557753512548
 33
0.0
  0
SOLID
  5
F27
330
DE5
100
AcDbEntity
  8
0
 62
     0
100
AcDbTrace
 10
8601.56784756246
 20
562.8724420179215
 30
0.0
 11
8601.56784756246
 21
562.0391086845883
 31
0.0
 12
8604.067847562459
 22
562.4557753512548
 32
0.0
 13
8604.067847562459
 23
562.4557753512548
 33
0.0
  0
MTEXT
  5
F28
330
DE5
100
AcDbEntity
  8
0
 62
     0
100
AcDbMText
 10
8254.067847562458
 20
568.0807753512547
 30
0.0
 40
10.0
 41
0.0
 46
0.0
 71
     5
 72
     1
  1
700
 73
     1
 44
1.0
  0
POINT
  5
F29
330
DE5
100
AcDbEntity
  8
Defpoints
 62
     0
100
AcDbPoint
 10
7904.067847562458
 20
702.6122530883052
 30
0.0
  0
POINT
  5
F2A
330
DE5
100
AcDbEntity
  8
Defpoints
 62
     0
100
AcDbPoint
 10
8604.067847562459
 20
702.6122530883052
 30
0.0
  0
POINT
  5
F2B
330
DE5
100
AcDbEntity
  8
Defpoints
 62
     0
100
AcDbPoint
 10
8604.067847562459
 20
562.4557753512548
 30
0.0
  0
ENDBLK
  5
DF0
330
DE5
100
AcDbEntity
  8
0
 62
     3
100
AcDbBlockEnd
  0
BLOCK
  5
DFB
330
DF1
100
AcDbEntity
  8
0
 62
     3
100
AcDbBlockBegin
  2
*D78
 70
     1
 10
0.0
 20
0.0
 30
0.0
  3
*D78
  1

  0
LINE
  5
ED2
330
DF1
100
AcDbEntity
  8
0
 62
     0
370
    -2
100
AcDbLine
 10
8083.442847562457
 20
607.6122530883052
 30
0.0
 11
7809.874800742807
 21
607.6122530883052
 31
0.0
  0
LINE
  5
ED3
330
DF1
100
AcDbEntity
  8
0
 62
     0
370
    -2
100
AcDbLine
 10
8083.442847562457
 20
1307.612253088305
 30
0.0
 11
7809.874800742807
 21
1307.612253088305
 31
0.0
  0
LINE
  5
ED4
330
DF1
100
AcDbEntity
  8
0
 62
     0
370
    -2
100
AcDbLine
 10
7811.124800742809
 20
610.1122530883055
 30
0.0
 11
7811.124800742809
 21
1305.112253088305
 31
0.0
  0
SOLID
  5
ED5
330
DF1
100
AcDbEntity
  8
0
 62
     0
100
AcDbTrace
 10
7810.708134076141
 20
610.1122530883055
 30
0.0
 11
7811.541467409475
 21
610.1122530883055
 31
0.0
 12
7811.124800742809
 22
607.6122530883052
 32
0.0
 13
7811.124800742809
 23
607.6122530883052
 33
0.0
  0
SOLID
  5
ED6
330
DF1
100
AcDbEntity
  8
0
 62
     0
100
AcDbTrace
 10
7810.708134076141
 20
1305.112253088305
 30
0.0
 11
7811.541467409475
 21
1305.112253088305
 31
0.0
 12
7811.124800742809
 22
1307.612253088305
 32
0.0
 13
7811.124800742809
 23
1307.612253088305
 33
0.0
  0
MTEXT
  5
ED7
330
DF1
100
AcDbEntity
  8
0
 62
     0
100
AcDbMText
 10
7805.499800742808
 20
957.6122530883067
 30
0.0
 40
10.0
 41
0.0
 46
0.0
 71
     5
 72
     1
  1
700
 11
0.0000000000000001
 21
1.0
 31
0.0
 73
     1
 44
1.0
  0
POINT
  5
ED8
330
DF1
100
AcDbEntity
  8
Defpoints
 62
     0
100
AcDbPoint
 10
8084.067847562458
 20
607.6122530883052
 30
0.0
  0
POINT
  5
ED9
330
DF1
100
AcDbEntity
  8
Defpoints
 62
     0
100
AcDbPoint
 10
8084.067847562458
 20
1307.612253088305
 30
0.0
  0
POINT
  5
EDA
330
DF1
100
AcDbEntity
  8
Defpoints
 62
     0
100
AcDbPoint
 10
7811.124800742809
 20
1307.612253088305
 30
0.0
  0
ENDBLK
  5
DFC
330
DF1
100
AcDbEntity
  8
0
 62
     3
100
AcDbBlockEnd
  0
BLOCK
  5
E07
330
DFD
100
AcDbEntity
  8
0
 62
     3
100
AcDbBlockBegin
  2
*D79
 70
     1
 10
0.0
 20
0.0
 30
0.0
  3
*D79
  1

  0
LINE
  5
F98
330
DFD
100
AcDbEntity
  8
0
 62
     0
370
    -2
100
AcDbLine
 10
8730.121241176462
 20
981.2344906503692
 30
0.0
 11
8730.121241176462
 21
981.8594906503689
 31
0.0
  0
LINE
  5
F99
330
DFD
100
AcDbEntity
  8
0
 62
     0
370
    -2
100
AcDbLine
 10
9076.121241176464
 20
981.2344906503692
 30
0.0
 11
9076.121241176464
 21
981.8594906503689
 31
0.0
  0
LINE
  5
F9A
330
DFD
100
AcDbEntity
  8
0
 62
     0
370
    -2
100
AcDbLine
 10
8732.621241176463
 20
980.6094906503687
 30
0.0
 11
9073.621241176462
 21
980.6094906503687
 31
0.0
  0
SOLID
  5
F9B
330
DFD
100
AcDbEntity
  8
0
 62
     0
100
AcDbTrace
 10
8732.621241176463
 20
981.0261573170356
 30
0.0
 11
8732.621241176463
 21
980.1928239837023
 31
0.0
 12
8730.121241176462
 22
980.6094906503687
 32
0.0
 13
8730.121241176462
 23
980.6094906503687
 33
0.0
  0
SOLID
  5
F9C
330
DFD
100
AcDbEntity
  8
0
 62
     0
100
AcDbTrace
 10
9073.621241176462
 20
981.0261573170356
 30
0.0
 11
9073.621241176462
 21
980.1928239837023
 31
0.0
 12
9076.121241176464
 22
980.6094906503687
 32
0.0
 13
9076.121241176464
 23
980.6094906503687
 33
0.0
  0
MTEXT
  5
F9D
330
DFD
100
AcDbEntity
  8
0
 62
     0
100
AcDbMText
 10
8903.121241176462
 20
986.234490650369
 30
0.0
 40
10.0
 41
0.0
 46
0.0
 71
     5
 72
     1
  1
346
 73
     1
 44
1.0
  0
POINT
  5
F9E
330
DFD
100
AcDbEntity
  8
Defpoints
 62
     0
100
AcDbPoint
 10
8730.121241176462
 20
980.6094906503687
 30
0.0
  0
POINT
  5
F9F
330
DFD
100
AcDbEntity
  8
Defpoints
 62
     0
100
AcDbPoint
 10
9076.121241176464
 20
980.6094906503687
 30
0.0
  0
POINT
  5
FA0
330
DFD
100
AcDbEntity
  8
Defpoints
 62
     0
100
AcDbPoint
 10
9076.121241176464
 20
980.6094906503687
 30
0.0
  0
ENDBLK
  5
E08
330
DFD
100
AcDbEntity
  8
0
 62
     3
100
AcDbBlockEnd
  0
BLOCK
  5
E13
330
E09
100
AcDbEntity
  8
0
 62
     3
100
AcDbBlockBegin
  2
*D80
 70
     1
 10
0.0
 20
0.0
 30
0.0
  3
*D80
  1

  0
LINE
  5
F8F
330
E09
100
AcDbEntity
  8
0
 62
     0
370
    -2
100
AcDbLine
 10
9015.341583643964
 20
1174.243854392725
 30
0.0
 11
9025.176642673208
 21
1174.243854392725
 31
0.0
  0
LINE
  5
F90
330
E09
100
AcDbEntity
  8
0
 62
     0
370
    -2
100
AcDbLine
 10
9015.341583643964
 20
828.2438543927256
 30
0.0
 11
9025.176642673208
 21
828.2438543927256
 31
0.0
  0
LINE
  5
F91
330
E09
100
AcDbEntity
  8
0
 62
     0
370
    -2
100
AcDbLine
 10
9023.926642673208
 20
1171.743854392725
 30
0.0
 11
9023.926642673208
 21
830.7438543927256
 31
0.0
  0
SOLID
  5
F92
330
E09
100
AcDbEntity
  8
0
 62
     0
100
AcDbTrace
 10
9023.509976006542
 20
1171.743854392725
 30
0.0
 11
9024.343309339874
 21
1171.743854392725
 31
0.0
 12
9023.926642673208
 22
1174.243854392725
 32
0.0
 13
9023.926642673208
 23
1174.243854392725
 33
0.0
  0
SOLID
  5
F93
330
E09
100
AcDbEntity
  8
0
 62
     0
100
AcDbTrace
 10
9023.509976006542
 20
830.7438543927256
 30
0.0
 11
9024.343309339874
 21
830.7438543927256
 31
0.0
 12
9023.926642673208
 22
828.2438543927256
 32
0.0
 13
9023.926642673208
 23
828.2438543927256
 33
0.0
  0
MTEXT
  5
F94
330
E09
100
AcDbEntity
  8
0
 62
     0
100
AcDbMText
 10
9018.301642673208
 20
1001.243854392727
 30
0.0
 40
10.0
 41
0.0
 46
0.0
 71
     5
 72
     1
  1
346
 11
0.0000000000000001
 21
1.0
 31
0.0
 73
     1
 44
1.0
  0
POINT
  5
F95
330
E09
100
AcDbEntity
  8
Defpoints
 62
     0
100
AcDbPoint
 10
9014.716583643965
 20
1174.243854392725
 30
0.0
  0
POINT
  5
F96
330
E09
100
AcDbEntity
  8
Defpoints
 62
     0
100
AcDbPoint
 10
9014.716583643965
 20
828.2438543927256
 30
0.0
  0
POINT
  5
F97
330
E09
100
AcDbEntity
  8
Defpoints
 62
     0
100
AcDbPoint
 10
9023.926642673208
 20
828.2438543927256
 30
0.0
  0
ENDBLK
  5
E14
330
E09
100
AcDbEntity
  8
0
 62
     3
100
AcDbBlockEnd
  0
BLOCK
  5
E1F
330
E15
100
AcDbEntity
  8
0
 62
     3
100
AcDbBlockBegin
  2
*D81
 70
     1
 10
0.0
 20
0.0
 30
0.0
  3
*D81
  1

  0
LINE
  5
FA1
330
E15
100
AcDbEntity
  8
0
 62
     0
370
    -2
100
AcDbLine
 10
9076.121241176464
 20
922.4165910181211
 30
0.0
 11
9076.121241176464
 21
923.0415910181211
 31
0.0
  0
LINE
  5
FA2
330
E15
100
AcDbEntity
  8
0
 62
     0
370
    -2
100
AcDbLine
 10
9114.121241176462
 20
922.4165910181211
 30
0.0
 11
9114.121241176462
 21
923.0415910181211
 31
0.0
  0
LINE
  5
FA3
330
E15
100
AcDbEntity
  8
0
 62
     0
370
    -2
100
AcDbLine
 10
9078.62124117646
 20
921.7915910181211
 30
0.0
 11
9111.621241176463
 21
921.7915910181211
 31
0.0
  0
SOLID
  5
FA4
330
E15
100
AcDbEntity
  8
0
 62
     0
100
AcDbTrace
 10
9078.62124117646
 20
922.2082576847878
 30
0.0
 11
9078.62124117646
 21
921.3749243514543
 31
0.0
 12
9076.121241176464
 22
921.7915910181211
 32
0.0
 13
9076.121241176464
 23
921.7915910181211
 33
0.0
  0
SOLID
  5
FA5
330
E15
100
AcDbEntity
  8
0
 62
     0
100
AcDbTrace
 10
9111.621241176463
 20
922.2082576847878
 30
0.0
 11
9111.621241176463
 21
921.3749243514543
 31
0.0
 12
9114.121241176462
 22
921.7915910181211
 32
0.0
 13
9114.121241176462
 23
921.7915910181211
 33
0.0
  0
MTEXT
  5
FA6
330
E15
100
AcDbEntity
  8
0
 62
     0
100
AcDbMText
 10
9095.121241176462
 20
927.4165910181212
 30
0.0
 40
10.0
 41
0.0
 46
0.0
 71
     5
 72
     1
  1
38
 73
     1
 44
1.0
  0
POINT
  5
FA7
330
E15
100
AcDbEntity
  8
Defpoints
 62
     0
100
AcDbPoint
 10
9076.121241176464
 20
921.7915910181211
 30
0.0
  0
POINT
  5
FA8
330
E15
100
AcDbEntity
  8
Defpoints
 62
     0
100
AcDbPoint
 10
9114.121241176462
 20
921.7915910181211
 30
0.0
  0
POINT
  5
FA9
330
E15
100
AcDbEntity
  8
Defpoints
 62
     0
100
AcDbPoint
 10
9114.121241176462
 20
921.7915910181211
 30
0.0
  0
ENDBLK
  5
E20
330
E15
100
AcDbEntity
  8
0
 62
     3
100
AcDbBlockEnd
  0
BLOCK
  5
E2B
330
E21
100
AcDbEntity
  8
0
 62
     3
100
AcDbBlockBegin
  2
*D82
 70
     1
 10
0.0
 20
0.0
 30
0.0
  3
*D82
  1

  0
LINE
  5
F59
330
E21
100
AcDbEntity
  8
0
 62
     0
370
    -2
100
AcDbLine
 10
8641.121241176461
 20
841.1188543927256
 30
0.0
 11
8641.121241176461
 21
671.2452485390954
 31
0.0
  0
LINE
  5
F5A
330
E21
100
AcDbEntity
  8
0
 62
     0
370
    -2
100
AcDbLine
 10
9165.121241176462
 20
841.1188543927256
 30
0.0
 11
9165.121241176462
 21
671.2452485390954
 31
0.0
  0
LINE
  5
F5B
330
E21
100
AcDbEntity
  8
0
 62
     0
370
    -2
100
AcDbLine
 10
8643.621241176463
 20
672.4952485390954
 30
0.0
 11
9162.621241176463
 21
672.4952485390954
 31
0.0
  0
SOLID
  5
F5C
330
E21
100
AcDbEntity
  8
0
 62
     0
100
AcDbTrace
 10
8643.621241176463
 20
672.911915205762
 30
0.0
 11
8643.621241176463
 21
672.0785818724285
 31
0.0
 12
8641.121241176461
 22
672.4952485390954
 32
0.0
 13
8641.121241176461
 23
672.4952485390954
 33
0.0
  0
SOLID
  5
F5D
330
E21
100
AcDbEntity
  8
0
 62
     0
100
AcDbTrace
 10
9162.621241176463
 20
672.911915205762
 30
0.0
 11
9162.621241176463
 21
672.0785818724285
 31
0.0
 12
9165.121241176462
 22
672.4952485390954
 32
0.0
 13
9165.121241176462
 23
672.4952485390954
 33
0.0
  0
MTEXT
  5
F5E
330
E21
100
AcDbEntity
  8
0
 62
     0
100
AcDbMText
 10
8903.121241176462
 20
678.1202485390954
 30
0.0
 40
10.0
 41
0.0
 46
0.0
 71
     5
 72
     1
  1
524
 73
     1
 44
1.0
  0
POINT
  5
F5F
330
E21
100
AcDbEntity
  8
Defpoints
 62
     0
100
AcDbPoint
 10
8641.121241176461
 20
841.7438543927257
 30
0.0
  0
POINT
  5
F60
330
E21
100
AcDbEntity
  8
Defpoints
 62
     0
100
AcDbPoint
 10
9165.121241176462
 20
841.7438543927257
 30
0.0
  0
POINT
  5
F61
330
E21
100
AcDbEntity
  8
Defpoints
 62
     0
100
AcDbPoint
 10
9165.121241176462
 20
672.4952485390954
 30
0.0
  0
ENDBLK
  5
E2C
330
E21
100
AcDbEntity
  8
0
 62
     3
100
AcDbBlockEnd
  0
BLOCK
  5
E37
330
E2D
100
AcDbEntity
  8
0
 62
     3
100
AcDbBlockBegin
  2
*D83
 70
     1
 10
0.0
 20
0.0
 30
0.0
  3
*D83
  1

  0
LINE
  5
F86
330
E2D
100
AcDbEntity
  8
0
 62
     0
370
    -2
100
AcDbLine
 10
9063.246241176463
 20
739.2438543927256
 30
0.0
 11
9255.678468621852
 21
739.2438543927256
 31
0.0
  0
LINE
  5
F87
330
E2D
100
AcDbEntity
  8
0
 62
     0
370
    -2
100
AcDbLine
 10
9063.246241176463
 20
1263.243854392726
 30
0.0
 11
9255.678468621852
 21
1263.243854392726
 31
0.0
  0
LINE
  5
F88
330
E2D
100
AcDbEntity
  8
0
 62
     0
370
    -2
100
AcDbLine
 10
9254.428468621853
 20
741.743854392726
 30
0.0
 11
9254.428468621853
 21
1260.743854392726
 31
0.0
  0
SOLID
  5
F89
330
E2D
100
AcDbEntity
  8
0
 62
     0
100
AcDbTrace
 10
9254.011801955186
 20
741.743854392726
 30
0.0
 11
9254.845135288515
 21
741.743854392726
 31
0.0
 12
9254.428468621853
 22
739.2438543927256
 32
0.0
 13
9254.428468621853
 23
739.2438543927256
 33
0.0
  0
SOLID
  5
F8A
330
E2D
100
AcDbEntity
  8
0
 62
     0
100
AcDbTrace
 10
9254.011801955186
 20
1260.743854392726
 30
0.0
 11
9254.845135288515
 21
1260.743854392726
 31
0.0
 12
9254.428468621853
 22
1263.243854392726
 32
0.0
 13
9254.428468621853
 23
1263.243854392726
 33
0.0
  0
MTEXT
  5
F8B
330
E2D
100
AcDbEntity
  8
0
 62
     0
100
AcDbMText
 10
9248.803468621852
 20
1001.243854392727
 30
0.0
 40
10.0
 41
0.0
 46
0.0
 71
     5
 72
     1
  1
524
 11
0.0000000000000001
 21
1.0
 31
0.0
 73
     1
 44
1.0
  0
POINT
  5
F8C
330
E2D
100
AcDbEntity
  8
Defpoints
 62
     0
100
AcDbPoint
 10
9062.621241176463
 20
739.2438543927256
 30
0.0
  0
POINT
  5
F8D
330
E2D
100
AcDbEntity
  8
Defpoints
 62
     0
100
AcDbPoint
 10
9062.621241176463
 20
1263.243854392726
 30
0.0
  0
POINT
  5
F8E
330
E2D
100
AcDbEntity
  8
Defpoints
 62
     0
100
AcDbPoint
 10
9254.428468621853
 20
1263.243854392726
 30
0.0
  0
ENDBLK
  5
E38
330
E2D
100
AcDbEntity
  8
0
 62
     3
100
AcDbBlockEnd
  0
BLOCK
  5
FC5
330
FC4
100
AcDbEntity
  8
0
100
AcDbBlockBegin
  2
*D84
 70
     1
 10
0.0
 20
0.0
 30
0.0
  3
*D84
  1

  0
LINE
  5
FC6
330
FC4
100
AcDbEntity
  8
0
 62
     0
370
    -2
100
AcDbLine
 10
1108.940206788738
 20
-325.8939535120362
 30
0.0
 11
1108.940206788738
 21
-376.8520372600028
 31
0.0
  0
LINE
  5
FC7
330
FC4
100
AcDbEntity
  8
0
 62
     0
370
    -2
100
AcDbLine
 10
1308.940206788739
 20
-325.8939535120362
 30
0.0
 11
1308.940206788739
 21
-376.8520372600028
 31
0.0
  0
LINE
  5
FC8
330
FC4
100
AcDbEntity
  8
0
 62
     0
370
    -2
100
AcDbLine
 10
1109.120206788738
 20
-376.6720372600028
 30
0.0
 11
1182.600206788738
 21
-376.6720372600028
 31
0.0
  0
LINE
  5
FC9
330
FC4
100
AcDbEntity
  8
0
 62
     0
370
    -2
100
AcDbLine
 10
1308.760206788739
 20
-376.6720372600028
 30
0.0
 11
1235.280206788738
 21
-376.6720372600028
 31
0.0
  0
SOLID
  5
FCA
330
FC4
100
AcDbEntity
  8
0
 62
     0
100
AcDbTrace
 10
1109.120206788738
 20
-376.6420372600028
 30
0.0
 11
1109.120206788738
 21
-376.7020372600029
 31
0.0
 12
1108.940206788738
 22
-376.6720372600028
 32
0.0
 13
1108.940206788738
 23
-376.6720372600028
 33
0.0
  0
SOLID
  5
FCB
330
FC4
100
AcDbEntity
  8
0
 62
     0
100
AcDbTrace
 10
1308.760206788739
 20
-376.6420372600028
 30
0.0
 11
1308.760206788739
 21
-376.7020372600029
 31
0.0
 12
1308.940206788739
 22
-376.6720372600028
 32
0.0
 13
1308.940206788739
 23
-376.6720372600028
 33
0.0
  0
MTEXT
  5
FCC
330
FC4
100
AcDbEntity
  8
0
 62
     0
100
AcDbMText
 10
1208.940206788738
 20
-376.6720372600028
 30
0.0
 40
15.0
 41
0.0
 46
0.0
 71
     5
 72
     1
  1
\A1;200.0
 73
     1
 44
1.0
  0
POINT
  5
FCD
330
FC4
100
AcDbEntity
  8
Defpoints
 62
     0
100
AcDbPoint
 10
1108.940206788738
 20
-325.8314535120362
 30
0.0
  0
POINT
  5
FCE
330
FC4
100
AcDbEntity
  8
Defpoints
 62
     0
100
AcDbPoint
 10
1308.940206788739
 20
-325.8314535120362
 30
0.0
  0
POINT
  5
FCF
330
FC4
100
AcDbEntity
  8
Defpoints
 62
     0
100
AcDbPoint
 10
1308.940206788739
 20
-376.6720372600028
 30
0.0
  0
ENDBLK
  5
FD0
330
FC4
100
AcDbEntity
  8
0
100
AcDbBlockEnd
  0
BLOCK
  5
FD2
330
FD1
100
AcDbEntity
  8
0
100
AcDbBlockBegin
  2
*D85
 70
     1
 10
0.0
 20
0.0
 30
0.0
  3
*D85
  1

  0
LINE
  5
FD3
330
FD1
100
AcDbEntity
  8
0
 62
     0
370
    -2
100
AcDbLine
 10
1279.002706788739
 20
-355.8314535120358
 30
0.0
 11
1353.95628604466
 21
-355.8314535120358
 31
0.0
  0
LINE
  5
FD4
330
FD1
100
AcDbEntity
  8
0
 62
     0
370
    -2
100
AcDbLine
 10
1279.002706788739
 20
-155.8314535120361
 30
0.0
 11
1353.95628604466
 21
-155.8314535120361
 31
0.0
  0
LINE
  5
FD5
330
FD1
100
AcDbEntity
  8
0
 62
     0
370
    -2
100
AcDbLine
 10
1353.77628604466
 20
-355.6514535120358
 30
0.0
 11
1353.77628604466
 21
-263.421453512036
 31
0.0
  0
LINE
  5
FD6
330
FD1
100
AcDbEntity
  8
0
 62
     0
370
    -2
100
AcDbLine
 10
1353.77628604466
 20
-156.0114535120361
 30
0.0
 11
1353.77628604466
 21
-248.241453512036
 31
0.0
  0
SOLID
  5
FD7
330
FD1
100
AcDbEntity
  8
0
 62
     0
100
AcDbTrace
 10
1353.74628604466
 20
-355.6514535120358
 30
0.0
 11
1353.80628604466
 21
-355.6514535120358
 31
0.0
 12
1353.77628604466
 22
-355.8314535120358
 32
0.0
 13
1353.77628604466
 23
-355.8314535120358
 33
0.0
  0
SOLID
  5
FD8
330
FD1
100
AcDbEntity
  8
0
 62
     0
100
AcDbTrace
 10
1353.74628604466
 20
-156.0114535120361
 30
0.0
 11
1353.80628604466
 21
-156.0114535120361
 31
0.0
 12
1353.77628604466
 22
-155.8314535120361
 32
0.0
 13
1353.77628604466
 23
-155.8314535120361
 33
0.0
  0
MTEXT
  5
FD9
330
FD1
100
AcDbEntity
  8
0
 62
     0
100
AcDbMText
 10
1353.77628604466
 20
-255.8314535120358
 30
0.0
 40
15.0
 41
0.0
 46
0.0
 71
     5
 72
     1
  1
\A1;200.0
 73
     1
 44
1.0
  0
POINT
  5
FDA
330
FD1
100
AcDbEntity
  8
Defpoints
 62
     0
100
AcDbPoint
 10
1278.940206788739
 20
-355.8314535120358
 30
0.0
  0
POINT
  5
FDB
330
FD1
100
AcDbEntity
  8
Defpoints
 62
     0
100
AcDbPoint
 10
1278.940206788739
 20
-155.8314535120361
 30
0.0
  0
POINT
  5
FDC
330
FD1
100
AcDbEntity
  8
Defpoints
 62
     0
100
AcDbPoint
 10
1353.77628604466
 20
-155.8314535120361
 30
0.0
  0
ENDBLK
  5
FDD
330
FD1
100
AcDbEntity
  8
0
100
AcDbBlockEnd
  0
BLOCK
  5
108D
330
1082
100
AcDbEntity
  8
0
 62
     3
100
AcDbBlockBegin
  2
*D86
 70
     1
 10
0.0
 20
0.0
 30
0.0
  3
*D86
  1

  0
LINE
  5
1083
330
1082
100
AcDbEntity
  8
0
 62
     0
370
    -2
100
AcDbLine
 10
2163.666194358954
 20
818.0380486916586
 30
0.0
 11
2163.666194358954
 21
767.079964943692
 31
0.0
  0
LINE
  5
1084
330
1082
100
AcDbEntity
  8
0
 62
     0
370
    -2
100
AcDbLine
 10
2363.666194358955
 20
818.0380486916586
 30
0.0
 11
2363.666194358955
 21
767.079964943692
 31
0.0
  0
LINE
  5
1085
330
1082
100
AcDbEntity
  8
0
 62
     0
370
    -2
100
AcDbLine
 10
2163.846194358954
 20
767.259964943692
 30
0.0
 11
2237.326194358955
 21
767.259964943692
 31
0.0
  0
LINE
  5
1086
330
1082
100
AcDbEntity
  8
0
 62
     0
370
    -2
100
AcDbLine
 10
2363.486194358955
 20
767.259964943692
 30
0.0
 11
2290.006194358955
 21
767.259964943692
 31
0.0
  0
SOLID
  5
1087
330
1082
100
AcDbEntity
  8
0
 62
     0
100
AcDbTrace
 10
2163.846194358954
 20
767.289964943692
 30
0.0
 11
2163.846194358954
 21
767.229964943692
 31
0.0
 12
2163.666194358954
 22
767.259964943692
 32
0.0
 13
2163.666194358954
 23
767.259964943692
 33
0.0
  0
SOLID
  5
1088
330
1082
100
AcDbEntity
  8
0
 62
     0
100
AcDbTrace
 10
2363.486194358955
 20
767.289964943692
 30
0.0
 11
2363.486194358955
 21
767.229964943692
 31
0.0
 12
2363.666194358955
 22
767.259964943692
 32
0.0
 13
2363.666194358955
 23
767.259964943692
 33
0.0
  0
MTEXT
  5
1089
330
1082
100
AcDbEntity
  8
0
 62
     0
100
AcDbMText
 10
2263.666194358955
 20
767.259964943692
 30
0.0
 40
15.0
 41
0.0
 46
0.0
 71
     5
 72
     1
  1
\A1;200.0
 73
     1
 44
1.0
  0
POINT
  5
108A
330
1082
100
AcDbEntity
  8
Defpoints
 62
     0
100
AcDbPoint
 10
2163.666194358954
 20
818.1005486916586
 30
0.0
  0
POINT
  5
108B
330
1082
100
AcDbEntity
  8
Defpoints
 62
     0
100
AcDbPoint
 10
2363.666194358955
 20
818.1005486916586
 30
0.0
  0
POINT
  5
108C
330
1082
100
AcDbEntity
  8
Defpoints
 62
     0
100
AcDbPoint
 10
2363.666194358955
 20
767.259964943692
 30
0.0
  0
ENDBLK
  5
108E
330
1082
100
AcDbEntity
  8
0
 62
     3
100
AcDbBlockEnd
  0
BLOCK
  5
109A
330
108F
100
AcDbEntity
  8
0
 62
     3
100
AcDbBlockBegin
  2
*D87
 70
     1
 10
0.0
 20
0.0
 30
0.0
  3
*D87
  1

  0
LINE
  5
1090
330
108F
100
AcDbEntity
  8
0
 62
     0
370
    -2
100
AcDbLine
 10
2333.728694358955
 20
788.1005486916587
 30
0.0
 11
2408.682273614876
 21
788.1005486916587
 31
0.0
  0
LINE
  5
1091
330
108F
100
AcDbEntity
  8
0
 62
     0
370
    -2
100
AcDbLine
 10
2333.728694358955
 20
988.1005486916588
 30
0.0
 11
2408.682273614876
 21
988.1005486916588
 31
0.0
  0
LINE
  5
1092
330
108F
100
AcDbEntity
  8
0
 62
     0
370
    -2
100
AcDbLine
 10
2408.502273614876
 20
788.2805486916589
 30
0.0
 11
2408.502273614876
 21
880.5105486916588
 31
0.0
  0
LINE
  5
1093
330
108F
100
AcDbEntity
  8
0
 62
     0
370
    -2
100
AcDbLine
 10
2408.502273614876
 20
987.9205486916587
 30
0.0
 11
2408.502273614876
 21
895.6905486916589
 31
0.0
  0
SOLID
  5
1094
330
108F
100
AcDbEntity
  8
0
 62
     0
100
AcDbTrace
 10
2408.472273614876
 20
788.2805486916589
 30
0.0
 11
2408.532273614877
 21
788.2805486916589
 31
0.0
 12
2408.502273614876
 22
788.1005486916587
 32
0.0
 13
2408.502273614876
 23
788.1005486916587
 33
0.0
  0
SOLID
  5
1095
330
108F
100
AcDbEntity
  8
0
 62
     0
100
AcDbTrace
 10
2408.472273614876
 20
987.9205486916587
 30
0.0
 11
2408.532273614877
 21
987.9205486916587
 31
0.0
 12
2408.502273614876
 22
988.1005486916588
 32
0.0
 13
2408.502273614876
 23
988.1005486916588
 33
0.0
  0
MTEXT
  5
1096
330
108F
100
AcDbEntity
  8
0
 62
     0
100
AcDbMText
 10
2408.502273614876
 20
888.1005486916594
 30
0.0
 40
15.0
 41
0.0
 46
0.0
 71
     5
 72
     1
  1
\A1;200.0
 73
     1
 44
1.0
  0
POINT
  5
1097
330
108F
100
AcDbEntity
  8
Defpoints
 62
     0
100
AcDbPoint
 10
2333.666194358955
 20
788.1005486916587
 30
0.0
  0
POINT
  5
1098
330
108F
100
AcDbEntity
  8
Defpoints
 62
     0
100
AcDbPoint
 10
2333.666194358955
 20
988.1005486916588
 30
0.0
  0
POINT
  5
1099
330
108F
100
AcDbEntity
  8
Defpoints
 62
     0
100
AcDbPoint
 10
2408.502273614876
 20
988.1005486916588
 30
0.0
  0
ENDBLK
  5
109B
330
108F
100
AcDbEntity
  8
0
 62
     3
100
AcDbBlockEnd
  0
BLOCK
  5
1145
330
113B
100
AcDbEntity
  8
0
 62
     3
100
AcDbBlockBegin
  2
*D88
 70
     1
 10
0.0
 20
0.0
 30
0.0
  3
*D88
  1

  0
LINE
  5
1148
330
113B
100
AcDbEntity
  8
0
 62
     0
370
    -2
100
AcDbLine
 10
1308.628199623015
 20
975.9794984744431
 30
0.0
 11
1308.628199623015
 21
984.0208420943964
 31
0.0
  0
LINE
  5
1149
330
113B
100
AcDbEntity
  8
0
 62
     0
370
    -2
100
AcDbLine
 10
1390.628199623015
 20
975.9794984744431
 30
0.0
 11
1390.628199623015
 21
984.0208420943964
 31
0.0
  0
LINE
  5
114A
330
113B
100
AcDbEntity
  8
0
 62
     0
370
    -2
100
AcDbLine
 10
1311.128199623015
 20
982.7708420943963
 30
0.0
 11
1388.128199623015
 21
982.7708420943963
 31
0.0
  0
SOLID
  5
114B
330
113B
100
AcDbEntity
  8
0
 62
     0
100
AcDbTrace
 10
1311.128199623015
 20
983.1875087610628
 30
0.0
 11
1311.128199623015
 21
982.3541754277297
 31
0.0
 12
1308.628199623015
 22
982.7708420943963
 32
0.0
 13
1308.628199623015
 23
982.7708420943963
 33
0.0
  0
SOLID
  5
114C
330
113B
100
AcDbEntity
  8
0
 62
     0
100
AcDbTrace
 10
1388.128199623015
 20
983.1875087610628
 30
0.0
 11
1388.128199623015
 21
982.3541754277297
 31
0.0
 12
1390.628199623015
 22
982.7708420943963
 32
0.0
 13
1390.628199623015
 23
982.7708420943963
 33
0.0
  0
MTEXT
  5
114D
330
113B
100
AcDbEntity
  8
0
 62
     0
100
AcDbMText
 10
1349.628199623015
 20
988.3958420943963
 30
0.0
 40
10.0
 41
0.0
 46
0.0
 71
     5
 72
     1
  1
82
 73
     1
 44
1.0
  0
POINT
  5
114E
330
113B
100
AcDbEntity
  8
Defpoints
 62
     0
100
AcDbPoint
 10
1308.628199623015
 20
975.3544984744431
 30
0.0
  0
POINT
  5
114F
330
113B
100
AcDbEntity
  8
Defpoints
 62
     0
100
AcDbPoint
 10
1390.628199623015
 20
975.3544984744431
 30
0.0
  0
POINT
  5
1150
330
113B
100
AcDbEntity
  8
Defpoints
 62
     0
100
AcDbPoint
 10
1390.628199623015
 20
982.7708420943963
 30
0.0
  0
ENDBLK
  5
1146
330
113B
100
AcDbEntity
  8
0
 62
     3
100
AcDbBlockEnd
  0
BLOCK
  5
115D
330
1153
100
AcDbEntity
  8
0
 62
     3
100
AcDbBlockBegin
  2
*D89
 70
     1
 10
0.0
 20
0.0
 30
0.0
  3
*D89
  1

  0
LINE
  5
1160
330
1153
100
AcDbEntity
  8
0
 62
     0
370
    -2
100
AcDbLine
 10
1198.517479456102
 20
1080.354498474443
 30
0.0
 11
1188.978141472979
 21
1080.354498474443
 31
0.0
  0
LINE
  5
1161
330
1153
100
AcDbEntity
  8
0
 62
     0
370
    -2
100
AcDbLine
 10
1203.003199623015
 20
1162.354498474443
 30
0.0
 11
1188.978141472979
 21
1162.354498474443
 31
0.0
  0
LINE
  5
1162
330
1153
100
AcDbEntity
  8
0
 62
     0
370
    -2
100
AcDbLine
 10
1190.228141472979
 20
1082.854498474443
 30
0.0
 11
1190.228141472979
 21
1159.854498474443
 31
0.0
  0
SOLID
  5
1163
330
1153
100
AcDbEntity
  8
0
 62
     0
100
AcDbTrace
 10
1189.811474806313
 20
1082.854498474443
 30
0.0
 11
1190.644808139646
 21
1082.854498474443
 31
0.0
 12
1190.228141472979
 22
1080.354498474443
 32
0.0
 13
1190.228141472979
 23
1080.354498474443
 33
0.0
  0
SOLID
  5
1164
330
1153
100
AcDbEntity
  8
0
 62
     0
100
AcDbTrace
 10
1189.811474806313
 20
1159.854498474443
 30
0.0
 11
1190.644808139646
 21
1159.854498474443
 31
0.0
 12
1190.228141472979
 22
1162.354498474443
 32
0.0
 13
1190.228141472979
 23
1162.354498474443
 33
0.0
  0
MTEXT
  5
1165
330
1153
100
AcDbEntity
  8
0
 62
     0
100
AcDbMText
 10
1184.603141472979
 20
1121.354498474443
 30
0.0
 40
10.0
 41
0.0
 46
0.0
 71
     5
 72
     1
  1
82
 11
0.0000000000000001
 21
1.0
 31
0.0
 73
     1
 44
1.0
  0
POINT
  5
1166
330
1153
100
AcDbEntity
  8
Defpoints
 62
     0
100
AcDbPoint
 10
1199.142479456102
 20
1080.354498474443
 30
0.0
  0
POINT
  5
1167
330
1153
100
AcDbEntity
  8
Defpoints
 62
     0
100
AcDbPoint
 10
1203.628199623015
 20
1162.354498474443
 30
0.0
  0
POINT
  5
1168
330
1153
100
AcDbEntity
  8
Defpoints
 62
     0
100
AcDbPoint
 10
1190.228141472979
 20
1162.354498474443
 30
0.0
  0
ENDBLK
  5
115E
330
1153
100
AcDbEntity
  8
0
 62
     3
100
AcDbBlockEnd
  0
BLOCK
  5
1170
330
116F
100
AcDbEntity
  8
0
100
AcDbBlockBegin
  2
*D90
 70
     1
 10
0.0
 20
0.0
 30
0.0
  3
*D90
  1

  0
LINE
  5
1171
330
116F
100
AcDbEntity
  8
0
 62
     0
370
    -2
100
AcDbLine
 10
2415.40457353103
 20
901.5543647541104
 30
0.0
 11
2415.40457353103
 21
835.6060185892586
 31
0.0
  0
LINE
  5
1172
330
116F
100
AcDbEntity
  8
0
 62
     0
370
    -2
100
AcDbLine
 10
2665.40457353103
 20
901.5543647541104
 30
0.0
 11
2665.40457353103
 21
835.6060185892586
 31
0.0
  0
LINE
  5
1173
330
116F
100
AcDbEntity
  8
0
 62
     0
370
    -2
100
AcDbLine
 10
2415.58457353103
 20
835.7860185892587
 30
0.0
 11
2512.81457353103
 21
835.7860185892587
 31
0.0
  0
LINE
  5
1174
330
116F
100
AcDbEntity
  8
0
 62
     0
370
    -2
100
AcDbLine
 10
2665.22457353103
 20
835.7860185892587
 30
0.0
 11
2567.99457353103
 21
835.7860185892587
 31
0.0
  0
SOLID
  5
1175
330
116F
100
AcDbEntity
  8
0
 62
     0
100
AcDbTrace
 10
2415.58457353103
 20
835.8160185892584
 30
0.0
 11
2415.58457353103
 21
835.7560185892587
 31
0.0
 12
2415.40457353103
 22
835.7860185892587
 32
0.0
 13
2415.40457353103
 23
835.7860185892587
 33
0.0
  0
SOLID
  5
1176
330
116F
100
AcDbEntity
  8
0
 62
     0
100
AcDbTrace
 10
2665.22457353103
 20
835.8160185892584
 30
0.0
 11
2665.22457353103
 21
835.7560185892587
 31
0.0
 12
2665.40457353103
 22
835.7860185892587
 32
0.0
 13
2665.40457353103
 23
835.7860185892587
 33
0.0
  0
MTEXT
  5
1177
330
116F
100
AcDbEntity
  8
0
 62
     0
100
AcDbMText
 10
2540.40457353103
 20
835.7860185892587
 30
0.0
 40
15.0
 41
0.0
 46
0.0
 71
     5
 72
     1
  1
\A1;250.0
 73
     1
 44
1.0
  0
POINT
  5
1178
330
116F
100
AcDbEntity
  8
Defpoints
 62
     0
100
AcDbPoint
 10
2415.40457353103
 20
901.6168647541105
 30
0.0
  0
POINT
  5
1179
330
116F
100
AcDbEntity
  8
Defpoints
 62
     0
100
AcDbPoint
 10
2665.40457353103
 20
901.6168647541105
 30
0.0
  0
POINT
  5
117A
330
116F
100
AcDbEntity
  8
Defpoints
 62
     0
100
AcDbPoint
 10
2665.40457353103
 20
835.7860185892587
 30
0.0
  0
ENDBLK
  5
117B
330
116F
100
AcDbEntity
  8
0
100
AcDbBlockEnd
  0
BLOCK
  5
117D
330
117C
100
AcDbEntity
  8
0
100
AcDbBlockBegin
  2
*D91
 70
     1
 10
0.0
 20
0.0
 30
0.0
  3
*D91
  1

  0
LINE
  5
117E
330
117C
100
AcDbEntity
  8
0
 62
     0
370
    -2
100
AcDbLine
 10
2627.96707353103
 20
864.1168647541107
 30
0.0
 11
2707.188254029276
 21
864.1168647541107
 31
0.0
  0
LINE
  5
117F
330
117C
100
AcDbEntity
  8
0
 62
     0
370
    -2
100
AcDbLine
 10
2627.96707353103
 20
1114.11686475411
 30
0.0
 11
2707.188254029276
 21
1114.11686475411
 31
0.0
  0
LINE
  5
1180
330
117C
100
AcDbEntity
  8
0
 62
     0
370
    -2
100
AcDbLine
 10
2707.008254029276
 20
864.2968647541108
 30
0.0
 11
2707.008254029276
 21
981.5268647541104
 31
0.0
  0
LINE
  5
1181
330
117C
100
AcDbEntity
  8
0
 62
     0
370
    -2
100
AcDbLine
 10
2707.008254029276
 20
1113.93686475411
 30
0.0
 11
2707.008254029276
 21
996.7068647541106
 31
0.0
  0
SOLID
  5
1182
330
117C
100
AcDbEntity
  8
0
 62
     0
100
AcDbTrace
 10
2706.978254029275
 20
864.2968647541108
 30
0.0
 11
2707.038254029277
 21
864.2968647541108
 31
0.0
 12
2707.008254029276
 22
864.1168647541107
 32
0.0
 13
2707.008254029276
 23
864.1168647541107
 33
0.0
  0
SOLID
  5
1183
330
117C
100
AcDbEntity
  8
0
 62
     0
100
AcDbTrace
 10
2706.978254029277
 20
1113.93686475411
 30
0.0
 11
2707.038254029277
 21
1113.93686475411
 31
0.0
 12
2707.008254029276
 22
1114.11686475411
 32
0.0
 13
2707.008254029276
 23
1114.11686475411
 33
0.0
  0
MTEXT
  5
1184
330
117C
100
AcDbEntity
  8
0
 62
     0
100
AcDbMText
 10
2707.008254029276
 20
989.116864754111
 30
0.0
 40
15.0
 41
0.0
 46
0.0
 71
     5
 72
     1
  1
\A1;250.0
 73
     1
 44
1.0
  0
POINT
  5
1185
330
117C
100
AcDbEntity
  8
Defpoints
 62
     0
100
AcDbPoint
 10
2627.90457353103
 20
864.1168647541107
 30
0.0
  0
POINT
  5
1186
330
117C
100
AcDbEntity
  8
Defpoints
 62
     0
100
AcDbPoint
 10
2627.90457353103
 20
1114.11686475411
 30
0.0
  0
POINT
  5
1187
330
117C
100
AcDbEntity
  8
Defpoints
 62
     0
100
AcDbPoint
 10
2707.008254029276
 20
1114.11686475411
 30
0.0
  0
ENDBLK
  5
1188
330
117C
100
AcDbEntity
  8
0
100
AcDbBlockEnd
  0
BLOCK
  5
1268
330
125D
100
AcDbEntity
  8
0
 62
     3
100
AcDbBlockBegin
  2
*D92
 70
     1
 10
0.0
 20
0.0
 30
0.0
  3
*D92
  1

  0
LINE
  5
16B3
330
125D
100
AcDbEntity
  8
0
 62
     0
370
    -2
100
AcDbLine
 10
2111.166963569663
 20
817.2850078926591
 30
0.0
 11
2111.166963569663
 21
763.9953309607777
 31
0.0
  0
LINE
  5
16B4
330
125D
100
AcDbEntity
  8
0
 62
     0
370
    -2
100
AcDbLine
 10
2311.166963569664
 20
817.2850078926591
 30
0.0
 11
2311.166963569664
 21
763.9953309607777
 31
0.0
  0
LINE
  5
16B5
330
125D
100
AcDbEntity
  8
0
 62
     0
370
    -2
100
AcDbLine
 10
2113.666963569663
 20
765.2453309607778
 30
0.0
 11
2308.666963569664
 21
765.2453309607778
 31
0.0
  0
SOLID
  5
16B6
330
125D
100
AcDbEntity
  8
0
 62
     0
100
AcDbTrace
 10
2113.666963569663
 20
765.6619976274442
 30
0.0
 11
2113.666963569663
 21
764.8286642941111
 31
0.0
 12
2111.166963569663
 22
765.2453309607778
 32
0.0
 13
2111.166963569663
 23
765.2453309607778
 33
0.0
  0
SOLID
  5
16B7
330
125D
100
AcDbEntity
  8
0
 62
     0
100
AcDbTrace
 10
2308.666963569664
 20
765.6619976274442
 30
0.0
 11
2308.666963569664
 21
764.8286642941111
 31
0.0
 12
2311.166963569664
 22
765.2453309607778
 32
0.0
 13
2311.166963569664
 23
765.2453309607778
 33
0.0
  0
MTEXT
  5
16B8
330
125D
100
AcDbEntity
  8
0
 62
     0
100
AcDbMText
 10
2211.166963569664
 20
770.8703309607778
 30
0.0
 40
10.0
 41
0.0
 46
0.0
 71
     5
 72
     1
  1
200
 73
     1
 44
1.0
  0
POINT
  5
16B9
330
125D
100
AcDbEntity
  8
Defpoints
 62
     0
100
AcDbPoint
 10
2111.166963569663
 20
817.9100078926591
 30
0.0
  0
POINT
  5
16BA
330
125D
100
AcDbEntity
  8
Defpoints
 62
     0
100
AcDbPoint
 10
2311.166963569664
 20
817.9100078926591
 30
0.0
  0
POINT
  5
16BB
330
125D
100
AcDbEntity
  8
Defpoints
 62
     0
100
AcDbPoint
 10
2311.166963569664
 20
765.2453309607778
 30
0.0
  0
ENDBLK
  5
1269
330
125D
100
AcDbEntity
  8
0
 62
     3
100
AcDbBlockEnd
  0
BLOCK
  5
1275
330
126A
100
AcDbEntity
  8
0
 62
     3
100
AcDbBlockBegin
  2
*D93
 70
     1
 10
0.0
 20
0.0
 30
0.0
  3
*D93
  1

  0
LINE
  5
16AA
330
126A
100
AcDbEntity
  8
0
 62
     0
370
    -2
100
AcDbLine
 10
2281.791963569663
 20
787.9100078926593
 30
0.0
 11
2345.69990796826
 21
787.9100078926593
 31
0.0
  0
LINE
  5
16AB
330
126A
100
AcDbEntity
  8
0
 62
     0
370
    -2
100
AcDbLine
 10
2281.791963569663
 20
987.9100078926587
 30
0.0
 11
2345.69990796826
 21
987.9100078926583
 31
0.0
  0
LINE
  5
16AC
330
126A
100
AcDbEntity
  8
0
 62
     0
370
    -2
100
AcDbLine
 10
2344.44990796826
 20
790.4100078926593
 30
0.0
 11
2344.44990796826
 21
985.4100078926585
 31
0.0
  0
SOLID
  5
16AD
330
126A
100
AcDbEntity
  8
0
 62
     0
100
AcDbTrace
 10
2344.033241301593
 20
790.4100078926593
 30
0.0
 11
2344.866574634927
 21
790.4100078926593
 31
0.0
 12
2344.44990796826
 22
787.9100078926593
 32
0.0
 13
2344.44990796826
 23
787.9100078926593
 33
0.0
  0
SOLID
  5
16AE
330
126A
100
AcDbEntity
  8
0
 62
     0
100
AcDbTrace
 10
2344.033241301593
 20
985.4100078926585
 30
0.0
 11
2344.866574634927
 21
985.4100078926585
 31
0.0
 12
2344.44990796826
 22
987.9100078926583
 32
0.0
 13
2344.44990796826
 23
987.9100078926583
 33
0.0
  0
MTEXT
  5
16AF
330
126A
100
AcDbEntity
  8
0
 62
     0
100
AcDbMText
 10
2338.82490796826
 20
887.9100078926594
 30
0.0
 40
10.0
 41
0.0
 46
0.0
 71
     5
 72
     1
  1
200
 11
0.0000000000000001
 21
1.0
 31
0.0
 73
     1
 44
1.0
  0
POINT
  5
16B0
330
126A
100
AcDbEntity
  8
Defpoints
 62
     0
100
AcDbPoint
 10
2281.166963569663
 20
787.9100078926593
 30
0.0
  0
POINT
  5
16B1
330
126A
100
AcDbEntity
  8
Defpoints
 62
     0
100
AcDbPoint
 10
2281.166963569663
 20
987.9100078926587
 30
0.0
  0
POINT
  5
16B2
330
126A
100
AcDbEntity
  8
Defpoints
 62
     0
100
AcDbPoint
 10
2344.44990796826
 20
987.9100078926583
 30
0.0
  0
ENDBLK
  5
1276
330
126A
100
AcDbEntity
  8
0
 62
     3
100
AcDbBlockEnd
  0
BLOCK
  5
12AD
330
12A2
100
AcDbEntity
  8
0
100
AcDbBlockBegin
  2
*D94
 70
     1
 10
0.0
 20
0.0
 30
0.0
  3
*D94
  1

  0
LINE
  5
1307
330
12A2
100
AcDbEntity
  8
0
 62
     0
370
    -2
100
AcDbLine
 10
2206.000324791524
 20
880.8121995579176
 30
0.0
 11
2206.000324791524
 21
881.4371995579177
 31
0.0
  0
LINE
  5
1308
330
12A2
100
AcDbEntity
  8
0
 62
     0
370
    -2
100
AcDbLine
 10
2183.166963569663
 20
880.8121995579176
 30
0.0
 11
2183.166963569663
 21
881.4371995579177
 31
0.0
  0
LINE
  5
1309
330
12A2
100
AcDbEntity
  8
0
 62
     0
370
    -2
100
AcDbLine
 10
2203.500324791524
 20
880.1871995579176
 30
0.0
 11
2185.666963569664
 21
880.1871995579176
 31
0.0
  0
LINE
  5
130A
330
12A2
100
AcDbEntity
  8
0
 62
     0
370
    -2
100
AcDbLine
 10
2183.166963569663
 20
880.1871995579176
 30
0.0
 11
2147.750296902997
 21
880.1871995579176
 31
0.0
  0
SOLID
  5
130B
330
12A2
100
AcDbEntity
  8
0
 62
     0
100
AcDbTrace
 10
2203.500324791524
 20
880.6038662245841
 30
0.0
 11
2203.500324791524
 21
879.770532891251
 31
0.0
 12
2206.000324791524
 22
880.1871995579176
 32
0.0
 13
2206.000324791524
 23
880.1871995579176
 33
0.0
  0
SOLID
  5
130C
330
12A2
100
AcDbEntity
  8
0
 62
     0
100
AcDbTrace
 10
2185.666963569664
 20
880.6038662245841
 30
0.0
 11
2185.666963569664
 21
879.770532891251
 31
0.0
 12
2183.166963569663
 22
880.1871995579176
 32
0.0
 13
2183.166963569663
 23
880.1871995579176
 33
0.0
  0
MTEXT
  5
130D
330
12A2
100
AcDbEntity
  8
0
 62
     0
100
AcDbMText
 10
2164.20863023633
 20
886.6455328912509
 30
0.0
 40
10.0
 41
0.0
 46
0.0
 71
     5
 72
     1
  1
22,8
 73
     1
 44
1.0
  0
POINT
  5
130E
330
12A2
100
AcDbEntity
  8
Defpoints
 62
     0
100
AcDbPoint
 10
2206.000324791524
 20
880.1871995579176
 30
0.0
  0
POINT
  5
130F
330
12A2
100
AcDbEntity
  8
Defpoints
 62
     0
100
AcDbPoint
 10
2183.166963569663
 20
880.1871995579176
 30
0.0
  0
POINT
  5
1310
330
12A2
100
AcDbEntity
  8
Defpoints
 62
     0
100
AcDbPoint
 10
2183.166963569663
 20
880.1871995579176
 30
0.0
  0
ENDBLK
  5
12AE
330
12A2
100
AcDbEntity
  8
0
100
AcDbBlockEnd
  0
BLOCK
  5
12C7
330
12BC
100
AcDbEntity
  8
0
100
AcDbBlockBegin
  2
*D95
 70
     1
 10
0.0
 20
0.0
 30
0.0
  3
*D95
  1

  0
LINE
  5
1311
330
12BC
100
AcDbEntity
  8
0
 62
     0
370
    -2
100
AcDbLine
 10
2216.327974307913
 20
880.8121995579176
 30
0.0
 11
2216.327974307913
 21
882.3375164545769
 31
0.0
  0
LINE
  5
1312
330
12BC
100
AcDbEntity
  8
0
 62
     0
370
    -2
100
AcDbLine
 10
2239.166963569664
 20
880.8121995579176
 30
0.0
 11
2239.166963569664
 21
882.3375164545769
 31
0.0
  0
LINE
  5
1313
330
12BC
100
AcDbEntity
  8
0
 62
     0
370
    -2
100
AcDbLine
 10
2218.827974307913
 20
881.0875164545768
 30
0.0
 11
2236.666963569664
 21
881.0875164545768
 31
0.0
  0
LINE
  5
1314
330
12BC
100
AcDbEntity
  8
0
 62
     0
370
    -2
100
AcDbLine
 10
2239.166963569664
 20
881.0875164545768
 30
0.0
 11
2274.58363023633
 21
881.0875164545768
 31
0.0
  0
SOLID
  5
1315
330
12BC
100
AcDbEntity
  8
0
 62
     0
100
AcDbTrace
 10
2218.827974307913
 20
881.5041831212434
 30
0.0
 11
2218.827974307913
 21
880.6708497879101
 31
0.0
 12
2216.327974307913
 22
881.0875164545768
 32
0.0
 13
2216.327974307913
 23
881.0875164545768
 33
0.0
  0
SOLID
  5
1316
330
12BC
100
AcDbEntity
  8
0
 62
     0
100
AcDbTrace
 10
2236.666963569664
 20
881.5041831212434
 30
0.0
 11
2236.666963569664
 21
880.6708497879101
 31
0.0
 12
2239.166963569664
 22
881.0875164545768
 32
0.0
 13
2239.166963569664
 23
881.0875164545768
 33
0.0
  0
MTEXT
  5
1317
330
12BC
100
AcDbEntity
  8
0
 62
     0
100
AcDbMText
 10
2258.125296902997
 20
887.5458497879103
 30
0.0
 40
10.0
 41
0.0
 46
0.0
 71
     5
 72
     1
  1
22,8
 73
     1
 44
1.0
  0
POINT
  5
1318
330
12BC
100
AcDbEntity
  8
Defpoints
 62
     0
100
AcDbPoint
 10
2216.327974307913
 20
880.1871995579176
 30
0.0
  0
POINT
  5
1319
330
12BC
100
AcDbEntity
  8
Defpoints
 62
     0
100
AcDbPoint
 10
2239.166963569664
 20
880.1871995579176
 30
0.0
  0
POINT
  5
131A
330
12BC
100
AcDbEntity
  8
Defpoints
 62
     0
100
AcDbPoint
 10
2239.166963569664
 20
881.0875164545768
 30
0.0
  0
ENDBLK
  5
12C8
330
12BC
100
AcDbEntity
  8
0
100
AcDbBlockEnd
  0
BLOCK
  5
1321
330
1320
100
AcDbEntity
  8
0
100
AcDbBlockBegin
  2
*D96
 70
     1
 10
0.0
 20
0.0
 30
0.0
  3
*D96
  1

  0
LINE
  5
1322
330
1320
100
AcDbEntity
  8
0
 62
     0
370
    -2
100
AcDbLine
 10
2138.495596657289
 20
1135.837864136519
 30
0.0
 11
2139.120596657289
 21
1135.837864136519
 31
0.0
  0
LINE
  5
1323
330
1320
100
AcDbEntity
  8
0
 62
     0
370
    -2
100
AcDbLine
 10
2137.245596657289
 20
869.8378641365202
 30
0.0
 11
2136.620596657289
 21
869.8378641365202
 31
0.0
  0
LINE
  5
1324
330
1320
100
AcDbEntity
  8
0
 62
     0
370
    -2
100
AcDbLine
 10
2137.87059665729
 20
1133.337864136519
 30
0.0
 11
2137.87059665729
 21
872.3378641365203
 31
0.0
  0
SOLID
  5
1325
330
1320
100
AcDbEntity
  8
0
 62
     0
100
AcDbTrace
 10
2137.453929990623
 20
1133.337864136519
 30
0.0
 11
2138.287263323956
 21
1133.337864136519
 31
0.0
 12
2137.87059665729
 22
1135.837864136519
 32
0.0
 13
2137.87059665729
 23
1135.837864136519
 33
0.0
  0
SOLID
  5
1326
330
1320
100
AcDbEntity
  8
0
 62
     0
100
AcDbTrace
 10
2137.453929990623
 20
872.3378641365203
 30
0.0
 11
2138.287263323956
 21
872.3378641365203
 31
0.0
 12
2137.87059665729
 22
869.8378641365202
 32
0.0
 13
2137.87059665729
 23
869.8378641365202
 33
0.0
  0
MTEXT
  5
1327
330
1320
100
AcDbEntity
  8
0
 62
     0
100
AcDbMText
 10
2132.245596657289
 20
1002.83786413652
 30
0.0
 40
10.0
 41
0.0
 46
0.0
 71
     5
 72
     1
  1
266
 11
0.0000000000000001
 21
1.0
 31
0.0
 73
     1
 44
1.0
  0
POINT
  5
1328
330
1320
100
AcDbEntity
  8
Defpoints
 62
     0
100
AcDbPoint
 10
2137.87059665729
 20
1135.837864136519
 30
0.0
  0
POINT
  5
1329
330
1320
100
AcDbEntity
  8
Defpoints
 62
     0
100
AcDbPoint
 10
2137.87059665729
 20
869.8378641365202
 30
0.0
  0
POINT
  5
132A
330
1320
100
AcDbEntity
  8
Defpoints
 62
     0
100
AcDbPoint
 10
2137.87059665729
 20
869.8378641365202
 30
0.0
  0
ENDBLK
  5
132B
330
1320
100
AcDbEntity
  8
0
100
AcDbBlockEnd
  0
BLOCK
  5
132D
330
132C
100
AcDbEntity
  8
0
100
AcDbBlockBegin
  2
*D97
 70
     1
 10
0.0
 20
0.0
 30
0.0
  3
*D97
  1

  0
LINE
  5
132E
330
132C
100
AcDbEntity
  8
0
 62
     0
370
    -2
100
AcDbLine
 10
1921.834079398511
 20
1091.306683022028
 30
0.0
 11
1921.834079398511
 21
1091.931683022028
 31
0.0
  0
LINE
  5
132F
330
132C
100
AcDbEntity
  8
0
 62
     0
370
    -2
100
AcDbLine
 10
2187.83407939851
 20
1091.306683022028
 30
0.0
 11
2187.83407939851
 21
1091.931683022028
 31
0.0
  0
LINE
  5
1330
330
132C
100
AcDbEntity
  8
0
 62
     0
370
    -2
100
AcDbLine
 10
1924.334079398511
 20
1090.681683022028
 30
0.0
 11
2185.33407939851
 21
1090.681683022028
 31
0.0
  0
SOLID
  5
1331
330
132C
100
AcDbEntity
  8
0
 62
     0
100
AcDbTrace
 10
1924.334079398511
 20
1091.098349688695
 30
0.0
 11
1924.334079398511
 21
1090.265016355362
 31
0.0
 12
1921.834079398511
 22
1090.681683022028
 32
0.0
 13
1921.834079398511
 23
1090.681683022028
 33
0.0
  0
SOLID
  5
1332
330
132C
100
AcDbEntity
  8
0
 62
     0
100
AcDbTrace
 10
2185.33407939851
 20
1091.098349688695
 30
0.0
 11
2185.33407939851
 21
1090.265016355362
 31
0.0
 12
2187.83407939851
 22
1090.681683022028
 32
0.0
 13
2187.83407939851
 23
1090.681683022028
 33
0.0
  0
MTEXT
  5
1333
330
132C
100
AcDbEntity
  8
0
 62
     0
100
AcDbMText
 10
2054.83407939851
 20
1096.306683022028
 30
0.0
 40
10.0
 41
0.0
 46
0.0
 71
     5
 72
     1
  1
266
 73
     1
 44
1.0
  0
POINT
  5
1334
330
132C
100
AcDbEntity
  8
Defpoints
 62
     0
100
AcDbPoint
 10
1921.834079398511
 20
1090.681683022028
 30
0.0
  0
POINT
  5
1335
330
132C
100
AcDbEntity
  8
Defpoints
 62
     0
100
AcDbPoint
 10
2187.83407939851
 20
1090.681683022028
 30
0.0
  0
POINT
  5
1336
330
132C
100
AcDbEntity
  8
Defpoints
 62
     0
100
AcDbPoint
 10
2187.83407939851
 20
1090.681683022028
 30
0.0
  0
ENDBLK
  5
1337
330
132C
100
AcDbEntity
  8
0
100
AcDbBlockEnd
  0
BLOCK
  5
1339
330
1338
100
AcDbEntity
  8
0
100
AcDbBlockBegin
  2
*D98
 70
     1
 10
0.0
 20
0.0
 30
0.0
  3
*D98
  1

  0
LINE
  5
133A
330
1338
100
AcDbEntity
  8
0
 62
     0
370
    -2
100
AcDbLine
 10
2187.83407939851
 20
968.1245894153096
 30
0.0
 11
2187.83407939851
 21
968.7495894153098
 31
0.0
  0
LINE
  5
133B
330
1338
100
AcDbEntity
  8
0
 62
     0
370
    -2
100
AcDbLine
 10
2225.83407939851
 20
968.1245894153096
 30
0.0
 11
2225.83407939851
 21
968.7495894153098
 31
0.0
  0
LINE
  5
133C
330
1338
100
AcDbEntity
  8
0
 62
     0
370
    -2
100
AcDbLine
 10
2190.33407939851
 20
967.49958941531
 30
0.0
 11
2223.33407939851
 21
967.49958941531
 31
0.0
  0
SOLID
  5
133D
330
1338
100
AcDbEntity
  8
0
 62
     0
100
AcDbTrace
 10
2190.33407939851
 20
967.9162560819763
 30
0.0
 11
2190.33407939851
 21
967.0829227486432
 31
0.0
 12
2187.83407939851
 22
967.49958941531
 32
0.0
 13
2187.83407939851
 23
967.49958941531
 33
0.0
  0
SOLID
  5
133E
330
1338
100
AcDbEntity
  8
0
 62
     0
100
AcDbTrace
 10
2223.33407939851
 20
967.9162560819763
 30
0.0
 11
2223.33407939851
 21
967.0829227486432
 31
0.0
 12
2225.83407939851
 22
967.49958941531
 32
0.0
 13
2225.83407939851
 23
967.49958941531
 33
0.0
  0
MTEXT
  5
133F
330
1338
100
AcDbEntity
  8
0
 62
     0
100
AcDbMText
 10
2206.834079398511
 20
973.1245894153101
 30
0.0
 40
10.0
 41
0.0
 46
0.0
 71
     5
 72
     1
  1
38
 73
     1
 44
1.0
  0
POINT
  5
1340
330
1338
100
AcDbEntity
  8
Defpoints
 62
     0
100
AcDbPoint
 10
2187.83407939851
 20
967.49958941531
 30
0.0
  0
POINT
  5
1341
330
1338
100
AcDbEntity
  8
Defpoints
 62
     0
100
AcDbPoint
 10
2225.83407939851
 20
967.49958941531
 30
0.0
  0
POINT
  5
1342
330
1338
100
AcDbEntity
  8
Defpoints
 62
     0
100
AcDbPoint
 10
2225.83407939851
 20
967.49958941531
 30
0.0
  0
ENDBLK
  5
1343
330
1338
100
AcDbEntity
  8
0
100
AcDbBlockEnd
  0
BLOCK
  5
1345
330
1344
100
AcDbEntity
  8
0
100
AcDbBlockBegin
  2
*D99
 70
     1
 10
0.0
 20
0.0
 30
0.0
  3
*D99
  1

  0
LINE
  5
1346
330
1344
100
AcDbEntity
  8
0
 62
     0
370
    -2
100
AcDbLine
 10
1829.334079398511
 20
1096.712864136519
 30
0.0
 11
1829.334079398511
 21
1279.037113691855
 31
0.0
  0
LINE
  5
1347
330
1344
100
AcDbEntity
  8
0
 62
     0
370
    -2
100
AcDbLine
 10
2280.33407939851
 20
1096.712864136519
 30
0.0
 11
2280.33407939851
 21
1279.037113691855
 31
0.0
  0
LINE
  5
1348
330
1344
100
AcDbEntity
  8
0
 62
     0
370
    -2
100
AcDbLine
 10
1831.834079398511
 20
1277.787113691855
 30
0.0
 11
2277.834079398511
 21
1277.787113691855
 31
0.0
  0
SOLID
  5
1349
330
1344
100
AcDbEntity
  8
0
 62
     0
100
AcDbTrace
 10
1831.834079398511
 20
1278.203780358522
 30
0.0
 11
1831.834079398511
 21
1277.370447025188
 31
0.0
 12
1829.334079398511
 22
1277.787113691855
 32
0.0
 13
1829.334079398511
 23
1277.787113691855
 33
0.0
  0
SOLID
  5
134A
330
1344
100
AcDbEntity
  8
0
 62
     0
100
AcDbTrace
 10
2277.834079398511
 20
1278.203780358522
 30
0.0
 11
2277.834079398511
 21
1277.370447025188
 31
0.0
 12
2280.33407939851
 22
1277.787113691855
 32
0.0
 13
2280.33407939851
 23
1277.787113691855
 33
0.0
  0
MTEXT
  5
134B
330
1344
100
AcDbEntity
  8
0
 62
     0
100
AcDbMText
 10
2054.83407939851
 20
1283.412113691855
 30
0.0
 40
10.0
 41
0.0
 46
0.0
 71
     5
 72
     1
  1
451
 73
     1
 44
1.0
  0
POINT
  5
134C
330
1344
100
AcDbEntity
  8
Defpoints
 62
     0
100
AcDbPoint
 10
1829.334079398511
 20
1096.087864136519
 30
0.0
  0
POINT
  5
134D
330
1344
100
AcDbEntity
  8
Defpoints
 62
     0
100
AcDbPoint
 10
2280.33407939851
 20
1096.087864136519
 30
0.0
  0
POINT
  5
134E
330
1344
100
AcDbEntity
  8
Defpoints
 62
     0
100
AcDbPoint
 10
2280.33407939851
 20
1277.787113691855
 30
0.0
  0
ENDBLK
  5
134F
330
1344
100
AcDbEntity
  8
0
100
AcDbBlockEnd
  0
BLOCK
  5
1351
330
1350
100
AcDbEntity
  8
0
100
AcDbBlockBegin
  2
*D100
 70
     1
 10
0.0
 20
0.0
 30
0.0
  3
*D100
  1

  0
LINE
  5
1352
330
1350
100
AcDbEntity
  8
0
 62
     0
370
    -2
100
AcDbLine
 10
2154.95907939851
 20
1228.337864136521
 30
0.0
 11
2321.90414185294
 21
1228.337864136521
 31
0.0
  0
LINE
  5
1353
330
1350
100
AcDbEntity
  8
0
 62
     0
370
    -2
100
AcDbLine
 10
2154.95907939851
 20
777.3378641365187
 30
0.0
 11
2321.90414185294
 21
777.3378641365187
 31
0.0
  0
LINE
  5
1354
330
1350
100
AcDbEntity
  8
0
 62
     0
370
    -2
100
AcDbLine
 10
2320.654141852939
 20
1225.837864136521
 30
0.0
 11
2320.654141852939
 21
779.8378641365188
 31
0.0
  0
SOLID
  5
1355
330
1350
100
AcDbEntity
  8
0
 62
     0
100
AcDbTrace
 10
2320.237475186273
 20
1225.837864136521
 30
0.0
 11
2321.070808519606
 21
1225.837864136521
 31
0.0
 12
2320.654141852939
 22
1228.337864136521
 32
0.0
 13
2320.654141852939
 23
1228.337864136521
 33
0.0
  0
SOLID
  5
1356
330
1350
100
AcDbEntity
  8
0
 62
     0
100
AcDbTrace
 10
2320.237475186272
 20
779.8378641365188
 30
0.0
 11
2321.070808519605
 21
779.8378641365188
 31
0.0
 12
2320.654141852939
 22
777.3378641365187
 32
0.0
 13
2320.654141852939
 23
777.3378641365187
 33
0.0
  0
MTEXT
  5
1357
330
1350
100
AcDbEntity
  8
0
 62
     0
100
AcDbMText
 10
2315.029141852939
 20
1002.83786413652
 30
0.0
 40
10.0
 41
0.0
 46
0.0
 71
     5
 72
     1
  1
451
 11
0.0000000000000001
 21
1.0
 31
0.0
 73
     1
 44
1.0
  0
POINT
  5
1358
330
1350
100
AcDbEntity
  8
Defpoints
 62
     0
100
AcDbPoint
 10
2154.33407939851
 20
1228.337864136521
 30
0.0
  0
POINT
  5
1359
330
1350
100
AcDbEntity
  8
Defpoints
 62
     0
100
AcDbPoint
 10
2154.33407939851
 20
777.3378641365187
 30
0.0
  0
POINT
  5
135A
330
1350
100
AcDbEntity
  8
Defpoints
 62
     0
100
AcDbPoint
 10
2320.654141852939
 20
777.3378641365187
 30
0.0
  0
ENDBLK
  5
135B
330
1350
100
AcDbEntity
  8
0
100
AcDbBlockEnd
  0
BLOCK
  5
14DA
330
14D0
100
AcDbEntity
  8
0
100
AcDbBlockBegin
  2
*D101
 70
     1
 10
0.0
 20
0.0
 30
0.0
  3
*D101
  1

  0
LINE
  5
168F
330
14D0
100
AcDbEntity
  8
0
 62
     0
370
    -2
100
AcDbLine
 10
1647.901567033716
 20
995.3644380261508
 30
0.0
 11
1647.901567033716
 21
995.9894380261507
 31
0.0
  0
LINE
  5
1690
330
14D0
100
AcDbEntity
  8
0
 62
     0
370
    -2
100
AcDbLine
 10
1863.901567033716
 20
995.3644380261508
 30
0.0
 11
1863.901567033716
 21
995.9894380261507
 31
0.0
  0
LINE
  5
1691
330
14D0
100
AcDbEntity
  8
0
 62
     0
370
    -2
100
AcDbLine
 10
1650.401567033717
 20
994.7394380261508
 30
0.0
 11
1861.401567033716
 21
994.7394380261508
 31
0.0
  0
SOLID
  5
1692
330
14D0
100
AcDbEntity
  8
0
 62
     0
100
AcDbTrace
 10
1650.401567033717
 20
995.1561046928176
 30
0.0
 11
1650.401567033717
 21
994.3227713594842
 31
0.0
 12
1647.901567033716
 22
994.7394380261508
 32
0.0
 13
1647.901567033716
 23
994.7394380261508
 33
0.0
  0
SOLID
  5
1693
330
14D0
100
AcDbEntity
  8
0
 62
     0
100
AcDbTrace
 10
1861.401567033716
 20
995.1561046928176
 30
0.0
 11
1861.401567033716
 21
994.3227713594842
 31
0.0
 12
1863.901567033716
 22
994.7394380261508
 32
0.0
 13
1863.901567033716
 23
994.7394380261508
 33
0.0
  0
MTEXT
  5
1694
330
14D0
100
AcDbEntity
  8
0
 62
     0
100
AcDbMText
 10
1755.901567033716
 20
1000.364438026151
 30
0.0
 40
10.0
 41
0.0
 46
0.0
 71
     5
 72
     1
  1
216
 73
     1
 44
1.0
  0
POINT
  5
1695
330
14D0
100
AcDbEntity
  8
Defpoints
 62
     0
100
AcDbPoint
 10
1647.901567033716
 20
994.7394380261508
 30
0.0
  0
POINT
  5
1696
330
14D0
100
AcDbEntity
  8
Defpoints
 62
     0
100
AcDbPoint
 10
1863.901567033716
 20
994.7394380261508
 30
0.0
  0
POINT
  5
1697
330
14D0
100
AcDbEntity
  8
Defpoints
 62
     0
100
AcDbPoint
 10
1863.901567033716
 20
994.7394380261508
 30
0.0
  0
ENDBLK
  5
14DB
330
14D0
100
AcDbEntity
  8
0
100
AcDbBlockEnd
  0
BLOCK
  5
14E6
330
14DC
100
AcDbEntity
  8
0
100
AcDbBlockBegin
  2
*D102
 70
     1
 10
0.0
 20
0.0
 30
0.0
  3
*D102
  1

  0
LINE
  5
1686
330
14DC
100
AcDbEntity
  8
0
 62
     0
370
    -2
100
AcDbLine
 10
1863.901567033716
 20
895.3368732928755
 30
0.0
 11
1863.901567033716
 21
895.9618732928753
 31
0.0
  0
LINE
  5
1687
330
14DC
100
AcDbEntity
  8
0
 62
     0
370
    -2
100
AcDbLine
 10
1901.901567033716
 20
895.3368732928755
 30
0.0
 11
1901.901567033716
 21
895.9618732928753
 31
0.0
  0
LINE
  5
1688
330
14DC
100
AcDbEntity
  8
0
 62
     0
370
    -2
100
AcDbLine
 10
1866.401567033715
 20
894.7118732928755
 30
0.0
 11
1899.401567033716
 21
894.7118732928755
 31
0.0
  0
SOLID
  5
1689
330
14DC
100
AcDbEntity
  8
0
 62
     0
100
AcDbTrace
 10
1866.401567033715
 20
895.128539959542
 30
0.0
 11
1866.401567033715
 21
894.2952066262089
 31
0.0
 12
1863.901567033716
 22
894.7118732928755
 32
0.0
 13
1863.901567033716
 23
894.7118732928755
 33
0.0
  0
SOLID
  5
168A
330
14DC
100
AcDbEntity
  8
0
 62
     0
100
AcDbTrace
 10
1899.401567033716
 20
895.128539959542
 30
0.0
 11
1899.401567033716
 21
894.2952066262089
 31
0.0
 12
1901.901567033716
 22
894.7118732928755
 32
0.0
 13
1901.901567033716
 23
894.7118732928755
 33
0.0
  0
MTEXT
  5
168B
330
14DC
100
AcDbEntity
  8
0
 62
     0
100
AcDbMText
 10
1882.901567033716
 20
900.3368732928754
 30
0.0
 40
10.0
 41
0.0
 46
0.0
 71
     5
 72
     1
  1
38
 73
     1
 44
1.0
  0
POINT
  5
168C
330
14DC
100
AcDbEntity
  8
Defpoints
 62
     0
100
AcDbPoint
 10
1863.901567033716
 20
894.7118732928755
 30
0.0
  0
POINT
  5
168D
330
14DC
100
AcDbEntity
  8
Defpoints
 62
     0
100
AcDbPoint
 10
1901.901567033716
 20
894.7118732928755
 30
0.0
  0
POINT
  5
168E
330
14DC
100
AcDbEntity
  8
Defpoints
 62
     0
100
AcDbPoint
 10
1901.901567033716
 20
894.7118732928755
 30
0.0
  0
ENDBLK
  5
14E7
330
14DC
100
AcDbEntity
  8
0
100
AcDbBlockEnd
  0
BLOCK
  5
14F2
330
14E8
100
AcDbEntity
  8
0
100
AcDbBlockBegin
  2
*D103
 70
     1
 10
0.0
 20
0.0
 30
0.0
  3
*D103
  1

  0
LINE
  5
16A1
330
14E8
100
AcDbEntity
  8
0
 62
     0
370
    -2
100
AcDbLine
 10
1555.401567033716
 20
992.2826151717524
 30
0.0
 11
1555.401567033716
 21
1184.606864727087
 31
0.0
  0
LINE
  5
16A2
330
14E8
100
AcDbEntity
  8
0
 62
     0
370
    -2
100
AcDbLine
 10
1956.401567033716
 20
1002.282615171752
 30
0.0
 11
1956.401567033716
 21
1184.606864727087
 31
0.0
  0
LINE
  5
16A3
330
14E8
100
AcDbEntity
  8
0
 62
     0
370
    -2
100
AcDbLine
 10
1557.901567033717
 20
1183.356864727088
 30
0.0
 11
1953.901567033716
 21
1183.356864727088
 31
0.0
  0
SOLID
  5
16A4
330
14E8
100
AcDbEntity
  8
0
 62
     0
100
AcDbTrace
 10
1557.901567033717
 20
1183.773531393754
 30
0.0
 11
1557.901567033717
 21
1182.940198060421
 31
0.0
 12
1555.401567033716
 22
1183.356864727088
 32
0.0
 13
1555.401567033716
 23
1183.356864727088
 33
0.0
  0
SOLID
  5
16A5
330
14E8
100
AcDbEntity
  8
0
 62
     0
100
AcDbTrace
 10
1953.901567033716
 20
1183.773531393754
 30
0.0
 11
1953.901567033716
 21
1182.940198060421
 31
0.0
 12
1956.401567033716
 22
1183.356864727088
 32
0.0
 13
1956.401567033716
 23
1183.356864727088
 33
0.0
  0
MTEXT
  5
16A6
330
14E8
100
AcDbEntity
  8
0
 62
     0
100
AcDbMText
 10
1755.901567033716
 20
1188.981864727088
 30
0.0
 40
10.0
 41
0.0
 46
0.0
 71
     5
 72
     1
  1
401
 73
     1
 44
1.0
  0
POINT
  5
16A7
330
14E8
100
AcDbEntity
  8
Defpoints
 62
     0
100
AcDbPoint
 10
1555.401567033716
 20
991.6576151717523
 30
0.0
  0
POINT
  5
16A8
330
14E8
100
AcDbEntity
  8
Defpoints
 62
     0
100
AcDbPoint
 10
1956.401567033716
 20
1001.657615171752
 30
0.0
  0
POINT
  5
16A9
330
14E8
100
AcDbEntity
  8
Defpoints
 62
     0
100
AcDbPoint
 10
1956.401567033716
 20
1183.356864727088
 30
0.0
  0
ENDBLK
  5
14F3
330
14E8
100
AcDbEntity
  8
0
100
AcDbBlockEnd
  0
BLOCK
  5
14FE
330
14F4
100
AcDbEntity
  8
0
100
AcDbBlockBegin
  2
*D104
 70
     1
 10
0.0
 20
0.0
 30
0.0
  3
*D104
  1

  0
LINE
  5
167D
330
14F4
100
AcDbEntity
  8
0
 62
     0
370
    -2
100
AcDbLine
 10
1841.026567033716
 20
1123.907615171753
 30
0.0
 11
2007.971629488146
 21
1123.907615171753
 31
0.0
  0
LINE
  5
167E
330
14F4
100
AcDbEntity
  8
0
 62
     0
370
    -2
100
AcDbLine
 10
1831.026567033716
 20
722.9076151717515
 30
0.0
 11
2007.971629488146
 21
722.9076151717515
 31
0.0
  0
LINE
  5
167F
330
14F4
100
AcDbEntity
  8
0
 62
     0
370
    -2
100
AcDbLine
 10
2006.721629488145
 20
1121.407615171754
 30
0.0
 11
2006.721629488145
 21
725.4076151717517
 31
0.0
  0
SOLID
  5
1680
330
14F4
100
AcDbEntity
  8
0
 62
     0
100
AcDbTrace
 10
2006.304962821478
 20
1121.407615171754
 30
0.0
 11
2007.138296154812
 21
1121.407615171754
 31
0.0
 12
2006.721629488145
 22
1123.907615171753
 32
0.0
 13
2006.721629488145
 23
1123.907615171753
 33
0.0
  0
SOLID
  5
1681
330
14F4
100
AcDbEntity
  8
0
 62
     0
100
AcDbTrace
 10
2006.304962821478
 20
725.4076151717517
 30
0.0
 11
2007.138296154812
 21
725.4076151717517
 31
0.0
 12
2006.721629488145
 22
722.9076151717515
 32
0.0
 13
2006.721629488145
 23
722.9076151717515
 33
0.0
  0
MTEXT
  5
1682
330
14F4
100
AcDbEntity
  8
0
 62
     0
100
AcDbMText
 10
2001.096629488145
 20
923.4076151717529
 30
0.0
 40
10.0
 41
0.0
 46
0.0
 71
     5
 72
     1
  1
401
 11
0.0000000000000001
 21
1.0
 31
0.0
 73
     1
 44
1.0
  0
POINT
  5
1683
330
14F4
100
AcDbEntity
  8
Defpoints
 62
     0
100
AcDbPoint
 10
1840.401567033716
 20
1123.907615171753
 30
0.0
  0
POINT
  5
1684
330
14F4
100
AcDbEntity
  8
Defpoints
 62
     0
100
AcDbPoint
 10
1830.401567033716
 20
722.9076151717515
 30
0.0
  0
POINT
  5
1685
330
14F4
100
AcDbEntity
  8
Defpoints
 62
     0
100
AcDbPoint
 10
2006.721629488145
 20
722.9076151717515
 30
0.0
  0
ENDBLK
  5
14FF
330
14F4
100
AcDbEntity
  8
0
100
AcDbBlockEnd
  0
BLOCK
  5
150A
330
1500
100
AcDbEntity
  8
0
100
AcDbBlockBegin
  2
*D105
 70
     1
 10
0.0
 20
0.0
 30
0.0
  3
*D105
  1

  0
LINE
  5
1698
330
1500
100
AcDbEntity
  8
0
 62
     0
370
    -2
100
AcDbLine
 10
1822.704716386709
 20
1031.407615171752
 30
0.0
 11
1822.079716386709
 21
1031.407615171752
 31
0.0
  0
LINE
  5
1699
330
1500
100
AcDbEntity
  8
0
 62
     0
370
    -2
100
AcDbLine
 10
1822.704716386709
 20
815.4076151717529
 30
0.0
 11
1822.079716386709
 21
815.4076151717529
 31
0.0
  0
LINE
  5
169A
330
1500
100
AcDbEntity
  8
0
 62
     0
370
    -2
100
AcDbLine
 10
1823.329716386709
 20
1028.907615171752
 30
0.0
 11
1823.329716386709
 21
817.9076151717531
 31
0.0
  0
SOLID
  5
169B
330
1500
100
AcDbEntity
  8
0
 62
     0
100
AcDbTrace
 10
1822.913049720042
 20
1028.907615171752
 30
0.0
 11
1823.746383053376
 21
1028.907615171752
 31
0.0
 12
1823.329716386709
 22
1031.407615171752
 32
0.0
 13
1823.329716386709
 23
1031.407615171752
 33
0.0
  0
SOLID
  5
169C
330
1500
100
AcDbEntity
  8
0
 62
     0
100
AcDbTrace
 10
1822.913049720042
 20
817.9076151717531
 30
0.0
 11
1823.746383053376
 21
817.9076151717531
 31
0.0
 12
1823.329716386709
 22
815.4076151717529
 32
0.0
 13
1823.329716386709
 23
815.4076151717529
 33
0.0
  0
MTEXT
  5
169D
330
1500
100
AcDbEntity
  8
0
 62
     0
100
AcDbMText
 10
1817.704716386709
 20
923.4076151717529
 30
0.0
 40
10.0
 41
0.0
 46
0.0
 71
     5
 72
     1
  1
216
 11
0.0000000000000001
 21
1.0
 31
0.0
 73
     1
 44
1.0
  0
POINT
  5
169E
330
1500
100
AcDbEntity
  8
Defpoints
 62
     0
100
AcDbPoint
 10
1823.329716386709
 20
1031.407615171752
 30
0.0
  0
POINT
  5
169F
330
1500
100
AcDbEntity
  8
Defpoints
 62
     0
100
AcDbPoint
 10
1823.329716386709
 20
815.4076151717529
 30
0.0
  0
POINT
  5
16A0
330
1500
100
AcDbEntity
  8
Defpoints
 62
     0
100
AcDbPoint
 10
1823.329716386709
 20
815.4076151717529
 30
0.0
  0
ENDBLK
  5
150B
330
1500
100
AcDbEntity
  8
0
100
AcDbBlockEnd
  0
ENDSEC
  0
SECTION
  2
ENTITIES
  0
LINE
  5
141
330
1F
100
AcDbEntity
  8
0
 62
     1
100
AcDbLine
 10
1308.628199623015
 20
1080.354498474443
 30
0.0
 11
1308.628199623015
 21
1235.354498474443
 31
0.0
  0
LINE
  5
143
330
1F
100
AcDbEntity
  8
0
 62
     2
100
AcDbLine
 10
1312.628199623015
 20
1080.354498474443
 30
0.0
 11
1463.628199623015
 21
1080.354498474443
 31
0.0
  0
LINE
  5
14A
330
1F
100
AcDbEntity
  8
0
 62
     1
100
AcDbLine
 10
1308.628199623015
 20
1235.354498474443
 30
0.0
 11
1267.628199623015
 21
1235.354498474443
 31
0.0
  0
LINE
  5
14C
330
1F
100
AcDbEntity
  8
0
 62
     1
100
AcDbLine
 10
1255.628199623015
 20
1170.354498474443
 30
0.0
 11
1255.628199623015
 21
1235.354498474443
 31
0.0
  0
LINE
  5
14E
102
{ACAD_REACTORS
330
34D
330
365
102
}
330
1F
100
AcDbEntity
  8
0
 62
     2
100
AcDbLine
 10
1308.628199623015
 20
870.354498474443
 30
0.0
 11
1308.628199623015
 21
1080.354498474443
 31
0.0
  0
LINE
  5
14F
102
{ACAD_REACTORS
330
335
102
}
330
1F
100
AcDbEntity
  8
0
 62
     2
100
AcDbLine
 10
1308.628199623015
 20
1080.354498474443
 30
0.0
 11
1098.628199623015
 21
1080.354498474443
 31
0.0
  0
LINE
  5
15A
330
1F
100
AcDbEntity
  8
0
 62
     1
100
AcDbLine
 10
1258.628199623015
 20
1170.354498474443
 30
0.0
 11
1255.628199623015
 21
1170.354498474443
 31
0.0
  0
LINE
  5
15E
330
1F
100
AcDbEntity
  8
0
 62
     1
100
AcDbLine
 10
1255.628199623015
 20
1223.354498474443
 30
0.0
 11
1267.628199623015
 21
1235.354498474443
 31
0.0
  0
LINE
  5
15F
330
1F
100
AcDbEntity
  8
0
 62
     1
100
AcDbLine
 10
1255.628199623015
 20
1235.354498474443
 30
0.0
 11
1151.628199623015
 21
1235.354498474443
 31
0.0
  0
ARC
  5
168
330
1F
100
AcDbEntity
  8
0
 62
     1
100
AcDbCircle
 10
1405.850229100732
 20
1029.325506927468
 30
0.0
 40
106.2746665873177
100
AcDbArc
 50
93.89661027464862
 51
151.3040568727318
  0
LINE
  5
169
330
1F
100
AcDbEntity
  8
0
 62
     1
100
AcDbLine
 10
1312.628199623015
 20
1080.354498474443
 30
0.0
 11
1308.628199623015
 21
1080.354498474443
 31
0.0
  0
LINE
  5
16A
330
1F
100
AcDbEntity
  8
0
 62
     1
100
AcDbLine
 10
1148.628199623016
 20
1170.354498474443
 30
0.0
 11
1151.628199623015
 21
1170.354498474443
 31
0.0
  0
LINE
  5
16B
330
1F
100
AcDbEntity
  8
0
 62
     1
100
AcDbLine
 10
1098.628199623015
 20
1235.354498474443
 30
0.0
 11
1139.628199623015
 21
1235.354498474443
 31
0.0
  0
LINE
  5
16C
102
{ACAD_REACTORS
330
3B0
102
}
330
1F
100
AcDbEntity
  8
0
 62
     1
100
AcDbLine
 10
1098.628199623015
 20
1080.354498474443
 30
0.0
 11
1098.628199623015
 21
1235.354498474443
 31
0.0
  0
LINE
  5
16D
330
1F
100
AcDbEntity
  8
0
 62
     1
100
AcDbLine
 10
1151.628199623015
 20
1170.354498474443
 30
0.0
 11
1151.628199623015
 21
1235.354498474443
 31
0.0
  0
LINE
  5
16E
330
1F
100
AcDbEntity
  8
0
 62
     2
100
AcDbLine
 10
1094.628199623015
 20
1080.354498474443
 30
0.0
 11
943.6281996230155
 21
1080.354498474443
 31
0.0
  0
LINE
  5
170
330
1F
100
AcDbEntity
  8
0
 62
     1
100
AcDbLine
 10
1151.628199623015
 20
1223.354498474443
 30
0.0
 11
1139.628199623015
 21
1235.354498474443
 31
0.0
  0
LINE
  5
173
330
1F
100
AcDbEntity
  8
0
 62
     1
100
AcDbLine
 10
1094.628199623015
 20
1080.354498474443
 30
0.0
 11
1098.628199623015
 21
1080.354498474443
 31
0.0
  0
LINE
  5
175
102
{ACAD_REACTORS
330
34D
102
}
330
1F
100
AcDbEntity
  8
0
 62
     2
100
AcDbLine
 10
1098.628199623015
 20
870.354498474443
 30
0.0
 11
1098.628199623015
 21
1080.354498474443
 31
0.0
  0
LINE
  5
176
102
{ACAD_REACTORS
330
335
102
}
330
1F
100
AcDbEntity
  8
0
 62
     2
100
AcDbLine
 10
1308.628199623015
 20
870.354498474443
 30
0.0
 11
1098.628199623015
 21
870.354498474443
 31
0.0
  0
LINE
  5
177
330
1F
100
AcDbEntity
  8
0
 62
     1
100
AcDbLine
 10
1258.628199623015
 20
780.354498474443
 30
0.0
 11
1255.628199623015
 21
780.354498474443
 31
0.0
  0
LINE
  5
178
330
1F
100
AcDbEntity
  8
0
 62
     1
100
AcDbLine
 10
1308.628199623015
 20
715.3544984744431
 30
0.0
 11
1267.628199623015
 21
715.3544984744431
 31
0.0
  0
LINE
  5
179
330
1F
100
AcDbEntity
  8
0
 62
     1
100
AcDbLine
 10
1255.628199623015
 20
715.3544984744431
 30
0.0
 11
1151.628199623015
 21
715.3544984744431
 31
0.0
  0
LINE
  5
17A
330
1F
100
AcDbEntity
  8
0
 62
     1
100
AcDbLine
 10
1308.628199623015
 20
870.354498474443
 30
0.0
 11
1308.628199623015
 21
715.3544984744431
 31
0.0
  0
LINE
  5
17B
330
1F
100
AcDbEntity
  8
0
 62
     1
100
AcDbLine
 10
1255.628199623015
 20
780.354498474443
 30
0.0
 11
1255.628199623015
 21
715.3544984744431
 31
0.0
  0
LINE
  5
17C
330
1F
100
AcDbEntity
  8
0
 62
     2
100
AcDbLine
 10
1312.628199623015
 20
870.354498474443
 30
0.0
 11
1463.628199623015
 21
870.354498474443
 31
0.0
  0
LINE
  5
17E
330
1F
100
AcDbEntity
  8
0
 62
     1
100
AcDbLine
 10
1255.628199623015
 20
727.3544984744431
 30
0.0
 11
1267.628199623015
 21
715.3544984744431
 31
0.0
  0
LINE
  5
181
330
1F
100
AcDbEntity
  8
0
 62
     1
100
AcDbLine
 10
1312.628199623015
 20
870.354498474443
 30
0.0
 11
1308.628199623015
 21
870.354498474443
 31
0.0
  0
LINE
  5
182
330
1F
100
AcDbEntity
  8
0
 62
     1
100
AcDbLine
 10
1148.628199623016
 20
780.354498474443
 30
0.0
 11
1151.628199623015
 21
780.354498474443
 31
0.0
  0
LINE
  5
183
330
1F
100
AcDbEntity
  8
0
 62
     1
100
AcDbLine
 10
1098.628199623015
 20
715.3544984744431
 30
0.0
 11
1139.628199623015
 21
715.3544984744431
 31
0.0
  0
LINE
  5
184
102
{ACAD_REACTORS
330
3B0
102
}
330
1F
100
AcDbEntity
  8
0
 62
     1
100
AcDbLine
 10
1098.628199623015
 20
870.354498474443
 30
0.0
 11
1098.628199623015
 21
715.3544984744431
 31
0.0
  0
LINE
  5
185
330
1F
100
AcDbEntity
  8
0
 62
     1
100
AcDbLine
 10
1151.628199623015
 20
780.354498474443
 30
0.0
 11
1151.628199623015
 21
715.3544984744431
 31
0.0
  0
LINE
  5
186
330
1F
100
AcDbEntity
  8
0
 62
     2
100
AcDbLine
 10
1094.628199623015
 20
870.354498474443
 30
0.0
 11
943.6281996230155
 21
870.354498474443
 31
0.0
  0
LINE
  5
188
330
1F
100
AcDbEntity
  8
0
 62
     1
100
AcDbLine
 10
1151.628199623015
 20
727.3544984744431
 30
0.0
 11
1139.628199623015
 21
715.3544984744431
 31
0.0
  0
LINE
  5
18B
330
1F
100
AcDbEntity
  8
0
 62
     1
100
AcDbLine
 10
1094.628199623015
 20
870.354498474443
 30
0.0
 11
1098.628199623015
 21
870.354498474443
 31
0.0
  0
LINE
  5
1ED
330
1F
100
AcDbEntity
  8
0
 62
     1
100
AcDbLine
 10
1398.628199623015
 20
1165.354498474443
 30
0.0
 11
1463.628199623015
 21
1165.354498474443
 31
0.0
  0
ARC
  5
1EF
330
1F
100
AcDbEntity
  8
0
 62
     1
100
AcDbCircle
 10
1398.628199623015
 20
1150.354498474443
 30
0.0
 40
15.0
100
AcDbArc
 50
90.0
 51
269.9999999999922
  0
ARC
  5
1F0
330
1F
100
AcDbEntity
  8
0
 62
     1
100
AcDbCircle
 10
1001.406170145298
 20
1029.325506927468
 30
0.0
 40
106.2746665873177
100
AcDbArc
 50
28.69594312726955
 51
86.10338972534975
  0
LINE
  5
1F1
330
1F
100
AcDbEntity
  8
0
 62
     1
100
AcDbLine
 10
1008.628199623015
 20
1165.354498474443
 30
0.0
 11
943.6281996230146
 21
1165.354498474443
 31
0.0
  0
ARC
  5
1F2
330
1F
100
AcDbEntity
  8
0
 62
     1
100
AcDbCircle
 10
1008.628199623015
 20
1150.354498474443
 30
0.0
 40
15.0
100
AcDbArc
 50
270.0
 51
90.0
  0
ARC
  5
1F3
330
1F
100
AcDbEntity
  8
0
 62
     1
100
AcDbCircle
 10
1405.850229100732
 20
921.3834900214179
 30
0.0
 40
106.2746665873177
100
AcDbArc
 50
208.6959431272698
 51
266.1033897253515
  0
LINE
  5
1F4
330
1F
100
AcDbEntity
  8
0
 62
     1
100
AcDbLine
 10
1398.628199623015
 20
785.3544984744431
 30
0.0
 11
1463.628199623015
 21
785.3544984744431
 31
0.0
  0
ARC
  5
1F5
330
1F
100
AcDbEntity
  8
0
 62
     1
100
AcDbCircle
 10
1398.628199623015
 20
800.3544984744431
 30
0.0
 40
15.0
100
AcDbArc
 50
90.00000000000785
 51
270.0
  0
ARC
  5
1F6
330
1F
100
AcDbEntity
  8
0
 62
     1
100
AcDbCircle
 10
1001.406170145298
 20
921.3834900214179
 30
0.0
 40
106.2746665873177
100
AcDbArc
 50
273.8966102746501
 51
331.3040568727299
  0
LINE
  5
1F7
330
1F
100
AcDbEntity
  8
0
 62
     1
100
AcDbLine
 10
1008.628199623015
 20
785.3544984744431
 30
0.0
 11
943.6281996230146
 21
785.3544984744431
 31
0.0
  0
ARC
  5
1F8
330
1F
100
AcDbEntity
  8
0
 62
     1
100
AcDbCircle
 10
1008.628199623015
 20
800.3544984744431
 30
0.0
 40
15.0
100
AcDbArc
 50
270.0
 51
90.00000000000005
  0
LINE
  5
1F9
102
{ACAD_REACTORS
330
398
102
}
330
1F
100
AcDbEntity
  8
0
 62
     1
100
AcDbLine
 10
943.6281996230146
 20
1165.354498474443
 30
0.0
 11
943.6281996230146
 21
785.3544984744431
 31
0.0
  0
LINE
  5
1FA
102
{ACAD_REACTORS
330
365
330
398
102
}
330
1F
100
AcDbEntity
  8
0
 62
     1
100
AcDbLine
 10
1463.628199623015
 20
1165.354498474443
 30
0.0
 11
1463.628199623015
 21
785.3544984744431
 31
0.0
  0
LINE
  5
1FB
330
1F
100
AcDbEntity
  8
0
 62
     1
100
AcDbLine
 10
1139.628199623015
 20
1235.354498474443
 30
0.0
 11
1098.628199623015
 21
1235.354498474443
 31
0.0
  0
LINE
  5
1FC
330
1F
100
AcDbEntity
  8
0
 62
     1
100
AcDbLine
 10
1139.628199623015
 20
715.3544984744431
 30
0.0
 11
1098.628199623015
 21
715.3544984744431
 31
0.0
  0
MTEXT
  5
212
330
1F
100
AcDbEntity
  8
0
100
AcDbMText
 10
1411.813451284469
 20
1415.252010473035
 30
0.0
 40
50.0
 41
450.7792316066061
 46
0.0
 71
     1
 72
     5
  1
6{\H1.1x;寸}
 73
     1
 44
1.0
  0
DIMENSION
  5
31E
102
{ACAD_XDICTIONARY
360
32B
102
}
102
{ACAD_REACTORS
330
335
102
}
330
1F
100
AcDbEntity
  8
0
 62
     3
100
AcDbDimension
  2
*D3
 10
1211.755725603733
 20
870.354498474443
 30
0.0
 11
1206.130725603733
 21
975.3544984744431
 31
0.0
 70
    32
 71
     5
 42
210.0
 73
     0
 74
     0
 75
     0
  3
ISO-25
100
AcDbAlignedDimension
 13
1232.62466800239
 23
1080.354498474443
 33
0.0
 14
1232.62466800239
 24
870.354498474443
 34
0.0
 50
90.0
100
AcDbRotatedDimension
  0
DIMENSION
  5
336
102
{ACAD_XDICTIONARY
360
343
102
}
102
{ACAD_REACTORS
330
34D
102
}
330
1F
100
AcDbEntity
  8
0
 62
     3
100
AcDbDimension
  2
*D4
 10
1308.628199623015
 20
900.2436485448463
 30
0.0
 11
1203.628199623015
 21
905.8686485448459
 31
0.0
 70
    32
 71
     5
 42
210.0
 73
     0
 74
     0
 75
     0
  3
ISO-25
100
AcDbAlignedDimension
 13
1098.628199623015
 23
919.0130607494877
 33
0.0
 14
1308.628199623015
 24
919.0130607494877
 34
0.0
100
AcDbRotatedDimension
  0
DIMENSION
  5
34E
102
{ACAD_XDICTIONARY
360
35B
102
}
102
{ACAD_REACTORS
330
365
102
}
330
1F
100
AcDbEntity
  8
0
 62
     3
100
AcDbDimension
  2
*D5
 10
1463.628199623015
 20
1032.781530808721
 30
0.0
 11
1386.128199623015
 21
1038.406530808721
 31
0.0
 70
    32
 71
     5
 42
155.0000000000002
 73
     0
 74
     0
 75
     0
  3
ISO-25
100
AcDbAlignedDimension
 13
1308.628199623015
 23
1035.859006318949
 33
0.0
 14
1463.628199623015
 24
1035.859006318949
 34
0.0
100
AcDbRotatedDimension
  0
DIMENSION
  5
381
102
{ACAD_XDICTIONARY
360
38E
102
}
102
{ACAD_REACTORS
330
398
102
}
330
1F
100
AcDbEntity
  8
0
 62
     3
100
AcDbDimension
  2
*D6
 10
1463.628199623015
 20
662.437057245818
 30
0.0
 11
1203.628199623015
 21
668.0620572458177
 31
0.0
 70
    32
 71
     5
 42
520.0000000000005
 73
     0
 74
     0
 75
     0
  3
ISO-25
100
AcDbAlignedDimension
 13
943.6281996230146
 23
785.3544984744431
 33
0.0
 14
1463.628199623015
 24
785.3544984744431
 34
0.0
100
AcDbRotatedDimension
  0
DIMENSION
  5
399
102
{ACAD_XDICTIONARY
360
3A6
102
}
102
{ACAD_REACTORS
330
3B0
102
}
330
1F
100
AcDbEntity
  8
0
 62
     3
100
AcDbDimension
  2
*D7
 10
867.7675798498196
 20
1235.354498474443
 30
0.0
 11
862.1425798498195
 21
975.3544984744431
 31
0.0
 70
    32
 71
     5
 42
520.0
 73
     0
 74
     0
 75
     0
  3
ISO-25
100
AcDbAlignedDimension
 13
1098.628199623015
 23
715.3544984744431
 33
0.0
 14
1098.628199623015
 24
1235.354498474443
 34
0.0
 50
90.0
100
AcDbRotatedDimension
  0
LINE
  5
1419
330
1F
100
AcDbEntity
  8
0
 62
     2
100
AcDbLine
 10
1647.901567033716
 20
1031.407615171752
 30
0.0
 11
1620.43710093965
 21
1058.872081265821
 31
0.0
  0
LINE
  5
141A
102
{ACAD_REACTORS
330
149F
330
14C9
102
}
330
1F
100
AcDbEntity
  8
0
 62
     2
100
AcDbLine
 10
1863.901567033716
 20
815.4076151717529
 30
0.0
 11
1863.901567033716
 21
1031.407615171752
 31
0.0
  0
LINE
  5
141B
102
{ACAD_REACTORS
330
149C
102
}
330
1F
100
AcDbEntity
  8
0
 62
     2
100
AcDbLine
 10
1863.901567033716
 20
1031.407615171752
 30
0.0
 11
1647.901567033716
 21
1031.407615171752
 31
0.0
  0
LWPOLYLINE
  5
141C
102
{ACAD_REACTORS
330
14C9
102
}
330
1F
100
AcDbEntity
  8
0
 62
     2
100
AcDbPolyline
 90
        2
 70
     0
 43
0.0
 10
1901.901567033716
 20
815.9076151717524
 10
1901.901567033716
 20
1030.907615171752
  0
LWPOLYLINE
  5
141D
330
1F
100
AcDbEntity
  8
0
 62
     2
100
AcDbPolyline
 90
        2
 70
     0
 43
0.0
 10
1861.901567033716
 20
1069.407615171752
 10
1648.901567033717
 20
1069.407615171752
  0
LWPOLYLINE
  5
141E
330
1F
100
AcDbEntity
  8
0
 62
     2
100
AcDbPolyline
 90
        2
 70
     0
 43
0.0
 10
1862.901567033716
 20
1106.907615171752
 10
1648.901567033717
 20
1106.907615171752
  0
LINE
  5
141F
102
{ACAD_REACTORS
330
14CF
102
}
330
1F
100
AcDbEntity
  8
0
 62
     1
100
AcDbLine
 10
1862.401567033716
 20
1123.907615171753
 30
0.0
 11
1818.401567033715
 21
1123.907615171753
 31
0.0
  0
LINE
  5
1420
330
1F
100
AcDbEntity
  8
0
 62
     1
100
AcDbLine
 10
1693.401567033715
 20
1123.907615171753
 30
0.0
 11
1649.401567033715
 21
1123.907615171753
 31
0.0
  0
LINE
  5
1421
102
{ACAD_REACTORS
330
149F
102
}
330
1F
100
AcDbEntity
  8
0
 62
     2
100
AcDbLine
 10
1647.901567033716
 20
815.4076151717529
 30
0.0
 11
1647.901567033716
 21
1031.407615171752
 31
0.0
  0
LWPOLYLINE
  5
1422
330
1F
100
AcDbEntity
  8
0
 62
     2
100
AcDbPolyline
 90
        2
 70
     0
 43
0.0
 10
1609.901567033716
 20
815.9076151717524
 10
1609.901567033716
 20
1030.907615171753
  0
LINE
  5
1426
330
1F
100
AcDbEntity
  8
0
 62
     1
100
AcDbLine
 10
1555.401567033718
 20
1017.407615171752
 30
0.0
 11
1574.401567033716
 21
1017.407615171752
 31
0.0
  0
LINE
  5
1427
330
1F
100
AcDbEntity
  8
0
 62
     1
100
AcDbLine
 10
1574.401567033716
 20
1017.407615171752
 30
0.0
 11
1574.401567033716
 21
1029.407615171752
 31
0.0
  0
LINE
  5
1428
330
1F
100
AcDbEntity
  8
0
 62
     1
100
AcDbLine
 10
1574.401567033716
 20
1029.407615171752
 30
0.0
 11
1578.401567033717
 21
1029.407615171753
 31
0.0
  0
LINE
  5
1429
330
1F
100
AcDbEntity
  8
0
 62
     1
100
AcDbLine
 10
1578.401567033717
 20
1029.407615171753
 30
0.0
 11
1578.401567033717
 21
1057.713425258475
 31
0.0
  0
LINE
  5
142A
330
1F
100
AcDbEntity
  8
0
 62
     2
100
AcDbLine
 10
1647.901567033716
 20
1031.407615171752
 30
0.0
 11
1647.901567033716
 21
1067.407615171752
 31
0.0
  0
LINE
  5
142B
330
1F
100
AcDbEntity
  8
0
 62
     2
100
AcDbLine
 10
1647.901567033716
 20
1031.407615171752
 30
0.0
 11
1611.224442689248
 21
1031.407615171752
 31
0.0
  0
LINE
  5
142C
330
1F
100
AcDbEntity
  8
0
 62
     1
100
AcDbLine
 10
1648.901567033717
 20
1106.907615171752
 30
0.0
 11
1648.901567033717
 21
1067.407615171752
 31
0.0
  0
LINE
  5
142D
330
1F
100
AcDbEntity
  8
0
 62
     1
100
AcDbLine
 10
1649.401567033716
 20
1118.907615171753
 30
0.0
 11
1647.901567033716
 21
1118.907615171753
 31
0.0
  0
LINE
  5
142E
330
1F
100
AcDbEntity
  8
0
 62
     1
100
AcDbLine
 10
1647.901567033716
 20
1107.407615171752
 30
0.0
 11
1647.901567033716
 21
1118.907615171753
 31
0.0
  0
LINE
  5
142F
330
1F
100
AcDbEntity
  8
0
 62
     1
100
AcDbLine
 10
1647.901567033716
 20
1107.407615171752
 30
0.0
 11
1648.901567033717
 21
1106.907615171752
 31
0.0
  0
LINE
  5
1430
330
1F
100
AcDbEntity
  8
0
 62
     1
100
AcDbLine
 10
1649.401567033716
 20
1118.907615171753
 30
0.0
 11
1649.401567033716
 21
1123.907615171753
 31
0.0
  0
LINE
  5
1431
330
1F
100
AcDbEntity
  8
0
 62
     1
100
AcDbLine
 10
1648.901567033717
 20
1067.407615171752
 30
0.0
 11
1623.972634845583
 21
1067.407615171752
 31
0.0
  0
ARC
  5
1432
330
1F
100
AcDbEntity
  8
0
 62
     1
100
AcDbCircle
 10
1623.972634845583
 20
1062.407615171752
 30
0.0
 40
5.0
100
AcDbArc
 50
90.0
 51
224.9999999999909
  0
LINE
  5
1433
330
1F
100
AcDbEntity
  8
0
 62
     1
100
AcDbLine
 10
1611.901567033716
 20
1032.907615171753
 30
0.0
 11
1611.901567033716
 21
1055.336547359889
 31
0.0
  0
ARC
  5
1434
330
1F
100
AcDbEntity
  8
0
 62
     1
100
AcDbCircle
 10
1616.901567033717
 20
1055.336547359889
 30
0.0
 40
5.0
100
AcDbArc
 50
44.99999999999096
 51
180.0
  0
LINE
  5
1435
330
1F
100
AcDbEntity
  8
0
 62
     1
100
AcDbLine
 10
1607.901567033717
 20
1032.907615171753
 30
0.0
 11
1607.901567033717
 21
1057.713425258475
 31
0.0
  0
LINE
  5
1436
330
1F
100
AcDbEntity
  8
0
 62
     2
100
AcDbLine
 10
1578.401567033717
 20
1030.907615171752
 30
0.0
 11
1609.901567033716
 21
1030.907615171752
 31
0.0
  0
LINE
  5
1437
330
1F
100
AcDbEntity
  8
0
 62
     1
100
AcDbLine
 10
1639.733786718813
 20
1039.575395486658
 30
0.0
 11
1627.358677408845
 21
1051.950504796626
 31
0.0
  0
LINE
  5
1438
330
1F
100
AcDbEntity
  8
0
 62
     1
100
AcDbLine
 10
1699.401567033716
 20
1117.907615171753
 30
0.0
 11
1812.401567033719
 21
1117.907615171753
 31
0.0
  0
ARC
  5
1439
330
1F
100
AcDbEntity
  8
0
 62
     1
100
AcDbCircle
 10
1699.401567033716
 20
1123.907615171753
 30
0.0
 40
6.0
100
AcDbArc
 50
180.0
 51
270.0
  0
ARC
  5
143A
330
1F
100
AcDbEntity
  8
0
 62
     1
100
AcDbCircle
 10
1812.401567033719
 20
1123.907615171753
 30
0.0
 40
6.0
100
AcDbArc
 50
270.0
 51
359.999999999987
  0
LWPOLYLINE
  5
144B
330
1F
100
AcDbEntity
  8
0
 62
     2
100
AcDbPolyline
 90
        2
 70
     0
 43
0.0
 10
1939.401567033717
 20
829.4076151717529
 10
1939.401567033717
 20
1017.407615171752
  0
LINE
  5
144C
330
1F
100
AcDbEntity
  8
0
 62
     1
100
AcDbLine
 10
1956.401567033716
 20
829.4076151717529
 30
0.0
 11
1956.401567033716
 21
860.9076151717509
 31
0.0
  0
LINE
  5
144D
102
{ACAD_REACTORS
330
14CC
102
}
330
1F
100
AcDbEntity
  8
0
 62
     1
100
AcDbLine
 10
1956.401567033716
 20
985.9076151717529
 30
0.0
 11
1956.401567033716
 21
1017.407615171752
 31
0.0
  0
LINE
  5
144E
330
1F
100
AcDbEntity
  8
0
 62
     1
100
AcDbLine
 10
1950.401567033716
 20
866.9076151717508
 30
0.0
 11
1950.401567033716
 21
979.9076151717526
 31
0.0
  0
ARC
  5
144F
330
1F
100
AcDbEntity
  8
0
 62
     1
100
AcDbCircle
 10
1956.401567033716
 20
866.9076151717508
 30
0.0
 40
6.0
100
AcDbArc
 50
180.0
 51
270.0
  0
ARC
  5
1450
330
1F
100
AcDbEntity
  8
0
 62
     1
100
AcDbCircle
 10
1956.401567033716
 20
979.9076151717526
 30
0.0
 40
6.0
100
AcDbArc
 50
90.0
 51
180.0
  0
ARC
  5
1451
330
1F
100
AcDbEntity
  8
0
 62
     1
100
AcDbCircle
 10
1609.901567033716
 20
1032.907615171753
 30
0.0
 40
2.000000000000063
100
AcDbArc
 50
180.0
 51
0.0
  0
LINE
  5
1452
330
1F
100
AcDbEntity
  8
0
 62
     2
100
AcDbLine
 10
1863.901567033716
 20
1031.407615171752
 30
0.0
 11
1891.366033127783
 21
1058.872081265821
 31
0.0
  0
LINE
  5
1453
330
1F
100
AcDbEntity
  8
0
 62
     1
100
AcDbLine
 10
1956.401567033716
 20
1017.407615171752
 30
0.0
 11
1937.401567033716
 21
1017.407615171752
 31
0.0
  0
LINE
  5
1454
330
1F
100
AcDbEntity
  8
0
 62
     1
100
AcDbLine
 10
1937.401567033716
 20
1017.407615171752
 30
0.0
 11
1937.401567033716
 21
1029.407615171752
 31
0.0
  0
LINE
  5
1455
330
1F
100
AcDbEntity
  8
0
 62
     1
100
AcDbLine
 10
1937.401567033716
 20
1029.407615171752
 30
0.0
 11
1933.401567033716
 21
1029.407615171753
 31
0.0
  0
LINE
  5
1456
330
1F
100
AcDbEntity
  8
0
 62
     2
100
AcDbLine
 10
1863.901567033716
 20
1031.407615171752
 30
0.0
 11
1863.901567033716
 21
1067.407615171752
 31
0.0
  0
LINE
  5
1457
330
1F
100
AcDbEntity
  8
0
 62
     2
100
AcDbLine
 10
1863.901567033716
 20
1031.407615171752
 30
0.0
 11
1900.578691378185
 21
1031.407615171752
 31
0.0
  0
LINE
  5
1458
330
1F
100
AcDbEntity
  8
0
 62
     1
100
AcDbLine
 10
1862.901567033716
 20
1106.907615171752
 30
0.0
 11
1862.901567033716
 21
1067.407615171752
 31
0.0
  0
LINE
  5
1459
330
1F
100
AcDbEntity
  8
0
 62
     1
100
AcDbLine
 10
1862.401567033716
 20
1118.907615171753
 30
0.0
 11
1863.901567033716
 21
1118.907615171753
 31
0.0
  0
LINE
  5
145A
330
1F
100
AcDbEntity
  8
0
 62
     1
100
AcDbLine
 10
1863.901567033716
 20
1107.407615171752
 30
0.0
 11
1863.901567033716
 21
1118.907615171753
 31
0.0
  0
LINE
  5
145B
330
1F
100
AcDbEntity
  8
0
 62
     1
100
AcDbLine
 10
1863.901567033716
 20
1107.407615171752
 30
0.0
 11
1862.901567033716
 21
1106.907615171752
 31
0.0
  0
LINE
  5
145C
330
1F
100
AcDbEntity
  8
0
 62
     1
100
AcDbLine
 10
1862.401567033716
 20
1118.907615171753
 30
0.0
 11
1862.401567033716
 21
1123.907615171753
 31
0.0
  0
LINE
  5
145D
330
1F
100
AcDbEntity
  8
0
 62
     1
100
AcDbLine
 10
1862.901567033716
 20
1067.407615171752
 30
0.0
 11
1887.830499221852
 21
1067.407615171752
 31
0.0
  0
ARC
  5
145E
330
1F
100
AcDbEntity
  8
0
 62
     1
100
AcDbCircle
 10
1887.830499221852
 20
1062.407615171752
 30
0.0
 40
5.0
100
AcDbArc
 50
315.000000000009
 51
90.0
  0
LINE
  5
145F
330
1F
100
AcDbEntity
  8
0
 62
     1
100
AcDbLine
 10
1899.901567033717
 20
1032.907615171753
 30
0.0
 11
1899.901567033717
 21
1055.336547359889
 31
0.0
  0
ARC
  5
1460
330
1F
100
AcDbEntity
  8
0
 62
     1
100
AcDbCircle
 10
1894.901567033716
 20
1055.336547359889
 30
0.0
 40
5.0
100
AcDbArc
 50
0.0
 51
135.000000000009
  0
LINE
  5
1461
330
1F
100
AcDbEntity
  8
0
 62
     2
100
AcDbLine
 10
1933.401567033716
 20
1030.907615171752
 30
0.0
 11
1901.901567033716
 21
1030.907615171752
 31
0.0
  0
LINE
  5
1462
330
1F
100
AcDbEntity
  8
0
 62
     1
100
AcDbLine
 10
1872.069347348622
 20
1039.575395486658
 30
0.0
 11
1884.444456658588
 21
1051.950504796626
 31
0.0
  0
ARC
  5
1463
330
1F
100
AcDbEntity
  8
0
 62
     1
100
AcDbCircle
 10
1901.901567033716
 20
1032.907615171753
 30
0.0
 40
2.000000000000063
100
AcDbArc
 50
180.0
 51
0.0
  0
ELLIPSE
  5
1464
330
1F
100
AcDbEntity
  8
0
 62
     1
100
AcDbEllipse
 10
1593.151567033716
 20
1057.713425258475
 30
0.0
 11
0.0
 21
27.75265293167422
 31
0.0
210
0.0
220
0.0
230
1.0
 40
0.5314807213679296
 41
4.712388980384688
 42
7.853981633974482
  0
LINE
  5
1465
330
1F
100
AcDbEntity
  8
0
 62
     1
100
AcDbLine
 10
1933.401567033716
 20
1029.407615171753
 30
0.0
 11
1933.401567033716
 21
1057.713425258475
 31
0.0
  0
LINE
  5
1466
330
1F
100
AcDbEntity
  8
0
 62
     1
100
AcDbLine
 10
1903.901567033716
 20
1032.907615171753
 30
0.0
 11
1903.901567033716
 21
1057.713425258475
 31
0.0
  0
ELLIPSE
  5
1467
330
1F
100
AcDbEntity
  8
0
 62
     1
100
AcDbEllipse
 10
1918.651567033717
 20
1057.713425258475
 30
0.0
 11
0.0
 21
27.75265293167422
 31
0.0
210
0.0
220
0.0
230
-1.0
 40
0.5314807213679296
 41
4.712388980384688
 42
7.853981633974482
  0
LINE
  5
1468
330
1F
100
AcDbEntity
  8
0
 62
     2
100
AcDbLine
 10
1647.901567033716
 20
815.4076151717529
 30
0.0
 11
1620.43710093965
 21
787.9431490776838
 31
0.0
  0
LINE
  5
1469
102
{ACAD_REACTORS
330
149C
102
}
330
1F
100
AcDbEntity
  8
0
 62
     2
100
AcDbLine
 10
1863.901567033716
 20
815.4076151717529
 30
0.0
 11
1647.901567033716
 21
815.4076151717529
 31
0.0
  0
LWPOLYLINE
  5
146A
330
1F
100
AcDbEntity
  8
0
 62
     2
100
AcDbPolyline
 90
        2
 70
     0
 43
0.0
 10
1861.901567033716
 20
777.4076151717528
 10
1648.901567033717
 20
777.4076151717528
  0
LINE
  5
146E
330
1F
100
AcDbEntity
  8
0
 62
     1
100
AcDbLine
 10
1555.401567033718
 20
829.4076151717529
 30
0.0
 11
1574.401567033716
 21
829.4076151717529
 31
0.0
  0
LINE
  5
146F
330
1F
100
AcDbEntity
  8
0
 62
     1
100
AcDbLine
 10
1574.401567033716
 20
829.4076151717529
 30
0.0
 11
1574.401567033716
 21
817.4076151717532
 31
0.0
  0
LINE
  5
1470
330
1F
100
AcDbEntity
  8
0
 62
     1
100
AcDbLine
 10
1574.401567033716
 20
817.4076151717532
 30
0.0
 11
1578.401567033717
 21
817.4076151717525
 31
0.0
  0
LINE
  5
1471
330
1F
100
AcDbEntity
  8
0
 62
     1
100
AcDbLine
 10
1578.401567033717
 20
817.4076151717525
 30
0.0
 11
1578.401567033717
 21
789.1018050850313
 31
0.0
  0
LINE
  5
1472
330
1F
100
AcDbEntity
  8
0
 62
     2
100
AcDbLine
 10
1647.901567033716
 20
815.4076151717529
 30
0.0
 11
1647.901567033716
 21
779.4076151717526
 31
0.0
  0
LINE
  5
1473
330
1F
100
AcDbEntity
  8
0
 62
     2
100
AcDbLine
 10
1647.901567033716
 20
815.4076151717529
 30
0.0
 11
1611.224442689248
 21
815.4076151717529
 31
0.0
  0
LINE
  5
1474
330
1F
100
AcDbEntity
  8
0
 62
     1
100
AcDbLine
 10
1648.901567033717
 20
739.9076151717528
 30
0.0
 11
1648.901567033717
 21
779.4076151717526
 31
0.0
  0
LINE
  5
1479
330
1F
100
AcDbEntity
  8
0
 62
     1
100
AcDbLine
 10
1648.901567033717
 20
779.4076151717526
 30
0.0
 11
1623.972634845583
 21
779.4076151717526
 31
0.0
  0
ARC
  5
147A
330
1F
100
AcDbEntity
  8
0
 62
     1
100
AcDbCircle
 10
1623.972634845583
 20
784.4076151717525
 30
0.0
 40
5.0
100
AcDbArc
 50
135.000000000009
 51
270.0
  0
LINE
  5
147B
330
1F
100
AcDbEntity
  8
0
 62
     1
100
AcDbLine
 10
1611.901567033716
 20
813.9076151717523
 30
0.0
 11
1611.901567033716
 21
791.4786829836166
 31
0.0
  0
ARC
  5
147C
330
1F
100
AcDbEntity
  8
0
 62
     1
100
AcDbCircle
 10
1616.901567033717
 20
791.4786829836166
 30
0.0
 40
5.0
100
AcDbArc
 50
180.0
 51
315.000000000009
  0
LINE
  5
147D
330
1F
100
AcDbEntity
  8
0
 62
     1
100
AcDbLine
 10
1607.901567033717
 20
813.9076151717523
 30
0.0
 11
1607.901567033717
 21
789.1018050850313
 31
0.0
  0
LINE
  5
147E
330
1F
100
AcDbEntity
  8
0
 62
     2
100
AcDbLine
 10
1578.401567033717
 20
815.9076151717529
 30
0.0
 11
1609.901567033716
 21
815.9076151717529
 31
0.0
  0
LINE
  5
147F
330
1F
100
AcDbEntity
  8
0
 62
     1
100
AcDbLine
 10
1639.733786718813
 20
807.2398348568468
 30
0.0
 11
1627.358677408845
 21
794.8647255468793
 31
0.0
  0
ARC
  5
1483
330
1F
100
AcDbEntity
  8
0
 62
     1
100
AcDbCircle
 10
1609.901567033716
 20
813.9076151717523
 30
0.0
 40
2.000000000000063
100
AcDbArc
 50
0.0
 51
180.0
  0
LINE
  5
1484
330
1F
100
AcDbEntity
  8
0
 62
     2
100
AcDbLine
 10
1863.901567033716
 20
815.4076151717529
 30
0.0
 11
1891.366033127783
 21
787.9431490776838
 31
0.0
  0
LINE
  5
1485
330
1F
100
AcDbEntity
  8
0
 62
     1
100
AcDbLine
 10
1956.401567033716
 20
829.4076151717529
 30
0.0
 11
1937.401567033716
 21
829.4076151717529
 31
0.0
  0
LINE
  5
1486
330
1F
100
AcDbEntity
  8
0
 62
     1
100
AcDbLine
 10
1937.401567033716
 20
829.4076151717529
 30
0.0
 11
1937.401567033716
 21
817.4076151717532
 31
0.0
  0
LINE
  5
1487
330
1F
100
AcDbEntity
  8
0
 62
     1
100
AcDbLine
 10
1937.401567033716
 20
817.4076151717532
 30
0.0
 11
1933.401567033716
 21
817.4076151717525
 31
0.0
  0
LINE
  5
1488
330
1F
100
AcDbEntity
  8
0
 62
     2
100
AcDbLine
 10
1863.901567033716
 20
815.4076151717529
 30
0.0
 11
1863.901567033716
 21
779.4076151717526
 31
0.0
  0
LINE
  5
1489
330
1F
100
AcDbEntity
  8
0
 62
     2
100
AcDbLine
 10
1863.901567033716
 20
815.4076151717529
 30
0.0
 11
1900.578691378185
 21
815.4076151717529
 31
0.0
  0
LINE
  5
148A
330
1F
100
AcDbEntity
  8
0
 62
     1
100
AcDbLine
 10
1862.901567033716
 20
739.9076151717528
 30
0.0
 11
1862.901567033716
 21
779.4076151717526
 31
0.0
  0
LINE
  5
148F
330
1F
100
AcDbEntity
  8
0
 62
     1
100
AcDbLine
 10
1862.901567033716
 20
779.4076151717526
 30
0.0
 11
1887.830499221852
 21
779.4076151717526
 31
0.0
  0
ARC
  5
1490
330
1F
100
AcDbEntity
  8
0
 62
     1
100
AcDbCircle
 10
1887.830499221852
 20
784.4076151717525
 30
0.0
 40
5.0
100
AcDbArc
 50
270.0
 51
44.99999999999096
  0
LINE
  5
1491
330
1F
100
AcDbEntity
  8
0
 62
     1
100
AcDbLine
 10
1899.901567033717
 20
813.9076151717523
 30
0.0
 11
1899.901567033717
 21
791.4786829836166
 31
0.0
  0
ARC
  5
1492
330
1F
100
AcDbEntity
  8
0
 62
     1
100
AcDbCircle
 10
1894.901567033716
 20
791.4786829836166
 30
0.0
 40
5.0
100
AcDbArc
 50
224.9999999999909
 51
0.0
  0
LINE
  5
1493
330
1F
100
AcDbEntity
  8
0
 62
     2
100
AcDbLine
 10
1933.401567033716
 20
815.9076151717529
 30
0.0
 11
1901.901567033716
 21
815.9076151717529
 31
0.0
  0
LINE
  5
1494
330
1F
100
AcDbEntity
  8
0
 62
     1
100
AcDbLine
 10
1872.069347348622
 20
807.2398348568468
 30
0.0
 11
1884.444456658588
 21
794.8647255468793
 31
0.0
  0
ARC
  5
1495
330
1F
100
AcDbEntity
  8
0
 62
     1
100
AcDbCircle
 10
1901.901567033716
 20
813.9076151717523
 30
0.0
 40
2.000000000000063
100
AcDbArc
 50
0.0
 51
180.0
  0
ELLIPSE
  5
1496
330
1F
100
AcDbEntity
  8
0
 62
     1
100
AcDbEllipse
 10
1593.151567033716
 20
789.1018050850313
 30
0.0
 11
0.0
 21
-27.75265293167422
 31
0.0
210
0.0
220
0.0
230
-1.0
 40
0.5314807213679296
 41
4.712388980384688
 42
7.853981633974482
  0
LINE
  5
1497
330
1F
100
AcDbEntity
  8
0
 62
     1
100
AcDbLine
 10
1933.401567033716
 20
817.4076151717525
 30
0.0
 11
1933.401567033716
 21
789.1018050850313
 31
0.0
  0
LINE
  5
1498
330
1F
100
AcDbEntity
  8
0
 62
     1
100
AcDbLine
 10
1903.901567033716
 20
813.9076151717523
 30
0.0
 11
1903.901567033716
 21
789.1018050850313
 31
0.0
  0
ELLIPSE
  5
1499
330
1F
100
AcDbEntity
  8
0
 62
     1
100
AcDbEllipse
 10
1918.651567033717
 20
789.1018050850313
 30
0.0
 11
0.0
 21
-27.75265293167422
 31
0.0
210
0.0
220
0.0
230
1.0
 40
0.5314807213679296
 41
4.712388980384688
 42
7.853981633974482
  0
DIMENSION
  5
149A
102
{ACAD_XDICTIONARY
360
149B
102
}
102
{ACAD_REACTORS
330
149C
102
}
330
1F
100
AcDbEntity
  8
0
 62
     3
100
AcDbDimension
  2
*D105
 10
1823.329716386709
 20
815.4076151717529
 30
0.0
 11
1817.704716386709
 21
923.4076151717529
 31
0.0
 70
    32
 71
     5
 42
215.9999999999991
 73
     0
 74
     0
 75
     0
  3
ISO-25
100
AcDbAlignedDimension
 13
1823.329716386709
 23
1031.407615171752
 33
0.0
 14
1823.329716386709
 24
815.4076151717529
 34
0.0
 50
90.0
100
AcDbRotatedDimension
  0
DIMENSION
  5
149D
102
{ACAD_XDICTIONARY
360
149E
102
}
102
{ACAD_REACTORS
330
149F
102
}
330
1F
100
AcDbEntity
  8
0
 62
     3
100
AcDbDimension
  2
*D101
 10
1863.901567033716
 20
994.7394380261508
 30
0.0
 11
1755.901567033716
 21
1000.364438026151
 31
0.0
 70
    32
 71
     5
 42
215.9999999999991
 73
     0
 74
     0
 75
     0
  3
ISO-25
100
AcDbAlignedDimension
 13
1647.901567033716
 23
994.7394380261508
 33
0.0
 14
1863.901567033716
 24
994.7394380261508
 34
0.0
100
AcDbRotatedDimension
  0
LINE
  5
14AD
330
1F
100
AcDbEntity
  8
0
 62
     1
100
AcDbLine
 10
1818.401567033717
 20
1106.907615171754
 30
0.0
 11
1813.401567033716
 21
1106.907615171754
 31
0.0
  0
LINE
  5
14AE
330
1F
100
AcDbEntity
  8
0
 62
     1
100
AcDbLine
 10
1808.401567033716
 20
1106.907615171754
 30
0.0
 11
1803.401567033716
 21
1106.907615171754
 31
0.0
  0
LINE
  5
14AF
330
1F
100
AcDbEntity
  8
0
 62
     1
100
AcDbLine
 10
1798.401567033717
 20
1106.907615171754
 30
0.0
 11
1793.401567033717
 21
1106.907615171754
 31
0.0
  0
LINE
  5
14B0
330
1F
100
AcDbEntity
  8
0
 62
     1
100
AcDbLine
 10
1788.401567033717
 20
1106.907615171754
 30
0.0
 11
1783.401567033716
 21
1106.907615171754
 31
0.0
  0
LINE
  5
14B1
330
1F
100
AcDbEntity
  8
0
 62
     1
100
AcDbLine
 10
1778.401567033716
 20
1106.907615171754
 30
0.0
 11
1773.401567033717
 21
1106.907615171754
 31
0.0
  0
LINE
  5
14B2
330
1F
100
AcDbEntity
  8
0
 62
     1
100
AcDbLine
 10
1768.401567033716
 20
1106.907615171754
 30
0.0
 11
1763.401567033717
 21
1106.907615171754
 31
0.0
  0
LINE
  5
14B3
330
1F
100
AcDbEntity
  8
0
 62
     1
100
AcDbLine
 10
1758.401567033716
 20
1106.907615171754
 30
0.0
 11
1753.401567033716
 21
1106.907615171754
 31
0.0
  0
LINE
  5
14B4
330
1F
100
AcDbEntity
  8
0
 62
     1
100
AcDbLine
 10
1748.401567033717
 20
1106.907615171754
 30
0.0
 11
1743.401567033717
 21
1106.907615171754
 31
0.0
  0
LINE
  5
14B5
330
1F
100
AcDbEntity
  8
0
 62
     1
100
AcDbLine
 10
1738.401567033716
 20
1106.907615171754
 30
0.0
 11
1733.401567033716
 21
1106.907615171754
 31
0.0
  0
LINE
  5
14B6
330
1F
100
AcDbEntity
  8
0
 62
     1
100
AcDbLine
 10
1728.401567033716
 20
1106.907615171754
 30
0.0
 11
1723.401567033717
 21
1106.907615171754
 31
0.0
  0
LINE
  5
14B7
330
1F
100
AcDbEntity
  8
0
 62
     1
100
AcDbLine
 10
1718.401567033717
 20
1106.907615171754
 30
0.0
 11
1713.401567033717
 21
1106.907615171754
 31
0.0
  0
LINE
  5
14B8
330
1F
100
AcDbEntity
  8
0
 62
     1
100
AcDbLine
 10
1708.401567033717
 20
1106.907615171754
 30
0.0
 11
1703.401567033716
 21
1106.907615171754
 31
0.0
  0
LINE
  5
14B9
330
1F
100
AcDbEntity
  8
0
 62
     1
100
AcDbLine
 10
1698.401567033717
 20
1106.907615171754
 30
0.0
 11
1693.401567033717
 21
1106.907615171754
 31
0.0
  0
DIMENSION
  5
14C7
102
{ACAD_XDICTIONARY
360
14C8
102
}
102
{ACAD_REACTORS
330
14C9
102
}
330
1F
100
AcDbEntity
  8
0
 62
     3
100
AcDbDimension
  2
*D102
 10
1901.901567033716
 20
894.7118732928755
 30
0.0
 11
1882.901567033716
 21
900.3368732928754
 31
0.0
 70
    32
 71
     5
 42
38.0
 73
     0
 74
     0
 75
     0
  3
ISO-25
100
AcDbAlignedDimension
 13
1863.901567033716
 23
894.7118732928755
 33
0.0
 14
1901.901567033716
 24
894.7118732928755
 34
0.0
100
AcDbRotatedDimension
  0
DIMENSION
  5
14CA
102
{ACAD_XDICTIONARY
360
14CB
102
}
102
{ACAD_REACTORS
330
14CC
102
}
330
1F
100
AcDbEntity
  8
0
 62
     3
100
AcDbDimension
  2
*D103
 10
1956.401567033716
 20
1183.356864727088
 30
0.0
 11
1755.901567033716
 21
1188.981864727088
 31
0.0
 70
    32
 71
     5
 42
400.999999999999
 73
     0
 74
     0
 75
     0
  3
ISO-25
100
AcDbAlignedDimension
 13
1555.401567033716
 23
991.6576151717523
 33
0.0
 14
1956.401567033716
 24
1001.657615171752
 34
0.0
100
AcDbRotatedDimension
  0
DIMENSION
  5
14CD
102
{ACAD_XDICTIONARY
360
14CE
102
}
102
{ACAD_REACTORS
330
14CF
102
}
330
1F
100
AcDbEntity
  8
0
 62
     3
100
AcDbDimension
  2
*D104
 10
2006.721629488145
 20
722.9076151717515
 30
0.0
 11
2001.096629488145
 21
923.4076151717529
 31
0.0
 70
    32
 71
     5
 42
401.0000000000018
 73
     0
 74
     0
 75
     0
  3
ISO-25
100
AcDbAlignedDimension
 13
1840.401567033716
 23
1123.907615171753
 33
0.0
 14
1830.401567033716
 24
722.9076151717515
 34
0.0
 50
90.0
100
AcDbRotatedDimension
  0
LWPOLYLINE
  5
1596
330
1F
100
AcDbEntity
  8
0
 62
     2
100
AcDbPolyline
 90
        2
 70
     0
 43
0.0
 10
1862.901567033716
 20
739.9076151717528
 10
1648.901567033717
 20
739.9076151717528
  0
LINE
  5
1597
330
1F
100
AcDbEntity
  8
0
 62
     1
100
AcDbLine
 10
1862.401567033716
 20
722.9076151717515
 30
0.0
 11
1818.401567033715
 21
722.9076151717515
 31
0.0
  0
LINE
  5
1598
330
1F
100
AcDbEntity
  8
0
 62
     1
100
AcDbLine
 10
1693.401567033715
 20
722.9076151717515
 30
0.0
 11
1649.401567033715
 21
722.9076151717515
 31
0.0
  0
LINE
  5
1599
330
1F
100
AcDbEntity
  8
0
 62
     1
100
AcDbLine
 10
1649.401567033716
 20
727.9076151717515
 30
0.0
 11
1647.901567033716
 21
727.9076151717515
 31
0.0
  0
LINE
  5
159A
330
1F
100
AcDbEntity
  8
0
 62
     1
100
AcDbLine
 10
1647.901567033716
 20
739.4076151717528
 30
0.0
 11
1647.901567033716
 21
727.9076151717515
 31
0.0
  0
LINE
  5
159B
330
1F
100
AcDbEntity
  8
0
 62
     1
100
AcDbLine
 10
1647.901567033716
 20
739.4076151717528
 30
0.0
 11
1648.901567033717
 21
739.9076151717528
 31
0.0
  0
LINE
  5
159C
330
1F
100
AcDbEntity
  8
0
 62
     1
100
AcDbLine
 10
1649.401567033716
 20
727.9076151717515
 30
0.0
 11
1649.401567033716
 21
722.9076151717515
 31
0.0
  0
LINE
  5
159D
330
1F
100
AcDbEntity
  8
0
 62
     1
100
AcDbLine
 10
1699.401567033716
 20
728.9076151717515
 30
0.0
 11
1812.401567033719
 21
728.9076151717515
 31
0.0
  0
ARC
  5
159E
330
1F
100
AcDbEntity
  8
0
 62
     1
100
AcDbCircle
 10
1699.401567033716
 20
722.9076151717515
 30
0.0
 40
6.0
100
AcDbArc
 50
90.0
 51
180.0
  0
ARC
  5
159F
330
1F
100
AcDbEntity
  8
0
 62
     1
100
AcDbCircle
 10
1812.401567033719
 20
722.9076151717515
 30
0.0
 40
6.0
100
AcDbArc
 50
0.0000000000260551
 51
90.0
  0
LINE
  5
15A0
330
1F
100
AcDbEntity
  8
0
 62
     1
100
AcDbLine
 10
1862.401567033716
 20
727.9076151717515
 30
0.0
 11
1863.901567033716
 21
727.9076151717515
 31
0.0
  0
LINE
  5
15A1
330
1F
100
AcDbEntity
  8
0
 62
     1
100
AcDbLine
 10
1863.901567033716
 20
739.4076151717528
 30
0.0
 11
1863.901567033716
 21
727.9076151717515
 31
0.0
  0
LINE
  5
15A2
330
1F
100
AcDbEntity
  8
0
 62
     1
100
AcDbLine
 10
1863.901567033716
 20
739.4076151717528
 30
0.0
 11
1862.901567033716
 21
739.9076151717528
 31
0.0
  0
LINE
  5
15A3
330
1F
100
AcDbEntity
  8
0
 62
     1
100
AcDbLine
 10
1862.401567033716
 20
727.9076151717515
 30
0.0
 11
1862.401567033716
 21
722.9076151717515
 31
0.0
  0
LINE
  5
15A4
330
1F
100
AcDbEntity
  8
0
 62
     1
100
AcDbLine
 10
1818.401567033717
 20
739.9076151717512
 30
0.0
 11
1813.401567033716
 21
739.9076151717512
 31
0.0
  0
LINE
  5
15A5
330
1F
100
AcDbEntity
  8
0
 62
     1
100
AcDbLine
 10
1808.401567033716
 20
739.9076151717512
 30
0.0
 11
1803.401567033716
 21
739.9076151717512
 31
0.0
  0
LINE
  5
15A6
330
1F
100
AcDbEntity
  8
0
 62
     1
100
AcDbLine
 10
1798.401567033717
 20
739.9076151717512
 30
0.0
 11
1793.401567033717
 21
739.9076151717512
 31
0.0
  0
LINE
  5
15A7
330
1F
100
AcDbEntity
  8
0
 62
     1
100
AcDbLine
 10
1788.401567033717
 20
739.9076151717512
 30
0.0
 11
1783.401567033716
 21
739.9076151717512
 31
0.0
  0
LINE
  5
15A8
330
1F
100
AcDbEntity
  8
0
 62
     1
100
AcDbLine
 10
1778.401567033716
 20
739.9076151717512
 30
0.0
 11
1773.401567033717
 21
739.9076151717512
 31
0.0
  0
LINE
  5
15A9
330
1F
100
AcDbEntity
  8
0
 62
     1
100
AcDbLine
 10
1768.401567033716
 20
739.9076151717512
 30
0.0
 11
1763.401567033717
 21
739.9076151717512
 31
0.0
  0
LINE
  5
15AA
330
1F
100
AcDbEntity
  8
0
 62
     1
100
AcDbLine
 10
1758.401567033716
 20
739.9076151717512
 30
0.0
 11
1753.401567033716
 21
739.9076151717512
 31
0.0
  0
LINE
  5
15AB
330
1F
100
AcDbEntity
  8
0
 62
     1
100
AcDbLine
 10
1748.401567033717
 20
739.9076151717512
 30
0.0
 11
1743.401567033717
 21
739.9076151717512
 31
0.0
  0
LINE
  5
15AC
330
1F
100
AcDbEntity
  8
0
 62
     1
100
AcDbLine
 10
1738.401567033716
 20
739.9076151717512
 30
0.0
 11
1733.401567033716
 21
739.9076151717512
 31
0.0
  0
LINE
  5
15AD
330
1F
100
AcDbEntity
  8
0
 62
     1
100
AcDbLine
 10
1728.401567033716
 20
739.9076151717512
 30
0.0
 11
1723.401567033717
 21
739.9076151717512
 31
0.0
  0
LINE
  5
15AE
330
1F
100
AcDbEntity
  8
0
 62
     1
100
AcDbLine
 10
1718.401567033717
 20
739.9076151717512
 30
0.0
 11
1713.401567033717
 21
739.9076151717512
 31
0.0
  0
LINE
  5
15AF
330
1F
100
AcDbEntity
  8
0
 62
     1
100
AcDbLine
 10
1708.401567033717
 20
739.9076151717512
 30
0.0
 11
1703.401567033716
 21
739.9076151717512
 31
0.0
  0
LINE
  5
15B0
330
1F
100
AcDbEntity
  8
0
 62
     1
100
AcDbLine
 10
1698.401567033717
 20
739.9076151717512
 30
0.0
 11
1693.401567033717
 21
739.9076151717512
 31
0.0
  0
LINE
  5
15CD
330
1F
100
AcDbEntity
  8
0
 62
     1
100
AcDbLine
 10
1939.401567033717
 20
985.9076151717529
 30
0.0
 11
1939.401567033717
 21
980.9076151717526
 31
0.0
  0
LINE
  5
15CE
330
1F
100
AcDbEntity
  8
0
 62
     1
100
AcDbLine
 10
1939.401567033717
 20
975.9076151717527
 30
0.0
 11
1939.401567033717
 21
970.9076151717528
 31
0.0
  0
LINE
  5
15CF
330
1F
100
AcDbEntity
  8
0
 62
     1
100
AcDbLine
 10
1939.401567033717
 20
965.9076151717533
 30
0.0
 11
1939.401567033717
 21
960.9076151717529
 31
0.0
  0
LINE
  5
15D0
330
1F
100
AcDbEntity
  8
0
 62
     1
100
AcDbLine
 10
1939.401567033717
 20
955.9076151717526
 30
0.0
 11
1939.401567033717
 21
950.9076151717527
 31
0.0
  0
LINE
  5
15D1
330
1F
100
AcDbEntity
  8
0
 62
     1
100
AcDbLine
 10
1939.401567033717
 20
945.9076151717528
 30
0.0
 11
1939.401567033717
 21
940.9076151717533
 31
0.0
  0
LINE
  5
15D2
330
1F
100
AcDbEntity
  8
0
 62
     1
100
AcDbLine
 10
1939.401567033717
 20
935.9076151717529
 30
0.0
 11
1939.401567033717
 21
930.9076151717526
 31
0.0
  0
LINE
  5
15D3
330
1F
100
AcDbEntity
  8
0
 62
     1
100
AcDbLine
 10
1939.401567033717
 20
925.9076151717527
 30
0.0
 11
1939.401567033717
 21
920.9076151717528
 31
0.0
  0
LINE
  5
15D4
330
1F
100
AcDbEntity
  8
0
 62
     1
100
AcDbLine
 10
1939.401567033717
 20
915.9076151717533
 30
0.0
 11
1939.401567033717
 21
910.9076151717529
 31
0.0
  0
LINE
  5
15D5
330
1F
100
AcDbEntity
  8
0
 62
     1
100
AcDbLine
 10
1939.401567033717
 20
905.9076151717526
 30
0.0
 11
1939.401567033717
 21
900.9076151717527
 31
0.0
  0
LINE
  5
15D6
330
1F
100
AcDbEntity
  8
0
 62
     1
100
AcDbLine
 10
1939.401567033717
 20
895.9076151717528
 30
0.0
 11
1939.401567033717
 21
890.9076151717529
 31
0.0
  0
LINE
  5
15D7
330
1F
100
AcDbEntity
  8
0
 62
     1
100
AcDbLine
 10
1939.401567033717
 20
885.9076151717529
 30
0.0
 11
1939.401567033717
 21
880.9076151717526
 31
0.0
  0
LINE
  5
15D8
330
1F
100
AcDbEntity
  8
0
 62
     1
100
AcDbLine
 10
1939.401567033717
 20
875.9076151717531
 30
0.0
 11
1939.401567033717
 21
870.9076151717528
 31
0.0
  0
LINE
  5
15D9
330
1F
100
AcDbEntity
  8
0
 62
     1
100
AcDbLine
 10
1939.401567033717
 20
865.9076151717529
 30
0.0
 11
1939.401567033717
 21
860.9076151717529
 31
0.0
  0
LWPOLYLINE
  5
15DA
330
1F
100
AcDbEntity
  8
0
 62
     2
100
AcDbPolyline
 90
        2
 70
     0
 43
0.0
 10
1572.401567033716
 20
829.4076151717529
 10
1572.401567033716
 20
1017.407615171752
  0
LINE
  5
15DB
330
1F
100
AcDbEntity
  8
0
 62
     1
100
AcDbLine
 10
1555.401567033716
 20
829.4076151717529
 30
0.0
 11
1555.401567033716
 21
860.9076151717509
 31
0.0
  0
LINE
  5
15DC
330
1F
100
AcDbEntity
  8
0
 62
     1
100
AcDbLine
 10
1555.401567033716
 20
985.9076151717529
 30
0.0
 11
1555.401567033716
 21
1017.407615171752
 31
0.0
  0
LINE
  5
15DD
330
1F
100
AcDbEntity
  8
0
 62
     1
100
AcDbLine
 10
1561.401567033717
 20
866.9076151717508
 30
0.0
 11
1561.401567033717
 21
979.9076151717526
 31
0.0
  0
ARC
  5
15DE
330
1F
100
AcDbEntity
  8
0
 62
     1
100
AcDbCircle
 10
1555.401567033716
 20
866.9076151717508
 30
0.0
 40
6.0
100
AcDbArc
 50
270.0
 51
0.0
  0
ARC
  5
15DF
330
1F
100
AcDbEntity
  8
0
 62
     1
100
AcDbCircle
 10
1555.401567033716
 20
979.9076151717526
 30
0.0
 40
6.0
100
AcDbArc
 50
0.0
 51
90.0
  0
LINE
  5
15E0
330
1F
100
AcDbEntity
  8
0
 62
     1
100
AcDbLine
 10
1572.401567033716
 20
985.9076151717529
 30
0.0
 11
1572.401567033716
 21
980.9076151717526
 31
0.0
  0
LINE
  5
15E1
330
1F
100
AcDbEntity
  8
0
 62
     1
100
AcDbLine
 10
1572.401567033716
 20
975.9076151717527
 30
0.0
 11
1572.401567033716
 21
970.9076151717528
 31
0.0
  0
LINE
  5
15E2
330
1F
100
AcDbEntity
  8
0
 62
     1
100
AcDbLine
 10
1572.401567033716
 20
965.9076151717533
 30
0.0
 11
1572.401567033716
 21
960.9076151717529
 31
0.0
  0
LINE
  5
15E3
330
1F
100
AcDbEntity
  8
0
 62
     1
100
AcDbLine
 10
1572.401567033716
 20
955.9076151717526
 30
0.0
 11
1572.401567033716
 21
950.9076151717527
 31
0.0
  0
LINE
  5
15E4
330
1F
100
AcDbEntity
  8
0
 62
     1
100
AcDbLine
 10
1572.401567033716
 20
945.9076151717528
 30
0.0
 11
1572.401567033716
 21
940.9076151717533
 31
0.0
  0
LINE
  5
15E5
330
1F
100
AcDbEntity
  8
0
 62
     1
100
AcDbLine
 10
1572.401567033716
 20
935.9076151717529
 30
0.0
 11
1572.401567033716
 21
930.9076151717526
 31
0.0
  0
LINE
  5
15E6
330
1F
100
AcDbEntity
  8
0
 62
     1
100
AcDbLine
 10
1572.401567033716
 20
925.9076151717527
 30
0.0
 11
1572.401567033716
 21
920.9076151717528
 31
0.0
  0
LINE
  5
15E7
330
1F
100
AcDbEntity
  8
0
 62
     1
100
AcDbLine
 10
1572.401567033716
 20
915.9076151717533
 30
0.0
 11
1572.401567033716
 21
910.9076151717529
 31
0.0
  0
LINE
  5
15E8
330
1F
100
AcDbEntity
  8
0
 62
     1
100
AcDbLine
 10
1572.401567033716
 20
905.9076151717526
 30
0.0
 11
1572.401567033716
 21
900.9076151717527
 31
0.0
  0
LINE
  5
15E9
330
1F
100
AcDbEntity
  8
0
 62
     1
100
AcDbLine
 10
1572.401567033716
 20
895.9076151717528
 30
0.0
 11
1572.401567033716
 21
890.9076151717529
 31
0.0
  0
LINE
  5
15EA
330
1F
100
AcDbEntity
  8
0
 62
     1
100
AcDbLine
 10
1572.401567033716
 20
885.9076151717529
 30
0.0
 11
1572.401567033716
 21
880.9076151717526
 31
0.0
  0
LINE
  5
15EB
330
1F
100
AcDbEntity
  8
0
 62
     1
100
AcDbLine
 10
1572.401567033716
 20
875.9076151717531
 30
0.0
 11
1572.401567033716
 21
870.9076151717528
 31
0.0
  0
LINE
  5
15EC
330
1F
100
AcDbEntity
  8
0
 62
     1
100
AcDbLine
 10
1572.401567033716
 20
865.9076151717529
 30
0.0
 11
1572.401567033716
 21
860.9076151717529
 31
0.0
  0
CIRCLE
  5
16CE
330
1F
100
AcDbEntity
  8
0
 62
     1
100
AcDbCircle
 10
1203.628199623015
 20
1162.354498474443
 30
0.0
 40
1.5
  0
CIRCLE
  5
16CF
330
1F
100
AcDbEntity
  8
0
 62
     1
100
AcDbCircle
 10
1390.628199623015
 20
975.3544984744431
 30
0.0
 40
1.5
  0
CIRCLE
  5
16D0
330
1F
100
AcDbEntity
  8
0
 62
     1
100
AcDbCircle
 10
1203.628199623015
 20
788.354498474443
 30
0.0
 40
1.5
  0
CIRCLE
  5
16D1
330
1F
100
AcDbEntity
  8
0
 62
     1
100
AcDbCircle
 10
1016.628199623015
 20
975.3544984744431
 30
0.0
 40
1.5
  0
ENDSEC
  0
SECTION
  2
OBJECTS
  0
DICTIONARY
  5
C
330
0
100
AcDbDictionary
281
     1
  3
ACAD_COLOR
350
6B
  3
ACAD_GROUP
350
D
  3
ACAD_LAYOUT
350
1A
  3
ACAD_MATERIAL
350
6A
  3
ACAD_MLINESTYLE
350
17
  3
ACAD_PLOTSETTINGS
350
19
  3
ACAD_PLOTSTYLENAME
350
E
  3
ACAD_TABLESTYLE
350
7E
  3
ACAD_VISUALSTYLE
350
F0
  3
AcDbVariableDictionary
350
5E
  0
DICTIONARY
  5
125
330
1F
100
AcDbDictionary
280
     1
281
     1
  3
ACAD_SORTENTS
360
126
  0
DICTIONARY
  5
32B
330
31E
100
AcDbDictionary
280
     1
281
     1
  3
ACAD_DIMASSOC
360
335
  0
DICTIONARY
  5
343
330
336
100
AcDbDictionary
280
     1
281
     1
  3
ACAD_DIMASSOC
360
34D
  0
DICTIONARY
  5
35B
330
34E
100
AcDbDictionary
280
     1
281
     1
  3
ACAD_DIMASSOC
360
365
  0
DICTIONARY
  5
38E
330
381
100
AcDbDictionary
280
     1
281
     1
  3
ACAD_DIMASSOC
360
398
  0
DICTIONARY
  5
3A6
330
399
100
AcDbDictionary
280
     1
281
     1
  3
ACAD_DIMASSOC
360
3B0
  0
DICTIONARY
  5
149B
330
149A
100
AcDbDictionary
280
     1
281
     1
  3
ACAD_DIMASSOC
360
149C
  0
DICTIONARY
  5
149E
330
149D
100
AcDbDictionary
280
     1
281
     1
  3
ACAD_DIMASSOC
360
149F
  0
DICTIONARY
  5
14C8
330
14C7
100
AcDbDictionary
280
     1
281
     1
  3
ACAD_DIMASSOC
360
14C9
  0
DICTIONARY
  5
14CB
330
14CA
100
AcDbDictionary
280
     1
281
     1
  3
ACAD_DIMASSOC
360
14CC
  0
DICTIONARY
  5
14CE
330
14CD
100
AcDbDictionary
280
     1
281
     1
  3
ACAD_DIMASSOC
360
14CF
  0
DICTIONARY
  5
6B
102
{ACAD_REACTORS
330
C
102
}
330
C
100
AcDbDictionary
281
     1
  0
DICTIONARY
  5
D
102
{ACAD_REACTORS
330
C
102
}
330
C
100
AcDbDictionary
281
     1
  0
DICTIONARY
  5
1A
102
{ACAD_REACTORS
330
C
102
}
330
C
100
AcDbDictionary
281
     1
  3
Model
350
22
  3
布局1
350
D3
  3
布局2
350
D7
  0
DICTIONARY
  5
6A
102
{ACAD_REACTORS
330
C
102
}
330
C
100
AcDbDictionary
281
     1
  3
ByBlock
350
EE
  3
ByLayer
350
ED
  3
Global
350
EF
  0
DICTIONARY
  5
17
102
{ACAD_REACTORS
330
C
102
}
330
C
100
AcDbDictionary
281
     1
  3
Standard
350
18
  0
DICTIONARY
  5
19
102
{ACAD_REACTORS
330
C
102
}
330
C
100
AcDbDictionary
281
     1
  0
ACDBDICTIONARYWDFLT
  5
E
102
{ACAD_REACTORS
330
C
102
}
330
C
100
AcDbDictionary
281
     1
  3
Normal
350
F
100
AcDbDictionaryWithDefault
340
F
  0
DICTIONARY
  5
7E
102
{ACAD_REACTORS
330
C
102
}
330
C
100
AcDbDictionary
281
     1
  3
Standard
350
7F
  0
DICTIONARY
  5
F0
102
{ACAD_REACTORS
330
C
102
}
330
C
100
AcDbDictionary
281
     1
  3
2dWireframe
350
F6
  3
3D Hidden
350
F8
  3
3dWireframe
350
F7
  3
Basic
350
F5
  3
Brighten
350
FC
  3
ColorChange
350
100
  3
Conceptual
350
F9
  3
Dim
350
FB
  3
Facepattern
350
FF
  3
Flat
350
F1
  3
FlatWithEdges
350
F2
  3
Gouraud
350
F3
  3
GouraudWithEdges
350
F4
  3
Linepattern
350
FE
  3
Realistic
350
FA
  3
Thicken
350
FD
  0
DICTIONARY
  5
5E
102
{ACAD_REACTORS
330
C
102
}
330
C
100
AcDbDictionary
281
     1
  3
CTABLESTYLE
350
84
  3
DIMASSOC
350
5F
  3
HIDETEXT
350
63
  0
SORTENTSTABLE
  5
126
102
{ACAD_REACTORS
330
125
102
}
330
125
100
AcDbSortentsTable
330
1F
331
15DC
  5
15DC
331
15E4
  5
15E4
331
159D
  5
159D
331
147B
  5
147B
331
1ED
  5
1F2
331
1434
  5
1434
331
1483
  5
1483
331
14E
  5
140
331
1F5
  5
1F9
331
144C
  5
144C
331
1454
  5
1454
331
16E
  5
170
331
1493
  5
1493
331
15A5
  5
15A5
331
15AD
  5
15AD
331
15EC
  5
15EC
331
15CD
  5
15CD
331
15A
  5
142
331
176
  5
179
331
141D
  5
141D
331
145C
  5
145C
331
1464
  5
1464
331
17E
  5
184
331
14B3
  5
14C3
331
186
  5
18E
331
142D
  5
142D
331
1474
  5
1474
331
15D5
  5
15D5
331
15DD
  5
15DD
331
1596
  5
1596
331
15E5
  5
15E5
331
159E
  5
159E
331
399
  5
3C9
331
381
  5
3B1
331
1435
  5
1435
331
147C
  5
147C
331
1484
  5
1484
331
1F6
  5
1FA
331
14F
  5
141
331
144D
  5
144D
331
1455
  5
1455
331
1494
  5
1494
331
15A6
  5
15A6
331
15AE
  5
15AE
331
15CE
  5
15CE
331
149D
  5
149D
331
141E
  5
141E
331
145D
  5
145D
331
177
  5
17A
331
1426
  5
1426
331
1465
  5
1465
331
14B4
  5
14C4
331
142E
  5
142E
331
15D6
  5
15D6
331
15DE
  5
15DE
331
1597
  5
1597
331
15E6
  5
15E6
331
159F
  5
159F
331
14CA
  5
14BB
331
147D
  5
147D
331
1EF
  5
1F3
331
1436
  5
1436
331
1485
  5
1485
331
1F7
  5
1FB
331
144E
  5
144E
331
168
  5
169
331
1495
  5
1495
331
1456
  5
1456
331
15A7
  5
15A7
331
15AF
  5
15AF
331
15CF
  5
15CF
331
170
  5
173
331
14AD
  5
14BD
331
178
  5
17B
331
141F
  5
141F
331
145E
  5
145E
331
1466
  5
1466
331
14B5
  5
14C5
331
1427
  5
1427
331
142F
  5
142F
331
146E
  5
146E
331
188
  5
18F
331
15D7
  5
15D7
331
15DF
  5
15DF
331
1598
  5
1598
331
15E7
  5
15E7
331
141
  5
15B
331
1F0
  5
1F4
331
1437
  5
1437
331
147E
  5
147E
331
1486
  5
1486
331
1F8
  5
1FC
331
169
  5
16A
331
144F
  5
144F
331
1457
  5
1457
331
1496
  5
1496
331
15A0
  5
15A0
331
15A8
  5
15A8
331
15B0
  5
15B0
331
14C7
  5
14BA
331
1420
  5
1420
331
145F
  5
145F
331
179
  5
17C
331
14AE
  5
14BE
331
14B6
  5
14C6
331
1428
  5
1428
331
1467
  5
1467
331
181
  5
185
331
146F
  5
146F
331
15D0
  5
15D0
331
15D8
  5
15D8
331
15E0
  5
15E0
331
1599
  5
1599
331
1430
  5
1430
331
1438
  5
1438
331
147F
  5
147F
331
14A
  5
146
331
1F1
  5
1F5
331
1487
  5
1487
331
1F9
  5
1FD
331
1450
  5
1450
331
16A
  5
16B
331
148F
  5
148F
331
1497
  5
1497
331
15A1
  5
15A1
331
15A9
  5
15A9
331
15E8
  5
15E8
331
15E
  5
168
331
1498
  5
1498
331
1419
  5
1419
331
1458
  5
1458
331
14AF
  5
14BF
331
17A
  5
17E
331
1421
  5
1421
331
1460
  5
1460
331
1468
  5
1468
331
14B7
  5
14C7
331
182
  5
186
331
1429
  5
1429
331
1470
  5
1470
331
15D1
  5
15D1
331
15D9
  5
15D9
331
15E1
  5
15E1
331
159A
  5
159A
331
14CD
  5
14BC
331
1431
  5
1431
331
143
  5
166
331
1F2
  5
1F6
331
1439
  5
1439
331
1488
  5
1488
331
1FA
  5
205
331
1451
  5
1451
331
1490
  5
1490
331
16B
  5
16C
331
212
  5
31E
331
15A2
  5
15A2
331
15AA
  5
15AA
331
15E9
  5
15E9
331
15F
  5
149
331
1499
  5
1499
331
336
  5
381
331
31E
  5
34E
331
34E
  5
399
331
1459
  5
1459
331
173
  5
175
331
141A
  5
141A
331
1422
  5
1422
331
1461
  5
1461
331
17B
  5
180
331
14B0
  5
14C0
331
14B8
  5
14CA
331
183
  5
187
331
142A
  5
142A
331
1469
  5
1469
331
18B
  5
190
331
1471
  5
1471
331
15D2
  5
15D2
331
15DA
  5
15DA
331
15E2
  5
15E2
331
159B
  5
159B
331
1479
  5
1479
331
1432
  5
1432
331
143A
  5
143A
331
14C
  5
15E
331
1F3
  5
1F7
331
1489
  5
1489
331
1FB
  5
14D
331
1452
  5
1452
331
16C
  5
16D
331
1491
  5
1491
331
15A3
  5
15A3
331
15AB
  5
15AB
331
15EA
  5
15EA
331
149A
  5
149A
331
141B
  5
141B
331
145A
  5
145A
331
1462
  5
1462
331
17C
  5
183
331
14B1
  5
14C1
331
146A
  5
146A
331
14B9
  5
14CD
331
184
  5
188
331
142B
  5
142B
331
1472
  5
1472
331
15D3
  5
15D3
331
15DB
  5
15DB
331
15E3
  5
15E3
331
159C
  5
159C
331
1433
  5
1433
331
147A
  5
147A
331
1F4
  5
1F8
331
148A
  5
148A
331
1FC
  5
17D
331
144B
  5
144B
331
1453
  5
1453
331
16D
  5
16E
331
1492
  5
1492
331
15A4
  5
15A4
331
15AC
  5
15AC
331
15EB
  5
15EB
331
145B
  5
145B
331
175
  5
178
331
141C
  5
141C
331
1463
  5
1463
331
14B2
  5
14C2
331
185
  5
18A
331
142C
  5
142C
331
1473
  5
1473
331
15D4
  5
15D4
  0
DIMASSOC
  5
335
102
{ACAD_REACTORS
330
32B
102
}
330
32B
100
AcDbDimAssoc
330
31E
 90
        3
 70
     0
 71
     0
  1
AcDbOsnapPointRef
 72
     8
331
14F
 73
     2
 91
        0
 40
0.3619215791458308
 10
0.0
 20
0.0
 30
0.0
 75
     1
  1
AcDbOsnapPointRef
 72
     0
 40
0.0
 10
1232.62466800239
 20
939.8679655665095
 30
0.0
 75
     0
  1
AcDbOsnapPointRef
 72
     8
331
176
 73
     2
 91
        0
 40
0.3619215791458308
 10
0.0
 20
0.0
 30
0.0
 75
     1
  1
AcDbOsnapPointRef
 72
     8
331
14F
 73
     2
 91
        0
 40
0.3619215791458308
 10
0.0
 20
0.0
 30
0.0
 75
     1
  1
AcDbOsnapPointRef
 72
     0
 40
0.0
 10
1232.62466800239
 20
939.8679655665095
 30
0.0
 75
     0
  0
DIMASSOC
  5
34D
102
{ACAD_REACTORS
330
343
102
}
330
343
100
AcDbDimAssoc
330
336
 90
        3
 70
     0
 71
     0
  1
AcDbOsnapPointRef
 72
    10
331
175
 73
     2
 91
        0
 40
0.2317074394049736
 10
0.0
 20
0.0
 30
0.0
 75
     0
  1
AcDbOsnapPointRef
 72
     8
331
14E
 73
     2
 91
        0
 40
0.2317074394049736
 10
0.0
 20
0.0
 30
0.0
 75
     1
  1
AcDbOsnapPointRef
 72
    10
331
175
 73
     2
 91
        0
 40
0.2317074394049736
 10
0.0
 20
0.0
 30
0.0
 75
     0
  0
DIMASSOC
  5
365
102
{ACAD_REACTORS
330
35B
102
}
330
35B
100
AcDbDimAssoc
330
34E
 90
        3
 70
     0
 71
     0
  1
AcDbOsnapPointRef
 72
    10
331
14E
 73
     2
 91
        0
 40
0.7881167040214569
 10
0.0
 20
0.0
 30
0.0
 75
     0
  1
AcDbOsnapPointRef
 72
     8
331
1FA
 73
     2
 91
        0
 40
0.3407776109355107
 10
0.0
 20
0.0
 30
0.0
 75
     1
  1
AcDbOsnapPointRef
 72
    10
331
14E
 73
     2
 91
        0
 40
0.7881167040214569
 10
0.0
 20
0.0
 30
0.0
 75
     0
  0
DIMASSOC
  5
398
102
{ACAD_REACTORS
330
38E
102
}
330
38E
100
AcDbDimAssoc
330
381
 90
        3
 70
     0
 71
     0
  1
AcDbOsnapPointRef
 72
     1
331
1F9
 73
     2
 91
        0
 40
1.0
 10
0.0
 20
0.0
 30
2.000000000000000E+50
 75
     0
  1
AcDbOsnapPointRef
 72
     1
331
1FA
 73
     2
 91
        0
 40
1.0
 10
0.0
 20
0.0
 30
2.000000000000000E+50
 75
     0
  0
DIMASSOC
  5
3B0
102
{ACAD_REACTORS
330
3A6
102
}
330
3A6
100
AcDbDimAssoc
330
399
 90
        3
 70
     0
 71
     0
  1
AcDbOsnapPointRef
 72
     1
331
184
 73
     2
 91
        0
 40
1.0
 10
0.0
 20
0.0
 30
2.000000000000000E+50
 75
     0
  1
AcDbOsnapPointRef
 72
     1
331
16C
 73
     2
 91
        0
 40
1.0
 10
0.0
 20
0.0
 30
2.000000000000000E+50
 75
     0
  0
DIMASSOC
  5
149C
102
{ACAD_REACTORS
330
149B
102
}
330
149B
100
AcDbDimAssoc
330
149A
 90
        3
 70
     0
 71
     0
  1
AcDbOsnapPointRef
 72
    10
331
141B
 73
     2
 91
        0
 40
0.1878326418842907
 10
0.0
 20
0.0
 30
0.0
 75
     0
  1
AcDbOsnapPointRef
 72
     8
331
1469
 73
     2
 91
        0
 40
0.1878326418842907
 10
0.0
 20
0.0
 30
0.0
 75
     1
  1
AcDbOsnapPointRef
 72
    10
331
141B
 73
     2
 91
        0
 40
0.1878326418842907
 10
0.0
 20
0.0
 30
0.0
 75
     0
  0
DIMASSOC
  5
149F
102
{ACAD_REACTORS
330
149E
102
}
330
149E
100
AcDbDimAssoc
330
149D
 90
        3
 70
     0
 71
     0
  1
AcDbOsnapPointRef
 72
    10
331
1421
 73
     2
 91
        0
 40
0.8302399206222151
 10
0.0
 20
0.0
 30
0.0
 75
     0
  1
AcDbOsnapPointRef
 72
     8
331
141A
 73
     2
 91
        0
 40
0.8302399206222151
 10
0.0
 20
0.0
 30
0.0
 75
     1
  1
AcDbOsnapPointRef
 72
    10
331
1421
 73
     2
 91
        0
 40
0.8302399206222151
 10
0.0
 20
0.0
 30
0.0
 75
     0
  0
DIMASSOC
  5
14C9
102
{ACAD_REACTORS
330
14C8
102
}
330
14C8
100
AcDbDimAssoc
330
14C7
 90
        3
 70
     0
 71
     0
  1
AcDbOsnapPointRef
 72
    10
331
141A
 73
     2
 91
        0
 40
0.3671493431533457
 10
0.0
 20
0.0
 30
0.0
 75
     0
  1
AcDbOsnapPointRef
 72
     8
331
141C
 73
     2
 91
        1
 40
0.3666480199199636
 10
0.0
 20
0.0
 30
0.0
 75
     1
  1
AcDbOsnapPointRef
 72
    10
331
141A
 73
     2
 91
        0
 40
0.3671493431533457
 10
0.0
 20
0.0
 30
0.0
 75
     0
  0
DIMASSOC
  5
14CC
102
{ACAD_REACTORS
330
14CB
102
}
330
14CB
100
AcDbDimAssoc
330
14CA
 90
        2
 70
     0
 71
     0
  1
AcDbOsnapPointRef
 72
     2
331
144D
 73
     2
 91
        0
 40
0.5
 10
0.0
 20
0.0
 30
0.0
 75
     0
  0
DIMASSOC
  5
14CF
102
{ACAD_REACTORS
330
14CE
102
}
330
14CE
100
AcDbDimAssoc
330
14CD
 90
        1
 70
     0
 71
     0
  1
AcDbOsnapPointRef
 72
     2
331
141F
 73
     2
 91
        0
 40
0.5
 10
0.0
 20
0.0
 30
0.0
 75
     0
  0
LAYOUT
  5
22
102
{ACAD_REACTORS
330
1A
102
}
330
1A
100
AcDbPlotSettings
  1

  2
none_device
  4
ISO_A4_(210.00_x_297.00_MM)
  6

 40
7.5
 41
20.0
 42
7.5
 43
20.0
 44
210.0
 45
297.0
 46
11.54999923706054
 47
-13.65000009536743
 48
0.0
 49
0.0
140
0.0
141
0.0
142
1.0
143
8.704084754739808
 70
 11952
 72
     1
 73
     0
 74
     0
  7

 75
     0
147
0.1148885871608098
 76
     0
 77
     2
 78
   300
148
0.0
149
0.0
100
AcDbLayout
  1
Model
 70
     1
 71
     0
 10
0.0
 20
0.0
 11
12.0
 21
9.0
 12
0.0
 22
0.0
 32
0.0
 14
0.0
 24
0.0
 34
0.0
 15
0.0
 25
0.0
 35
0.0
146
0.0
 13
0.0
 23
0.0
 33
0.0
 16
1.0
 26
0.0
 36
0.0
 17
0.0
 27
1.0
 37
0.0
 76
     0
330
1F
331
EB
1001
ACAD_PSEXT
1000
None
1000
None
1000
Not applicable
1000
The layout will not be plotted unless a new plotter configuration name is selected.
1070
     0
  0
LAYOUT
  5
D3
102
{ACAD_REACTORS
330
1A
102
}
330
1A
100
AcDbPlotSettings
  1

  2
C:\Documents and Settings\basas\Application Data\Autodesk\AutoCAD 2005\R16.1\enu\plotters\Default Windows System Printer.pc3
  4

  6

 40
0.0
 41
0.0
 42
0.0
 43
0.0
 44
0.0
 45
0.0
 46
0.0
 47
0.0
 48
0.0
 49
0.0
140
0.0
141
0.0
142
1.0
143
1.0
 70
   688
 72
     0
 73
     0
 74
     5
  7

 75
    16
147
1.0
 76
     0
 77
     2
 78
   300
148
0.0
149
0.0
100
AcDbLayout
  1
布局1
 70
     1
 71
     1
 10
0.0
 20
0.0
 11
12.0
 21
9.0
 12
0.0
 22
0.0
 32
0.0
 14
0.0
 24
0.0
 34
0.0
 15
0.0
 25
0.0
 35
0.0
146
0.0
 13
0.0
 23
0.0
 33
0.0
 16
1.0
 26
0.0
 36
0.0
 17
0.0
 27
1.0
 37
0.0
 76
     0
330
D2
  0
LAYOUT
  5
D7
102
{ACAD_REACTORS
330
1A
102
}
330
1A
100
AcDbPlotSettings
  1

  2
C:\Documents and Settings\basas\Application Data\Autodesk\AutoCAD 2005\R16.1\enu\plotters\Default Windows System Printer.pc3
  4

  6

 40
0.0
 41
0.0
 42
0.0
 43
0.0
 44
0.0
 45
0.0
 46
0.0
 47
0.0
 48
0.0
 49
0.0
140
0.0
141
0.0
142
1.0
143
1.0
 70
   688
 72
     0
 73
     0
 74
     5
  7

 75
    16
147
1.0
 76
     0
 77
     2
 78
   300
148
0.0
149
0.0
100
AcDbLayout
  1
布局2
 70
     1
 71
     2
 10
0.0
 20
0.0
 11
12.0
 21
9.0
 12
0.0
 22
0.0
 32
0.0
 14
0.0
 24
0.0
 34
0.0
 15
0.0
 25
0.0
 35
0.0
146
0.0
 13
0.0
 23
0.0
 33
0.0
 16
1.0
 26
0.0
 36
0.0
 17
0.0
 27
1.0
 37
0.0
 76
     0
330
D6
  0
MATERIAL
  5
EE
102
{ACAD_REACTORS
330
6A
102
}
330
6A
100
AcDbMaterial
  1
ByBlock
  0
MATERIAL
  5
ED
102
{ACAD_REACTORS
330
6A
102
}
330
6A
100
AcDbMaterial
  1
ByLayer
  0
MATERIAL
  5
EF
102
{ACAD_REACTORS
330
6A
102
}
330
6A
100
AcDbMaterial
  1
Global
  0
MLINESTYLE
  5
18
102
{ACAD_REACTORS
330
17
102
}
330
17
100
AcDbMlineStyle
  2
STANDARD
 70
     0
  3

 62
   256
 51
90.0
 52
90.0
 71
     2
 49
0.5
 62
   256
  6
BYLAYER
 49
-0.5
 62
   256
  6
BYLAYER
  0
ACDBPLACEHOLDER
  5
F
102
{ACAD_REACTORS
330
E
102
}
330
E
  0
TABLESTYLE
  5
7F
102
{ACAD_REACTORS
330
7E
102
}
330
7E
100
AcDbTableStyle
  3
Standard
 70
     0
 71
     0
 40
1.5
 41
1.5
280
     0
281
     0
  7
Standard
140
4.5
170
     2
 62
     0
 63
     7
283
     0
 90
      512
 91
        0
  1

274
    -2
284
     1
 64
     0
275
    -2
285
     1
 65
     0
276
    -2
286
     1
 66
     0
277
    -2
287
     1
 67
     0
278
    -2
288
     1
 68
     0
279
    -2
289
     1
 69
     0
  7
Standard
140
6.0
170
     5
 62
     0
 63
     7
283
     0
 90
      512
 91
        0
  1

274
    -2
284
     1
 64
     0
275
    -2
285
     1
 65
     0
276
    -2
286
     1
 66
     0
277
    -2
287
     1
 67
     0
278
    -2
288
     1
 68
     0
279
    -2
289
     1
 69
     0
  7
Standard
140
4.5
170
     5
 62
     0
 63
     7
283
     0
 90
      512
 91
        0
  1

274
    -2
284
     1
 64
     0
275
    -2
285
     1
 65
     0
276
    -2
286
     1
 66
     0
277
    -2
287
     1
 67
     0
278
    -2
288
     1
 68
     0
279
    -2
289
     1
 69
     0
  0
VISUALSTYLE
  5
F6
102
{ACAD_REACTORS
330
F0
102
}
330
F0
100
AcDbVisualStyle
  2
2dWireframe
 70
     4
 71
     0
 72
     2
 73
     1
 90
        0
 40
-0.6
 41
-30.0
 62
     5
 63
     7
421
 16777215
 74
     1
 91
        4
 64
     7
 65
   257
 75
     1
175
     1
 42
1.0
 92
        0
 66
   257
 43
1.0
 76
     1
 77
     6
 78
     2
 67
     7
 79
     5
170
     0
171
     0
290
     0
174
     0
 93
        1
 44
0.0
173
     0
291
     0
 45
0.0
  0
VISUALSTYLE
  5
F8
102
{ACAD_REACTORS
330
F0
102
}
330
F0
100
AcDbVisualStyle
  2
3D Hidden
 70
     6
 71
     1
 72
     2
 73
     2
 90
        0
 40
-0.6
 41
-30.0
 62
     5
 63
     7
421
 16777215
 74
     2
 91
        2
 64
     7
 65
   257
 75
     2
175
     1
 42
40.0
 92
        0
 66
   257
 43
1.0
 76
     1
 77
     6
 78
     2
 67
     7
 79
     3
170
     0
171
     0
290
     0
174
     0
 93
        1
 44
0.0
173
     0
291
     0
 45
0.0
  0
VISUALSTYLE
  5
F7
102
{ACAD_REACTORS
330
F0
102
}
330
F0
100
AcDbVisualStyle
  2
3dWireframe
 70
     5
 71
     0
 72
     2
 73
     1
 90
        0
 40
-0.6
 41
-30.0
 62
     5
 63
     7
421
 16777215
 74
     1
 91
        4
 64
     7
 65
   257
 75
     1
175
     1
 42
1.0
 92
        0
 66
   257
 43
1.0
 76
     1
 77
     6
 78
     2
 67
     7
 79
     5
170
     0
171
     0
290
     0
174
     0
 93
        1
 44
0.0
173
     0
291
     0
 45
0.0
  0
VISUALSTYLE
  5
F5
102
{ACAD_REACTORS
330
F0
102
}
330
F0
100
AcDbVisualStyle
  2
Basic
 70
     7
 71
     1
 72
     0
 73
     1
 90
        0
 40
-0.6
 41
-30.0
 62
     5
 63
     7
421
 16777215
 74
     0
 91
        4
 64
     7
 65
   257
 75
     1
175
     1
 42
1.0
 92
        8
 66
     7
 43
1.0
 76
     1
 77
     6
 78
     2
 67
     7
 79
     5
170
     0
171
     0
290
     0
174
     0
 93
        1
 44
0.0
173
     0
291
     1
 45
0.0
  0
VISUALSTYLE
  5
FC
102
{ACAD_REACTORS
330
F0
102
}
330
F0
100
AcDbVisualStyle
  2
Brighten
 70
    12
 71
     2
 72
     2
 73
     1
 90
        0
 40
-0.6
 41
-30.0
 62
     5
 63
     7
421
 16777215
 74
     1
 91
        4
 64
     7
 65
   257
 75
     1
175
     1
 42
1.0
 92
        8
 66
     7
 43
1.0
 76
     1
 77
     6
 78
     2
 67
     7
 79
     5
170
     0
171
     0
290
     0
174
     0
 93
        1
 44
50.0
173
     0
291
     1
 45
0.0
  0
VISUALSTYLE
  5
100
102
{ACAD_REACTORS
330
F0
102
}
330
F0
100
AcDbVisualStyle
  2
ColorChange
 70
    16
 71
     2
 72
     2
 73
     3
 90
        0
 40
-0.6
 41
-30.0
 62
     5
 63
     8
421
  8421504
 74
     1
 91
        4
 64
     7
 65
   257
 75
     1
175
     1
 42
1.0
 92
        8
 66
     8
424
  8421504
 43
1.0
 76
     1
 77
     6
 78
     2
 67
     7
 79
     5
170
     0
171
     0
290
     0
174
     0
 93
        1
 44
0.0
173
     0
291
     1
 45
0.0
  0
VISUALSTYLE
  5
F9
102
{ACAD_REACTORS
330
F0
102
}
330
F0
100
AcDbVisualStyle
  2
Conceptual
 70
     9
 71
     3
 72
     2
 73
     1
 90
        0
 40
-0.6
 41
-30.0
 62
     5
 63
     7
421
 16777215
 74
     2
 91
        2
 64
     7
 65
   257
 75
     1
175
     1
 42
40.0
 92
        8
 66
     7
 43
1.0
 76
     1
 77
     6
 78
     2
 67
     7
 79
     3
170
     0
171
     0
290
     0
174
     0
 93
        1
 44
0.0
173
     0
291
     0
 45
0.0
  0
VISUALSTYLE
  5
FB
102
{ACAD_REACTORS
330
F0
102
}
330
F0
100
AcDbVisualStyle
  2
Dim
 70
    11
 71
     2
 72
     2
 73
     1
 90
        0
 40
-0.6
 41
-30.0
 62
     5
 63
     7
421
 16777215
 74
     1
 91
        4
 64
     7
 65
   257
 75
     1
175
     1
 42
1.0
 92
        8
 66
     7
 43
1.0
 76
     1
 77
     6
 78
     2
 67
     7
 79
     5
170
     0
171
     0
290
     0
174
     0
 93
        1
 44
-50.0
173
     0
291
     1
 45
0.0
  0
VISUALSTYLE
  5
FF
102
{ACAD_REACTORS
330
F0
102
}
330
F0
100
AcDbVisualStyle
  2
Facepattern
 70
    15
 71
     2
 72
     2
 73
     1
 90
        0
 40
-0.6
 41
-30.0
 62
     5
 63
     7
421
 16777215
 74
     1
 91
        4
 64
     7
 65
   257
 75
     1
175
     1
 42
1.0
 92
        8
 66
     7
 43
1.0
 76
     1
 77
     6
 78
     2
 67
     7
 79
     5
170
     0
171
     0
290
     0
174
     0
 93
        1
 44
0.0
173
     0
291
     1
 45
0.0
  0
VISUALSTYLE
  5
F1
102
{ACAD_REACTORS
330
F0
102
}
330
F0
100
AcDbVisualStyle
  2
Flat
 70
     0
 71
     2
 72
     1
 73
     1
 90
        2
 40
-0.6
 41
30.0
 62
     5
 63
     7
421
 16777215
 74
     0
 91
        4
 64
     7
 65
   257
 75
     1
175
     1
 42
1.0
 92
        8
 66
     7
 43
1.0
 76
     1
 77
     6
 78
     2
 67
     7
 79
     5
170
     0
171
     0
290
     0
174
     0
 93
        1
 44
0.0
173
     0
291
     1
 45
0.0
  0
VISUALSTYLE
  5
F2
102
{ACAD_REACTORS
330
F0
102
}
330
F0
100
AcDbVisualStyle
  2
FlatWithEdges
 70
     1
 71
     2
 72
     1
 73
     1
 90
        2
 40
-0.6
 41
30.0
 62
     5
 63
     7
421
 16777215
 74
     1
 91
        4
 64
     7
 65
   257
 75
     1
175
     1
 42
1.0
 92
        0
 66
   257
 43
1.0
 76
     1
 77
     6
 78
     2
 67
     7
 79
     5
170
     0
171
     0
290
     0
174
     0
 93
        1
 44
0.0
173
     0
291
     1
 45
0.0
  0
VISUALSTYLE
  5
F3
102
{ACAD_REACTORS
330
F0
102
}
330
F0
100
AcDbVisualStyle
  2
Gouraud
 70
     2
 71
     2
 72
     2
 73
     1
 90
        2
 40
-0.6
 41
30.0
 62
     5
 63
     7
421
 16777215
 74
     0
 91
        4
 64
     7
 65
   257
 75
     1
175
     1
 42
1.0
 92
        0
 66
     7
 43
1.0
 76
     1
 77
     6
 78
     2
 67
     7
 79
     5
170
     0
171
     0
290
     0
174
     0
 93
        1
 44
0.0
173
     0
291
     1
 45
0.0
  0
VISUALSTYLE
  5
F4
102
{ACAD_REACTORS
330
F0
102
}
330
F0
100
AcDbVisualStyle
  2
GouraudWithEdges
 70
     3
 71
     2
 72
     2
 73
     1
 90
        2
 40
-0.6
 41
30.0
 62
     5
 63
     7
421
 16777215
 74
     1
 91
        4
 64
     7
 65
   257
 75
     1
175
     1
 42
1.0
 92
        0
 66
   257
 43
1.0
 76
     1
 77
     6
 78
     2
 67
     7
 79
     5
170
     0
171
     0
290
     0
174
     0
 93
        1
 44
0.0
173
     0
291
     1
 45
0.0
  0
VISUALSTYLE
  5
FE
102
{ACAD_REACTORS
330
F0
102
}
330
F0
100
AcDbVisualStyle
  2
Linepattern
 70
    14
 71
     2
 72
     2
 73
     1
 90
        0
 40
-0.6
 41
-30.0
 62
     5
 63
     7
421
 16777215
 74
     1
 91
        4
 64
     7
 65
   257
 75
     7
175
     7
 42
1.0
 92
        8
 66
     7
 43
1.0
 76
     1
 77
     6
 78
     2
 67
     7
 79
     5
170
     0
171
     0
290
     0
174
     0
 93
        1
 44
0.0
173
     0
291
     1
 45
0.0
  0
VISUALSTYLE
  5
FA
102
{ACAD_REACTORS
330
F0
102
}
330
F0
100
AcDbVisualStyle
  2
Realistic
 70
     8
 71
     2
 72
     2
 73
     1
 90
        0
 40
-0.6
 41
-30.0
 62
     5
 63
     7
421
 16777215
 74
     1
 91
        0
 64
     7
 65
   257
 75
     1
175
     1
 42
1.0
 92
        8
 66
     8
424
  7895160
 43
1.0
 76
     1
 77
     6
 78
     2
 67
     7
 79
     5
170
     0
171
     0
290
     0
174
     0
 93
       13
 44
0.0
173
     0
291
     0
 45
0.0
  0
VISUALSTYLE
  5
FD
102
{ACAD_REACTORS
330
F0
102
}
330
F0
100
AcDbVisualStyle
  2
Thicken
 70
    13
 71
     2
 72
     2
 73
     1
 90
        0
 40
-0.6
 41
-30.0
 62
     5
 63
     7
421
 16777215
 74
     1
 91
        4
 64
     7
 65
   257
 75
     1
175
     1
 42
1.0
 92
       12
 66
     7
 43
1.0
 76
     1
 77
     6
 78
     2
 67
     7
 79
     5
170
     0
171
     0
290
     0
174
     0
 93
        1
 44
0.0
173
     0
291
     1
 45
0.0
  0
DICTIONARYVAR
  5
84
102
{ACAD_REACTORS
330
5E
102
}
330
5E
100
DictionaryVariables
280
     0
  1
STANDARD
  0
DICTIONARYVAR
  5
5F
102
{ACAD_REACTORS
330
5E
102
}
330
5E
100
DictionaryVariables
280
     0
  1
2
  0
DICTIONARYVAR
  5
63
102
{ACAD_REACTORS
330
5E
102
}
330
5E
100
DictionaryVariables
280
     0
  1
1
  0
ENDSEC
  0
EOF
