  0
SECTION
  2
HEADER
  9
$ACADVER
  1
AC1021
  9
$ACADMAINTVER
 70
     1
  9
$DWGCODEPAGE
  3
ANSI_936
  9
$LASTSAVEDBY
  1
dell
  9
$INSBASE
 10
0.0
 20
0.0
 30
0.0
  9
$EXTMIN
 10
298.9120771315511
 20
-7.064258849311926
 30
0.0
  9
$EXTMAX
 10
1778.912077131553
 20
852.1777945507185
 30
0.0
  9
$LIMMIN
 10
0.0
 20
0.0
  9
$LIMMAX
 10
12.0
 20
9.0
  9
$ORTHOMODE
 70
     1
  9
$REGENMODE
 70
     1
  9
$FILLMODE
 70
     1
  9
$QTEXTMODE
 70
     0
  9
$MIRRTEXT
 70
     1
  9
$LTSCALE
 40
1.0
  9
$ATTMODE
 70
     1
  9
$TEXTSIZE
 40
0.2
  9
$TRACEWID
 40
0.05
  9
$TEXTSTYLE
  7
Standard
  9
$CLAYER
  8
0
  9
$CELTYPE
  6
ByLayer
  9
$CECOLOR
 62
   256
  9
$CELTSCALE
 40
1.0
  9
$DISPSILH
 70
     0
  9
$DIMSCALE
 40
1.0
  9
$DIMASZ
 40
0.18
  9
$DIMEXO
 40
0.0625
  9
$DIMDLI
 40
0.38
  9
$DIMRND
 40
0.0
  9
$DIMDLE
 40
0.0
  9
$DIMEXE
 40
0.18
  9
$DIMTP
 40
0.0
  9
$DIMTM
 40
0.0
  9
$DIMTXT
 40
15.0
  9
$DIMCEN
 40
0.09
  9
$DIMTSZ
 40
0.0
  9
$DIMTOL
 70
     0
  9
$DIMLIM
 70
     0
  9
$DIMTIH
 70
     1
  9
$DIMTOH
 70
     1
  9
$DIMSE1
 70
     0
  9
$DIMSE2
 70
     0
  9
$DIMTAD
 70
     0
  9
$DIMZIN
 70
     0
  9
$DIMBLK
  1

  9
$DIMASO
 70
     1
  9
$DIMSHO
 70
     1
  9
$DIMPOST
  1

  9
$DIMAPOST
  1

  9
$DIMALT
 70
     0
  9
$DIMALTD
 70
     2
  9
$DIMALTF
 40
25.4
  9
$DIMLFAC
 40
1.0
  9
$DIMTOFL
 70
     0
  9
$DIMTVP
 40
0.0
  9
$DIMTIX
 70
     0
  9
$DIMSOXD
 70
     0
  9
$DIMSAH
 70
     0
  9
$DIMBLK1
  1

  9
$DIMBLK2
  1

  9
$DIMSTYLE
  2
Standard
  9
$DIMCLRD
 70
     0
  9
$DIMCLRE
 70
     0
  9
$DIMCLRT
 70
     0
  9
$DIMTFAC
 40
1.0
  9
$DIMGAP
 40
0.09
  9
$DIMJUST
 70
     0
  9
$DIMSD1
 70
     0
  9
$DIMSD2
 70
     0
  9
$DIMTOLJ
 70
     1
  9
$DIMTZIN
 70
     0
  9
$DIMALTZ
 70
     0
  9
$DIMALTTZ
 70
     0
  9
$DIMUPT
 70
     0
  9
$DIMDEC
 70
     1
  9
$DIMTDEC
 70
     1
  9
$DIMALTU
 70
     2
  9
$DIMALTTD
 70
     2
  9
$DIMTXSTY
  7
Standard
  9
$DIMAUNIT
 70
     0
  9
$DIMADEC
 70
     0
  9
$DIMALTRND
 40
0.0
  9
$DIMAZIN
 70
     0
  9
$DIMDSEP
 70
    46
  9
$DIMATFIT
 70
     3
  9
$DIMFRAC
 70
     0
  9
$DIMLDRBLK
  1

  9
$DIMLUNIT
 70
     2
  9
$DIMLWD
 70
    -2
  9
$DIMLWE
 70
    -2
  9
$DIMTMOVE
 70
     0
  9
$DIMFXL
 40
1.0
  9
$DIMFXLON
 70
     0
  9
$DIMJOGANG
 40
0.7853981633974483
  9
$DIMTFILL
 70
     0
  9
$DIMTFILLCLR
 70
     0
  9
$DIMARCSYM
 70
     0
  9
$DIMLTYPE
  6

  9
$DIMLTEX1
  6

  9
$DIMLTEX2
  6

  9
$LUNITS
 70
     2
  9
$LUPREC
 70
     4
  9
$SKETCHINC
 40
0.1
  9
$FILLETRAD
 40
5.0
  9
$AUNITS
 70
     0
  9
$AUPREC
 70
     0
  9
$MENU
  1
.
  9
$ELEVATION
 40
0.0
  9
$PELEVATION
 40
0.0
  9
$THICKNESS
 40
0.0
  9
$LIMCHECK
 70
     0
  9
$CHAMFERA
 40
0.5
  9
$CHAMFERB
 40
0.5
  9
$CHAMFERC
 40
1.0
  9
$CHAMFERD
 40
0.0
  9
$SKPOLY
 70
     0
  9
$TDCREATE
 40
2457616.607495093
  9
$TDUCREATE
 40
2457616.274161759
  9
$TDUPDATE
 40
2457656.601945810
  9
$TDUUPDATE
 40
2457656.268612477
  9
$TDINDWG
 40
0.1827386343
  9
$TDUSRTIMER
 40
0.1827316319
  9
$USRTIMER
 70
     1
  9
$ANGBASE
 50
0.0
  9
$ANGDIR
 70
     0
  9
$PDMODE
 70
     0
  9
$PDSIZE
 40
0.0
  9
$PLINEWID
 40
0.0
  9
$SPLFRAME
 70
     0
  9
$SPLINETYPE
 70
     6
  9
$SPLINESEGS
 70
     8
  9
$HANDSEED
  5
1D80
  9
$SURFTAB1
 70
     6
  9
$SURFTAB2
 70
     6
  9
$SURFTYPE
 70
     6
  9
$SURFU
 70
     6
  9
$SURFV
 70
     6
  9
$UCSBASE
  2

  9
$UCSNAME
  2

  9
$UCSORG
 10
0.0
 20
0.0
 30
0.0
  9
$UCSXDIR
 10
1.0
 20
0.0
 30
0.0
  9
$UCSYDIR
 10
0.0
 20
1.0
 30
0.0
  9
$UCSORTHOREF
  2

  9
$UCSORTHOVIEW
 70
     0
  9
$UCSORGTOP
 10
0.0
 20
0.0
 30
0.0
  9
$UCSORGBOTTOM
 10
0.0
 20
0.0
 30
0.0
  9
$UCSORGLEFT
 10
0.0
 20
0.0
 30
0.0
  9
$UCSORGRIGHT
 10
0.0
 20
0.0
 30
0.0
  9
$UCSORGFRONT
 10
0.0
 20
0.0
 30
0.0
  9
$UCSORGBACK
 10
0.0
 20
0.0
 30
0.0
  9
$PUCSBASE
  2

  9
$PUCSNAME
  2

  9
$PUCSORG
 10
0.0
 20
0.0
 30
0.0
  9
$PUCSXDIR
 10
1.0
 20
0.0
 30
0.0
  9
$PUCSYDIR
 10
0.0
 20
1.0
 30
0.0
  9
$PUCSORTHOREF
  2

  9
$PUCSORTHOVIEW
 70
     0
  9
$PUCSORGTOP
 10
0.0
 20
0.0
 30
0.0
  9
$PUCSORGBOTTOM
 10
0.0
 20
0.0
 30
0.0
  9
$PUCSORGLEFT
 10
0.0
 20
0.0
 30
0.0
  9
$PUCSORGRIGHT
 10
0.0
 20
0.0
 30
0.0
  9
$PUCSORGFRONT
 10
0.0
 20
0.0
 30
0.0
  9
$PUCSORGBACK
 10
0.0
 20
0.0
 30
0.0
  9
$USERI1
 70
     0
  9
$USERI2
 70
     0
  9
$USERI3
 70
     0
  9
$USERI4
 70
     0
  9
$USERI5
 70
     0
  9
$USERR1
 40
0.0
  9
$USERR2
 40
0.0
  9
$USERR3
 40
0.0
  9
$USERR4
 40
0.0
  9
$USERR5
 40
0.0
  9
$WORLDVIEW
 70
     1
  9
$SHADEDGE
 70
     3
  9
$SHADEDIF
 70
    70
  9
$TILEMODE
 70
     1
  9
$MAXACTVP
 70
    64
  9
$PINSBASE
 10
0.0
 20
0.0
 30
0.0
  9
$PLIMCHECK
 70
     0
  9
$PEXTMIN
 10
1.000000000000000E+20
 20
1.000000000000000E+20
 30
1.000000000000000E+20
  9
$PEXTMAX
 10
-1.000000000000000E+20
 20
-1.000000000000000E+20
 30
-1.000000000000000E+20
  9
$PLIMMIN
 10
0.0
 20
0.0
  9
$PLIMMAX
 10
12.0
 20
9.0
  9
$UNITMODE
 70
     0
  9
$VISRETAIN
 70
     1
  9
$PLINEGEN
 70
     0
  9
$PSLTSCALE
 70
     1
  9
$TREEDEPTH
 70
  3020
  9
$CMLSTYLE
  2
Standard
  9
$CMLJUST
 70
     0
  9
$CMLSCALE
 40
1.0
  9
$PROXYGRAPHICS
 70
     1
  9
$MEASUREMENT
 70
     0
  9
$CELWEIGHT
370
    -1
  9
$ENDCAPS
280
     0
  9
$JOINSTYLE
280
     0
  9
$LWDISPLAY
290
     1
  9
$INSUNITS
 70
     1
  9
$HYPERLINKBASE
  1

  9
$STYLESHEET
  1

  9
$XEDIT
290
     1
  9
$CEPSNTYPE
380
     0
  9
$PSTYLEMODE
290
     1
  9
$FINGERPRINTGUID
  2
{635E9098-99BE-4D44-9D46-BB3EA2A69791}
  9
$VERSIONGUID
  2
{3C6FC9B1-2214-4B61-952B-71CEBBFB4DED}
  9
$EXTNAMES
290
     1
  9
$PSVPSCALE
 40
0.0
  9
$OLESTARTUP
290
     0
  9
$SORTENTS
280
   127
  9
$INDEXCTL
280
     0
  9
$HIDETEXT
280
     1
  9
$XCLIPFRAME
290
     0
  9
$HALOGAP
280
     0
  9
$OBSCOLOR
 70
   257
  9
$OBSLTYPE
280
     0
  9
$INTERSECTIONDISPLAY
280
     0
  9
$INTERSECTIONCOLOR
 70
   257
  9
$DIMASSOC
280
     2
  9
$PROJECTNAME
  1

  9
$CAMERADISPLAY
290
     0
  9
$LENSLENGTH
 40
50.0
  9
$CAMERAHEIGHT
 40
0.0
  9
$STEPSPERSEC
 40
2.0
  9
$STEPSIZE
 40
6.0
  9
$3DDWFPREC
 40
2.0
  9
$PSOLWIDTH
 40
0.25
  9
$PSOLHEIGHT
 40
4.0
  9
$LOFTANG1
 40
1.570796326794896
  9
$LOFTANG2
 40
1.570796326794896
  9
$LOFTMAG1
 40
0.0
  9
$LOFTMAG2
 40
0.0
  9
$LOFTPARAM
 70
     7
  9
$LOFTNORMALS
280
     1
  9
$LATITUDE
 40
37.795
  9
$LONGITUDE
 40
-122.394
  9
$NORTHDIRECTION
 40
0.0
  9
$TIMEZONE
 70
 -8000
  9
$LIGHTGLYPHDISPLAY
280
     1
  9
$TILEMODELIGHTSYNCH
280
     1
  9
$CMATERIAL
347
3C
  9
$SOLIDHIST
280
     1
  9
$SHOWHIST
280
     1
  9
$DWFFRAME
280
     2
  9
$DGNFRAME
280
     2
  9
$REALWORLDSCALE
290
     1
  9
$INTERFERECOLOR
 62
   256
  9
$INTERFEREOBJVS
345
33
  9
$INTERFEREVPVS
346
30
  9
$CSHADOW
280
     0
  9
$SHADOWPLANELOCATION
 40
0.0
  0
ENDSEC
  0
SECTION
  2
CLASSES
  0
CLASS
  1
ACDBDICTIONARYWDFLT
  2
AcDbDictionaryWithDefault
  3
ObjectDBX Classes
 90
        0
 91
        1
280
     0
281
     0
  0
CLASS
  1
VISUALSTYLE
  2
AcDbVisualStyle
  3
ObjectDBX Classes
 90
     4095
 91
       16
280
     0
281
     0
  0
CLASS
  1
MATERIAL
  2
AcDbMaterial
  3
ObjectDBX Classes
 90
     1024
 91
        3
280
     0
281
     0
  0
CLASS
  1
SUN
  2
AcDbSun
  3
SCENEOE
 90
     1024
 91
        1
280
     0
281
     0
  0
CLASS
  1
TABLESTYLE
  2
AcDbTableStyle
  3
ObjectDBX Classes
 90
     4095
 91
        1
280
     0
281
     0
  0
CLASS
  1
DICTIONARYVAR
  2
AcDbDictionaryVar
  3
ObjectDBX Classes
 90
        0
 91
        1
280
     0
281
     0
  0
CLASS
  1
SORTENTSTABLE
  2
AcDbSortentsTable
  3
ObjectDBX Classes
 90
        0
 91
        2
280
     0
281
     0
  0
CLASS
  1
DIMASSOC
  2
AcDbDimAssoc
  3
"AcDbDimAssoc|Product Desc:     AcDim ARX App For Dimension|Company:          Autodesk, Inc.|WEB Address:      www.autodesk.com"
 90
        0
 91
       15
280
     0
281
     0
  0
ENDSEC
  0
SECTION
  2
TABLES
  0
TABLE
  2
VPORT
  5
8
330
0
100
AcDbSymbolTable
 70
     1
  0
VPORT
  5
29
330
8
100
AcDbSymbolTableRecord
100
AcDbViewportTableRecord
  2
*Active
 70
     0
 10
0.0
 20
0.0
 11
1.0
 21
1.0
 12
785.9252158238014
 22
400.6441706783572
 13
0.0
 23
0.0
 14
0.5
 24
0.5
 15
0.5
 25
0.5
 16
0.0
 26
0.0
 36
1.0
 17
104.9999647089931
 27
148.4999796178229
 37
0.0
 40
1436.038158023792
 41
2.302843016069221
 42
50.0
 43
0.0
 44
0.0
 50
0.0
 51
0.0
 71
     0
 72
   100
 73
     1
 74
     3
 75
     0
 76
     0
 77
     0
 78
     0
281
     0
 65
     1
110
0.0
120
0.0
130
0.0
111
1.0
121
0.0
131
0.0
112
0.0
122
1.0
132
0.0
 79
     0
146
0.0
348
2F
 60
     3
 61
     5
292
     1
282
     1
141
0.0
142
0.0
 63
   250
361
3F
  0
ENDTAB
  0
TABLE
  2
LTYPE
  5
5
330
0
100
AcDbSymbolTable
 70
    14
  0
LTYPE
  5
14
330
5
100
AcDbSymbolTableRecord
100
AcDbLinetypeTableRecord
  2
ByBlock
 70
     0
  3

 72
    65
 73
     0
 40
0.0
  0
LTYPE
  5
15
330
5
100
AcDbSymbolTableRecord
100
AcDbLinetypeTableRecord
  2
ByLayer
 70
     0
  3

 72
    65
 73
     0
 40
0.0
  0
LTYPE
  5
16
330
5
100
AcDbSymbolTableRecord
100
AcDbLinetypeTableRecord
  2
Continuous
 70
     0
  3
Solid line
 72
    65
 73
     0
 40
0.0
  0
LTYPE
  5
6D
330
5
100
AcDbSymbolTableRecord
100
AcDbLinetypeTableRecord
  2
AI-Linetype-1
 70
     0
  3
Adobe Illustrator Linetype No. 1
 72
    65
 73
     2
 40
1.400033900785118
 49
0.7000169503925592
 74
     0
 49
-0.7000169503925592
 74
     0
  0
LTYPE
  5
72
330
5
100
AcDbSymbolTableRecord
100
AcDbLinetypeTableRecord
  2
AI-Linetype-2
 70
     0
  3
Adobe Illustrator Linetype No. 2
 72
    65
 73
     2
 40
1.400033900785118
 49
0.7000169503925592
 74
     0
 49
-0.7000169503925592
 74
     0
  0
LTYPE
  5
77
330
5
100
AcDbSymbolTableRecord
100
AcDbLinetypeTableRecord
  2
AI-Linetype-3
 70
     0
  3
Adobe Illustrator Linetype No. 3
 72
    65
 73
     2
 40
1.400033900785118
 49
0.7000169503925592
 74
     0
 49
-0.7000169503925592
 74
     0
  0
LTYPE
  5
7C
330
5
100
AcDbSymbolTableRecord
100
AcDbLinetypeTableRecord
  2
AI-Linetype-4
 70
     0
  3
Adobe Illustrator Linetype No. 4
 72
    65
 73
     2
 40
1.400033900785118
 49
0.7000169503925592
 74
     0
 49
-0.7000169503925592
 74
     0
  0
LTYPE
  5
8A
330
5
100
AcDbSymbolTableRecord
100
AcDbLinetypeTableRecord
  2
AI-Linetype-5
 70
     0
  3
Adobe Illustrator Linetype No. 5
 72
    65
 73
     2
 40
1.400033900785118
 49
0.7000169503925592
 74
     0
 49
-0.7000169503925592
 74
     0
  0
LTYPE
  5
8F
330
5
100
AcDbSymbolTableRecord
100
AcDbLinetypeTableRecord
  2
AI-Linetype-6
 70
     0
  3
Adobe Illustrator Linetype No. 6
 72
    65
 73
     2
 40
1.400033900785118
 49
0.7000169503925592
 74
     0
 49
-0.7000169503925592
 74
     0
  0
LTYPE
  5
94
330
5
100
AcDbSymbolTableRecord
100
AcDbLinetypeTableRecord
  2
AI-Linetype-7
 70
     0
  3
Adobe Illustrator Linetype No. 7
 72
    65
 73
     2
 40
1.400033900785118
 49
0.7000169503925592
 74
     0
 49
-0.7000169503925592
 74
     0
  0
LTYPE
  5
99
330
5
100
AcDbSymbolTableRecord
100
AcDbLinetypeTableRecord
  2
AI-Linetype-8
 70
     0
  3
Adobe Illustrator Linetype No. 8
 72
    65
 73
     2
 40
1.400033900785118
 49
0.7000169503925592
 74
     0
 49
-0.7000169503925592
 74
     0
  0
LTYPE
  5
9F
330
5
100
AcDbSymbolTableRecord
100
AcDbLinetypeTableRecord
  2
AI-Linetype-9
 70
     0
  3
Adobe Illustrator Linetype No. 9
 72
    65
 73
     2
 40
1.400033900785118
 49
0.7000169503925592
 74
     0
 49
-0.7000169503925592
 74
     0
  0
LTYPE
  5
A4
330
5
100
AcDbSymbolTableRecord
100
AcDbLinetypeTableRecord
  2
AI-Linetype-10
 70
     0
  3
Adobe Illustrator Linetype No. 10
 72
    65
 73
     2
 40
1.400033900785118
 49
0.7000169503925592
 74
     0
 49
-0.7000169503925592
 74
     0
  0
LTYPE
  5
A9
330
5
100
AcDbSymbolTableRecord
100
AcDbLinetypeTableRecord
  2
AI-Linetype-11
 70
     0
  3
Adobe Illustrator Linetype No. 11
 72
    65
 73
     2
 40
1.400033900785118
 49
0.7000169503925592
 74
     0
 49
-0.7000169503925592
 74
     0
  0
LTYPE
  5
AE
330
5
100
AcDbSymbolTableRecord
100
AcDbLinetypeTableRecord
  2
AI-Linetype-12
 70
     0
  3
Adobe Illustrator Linetype No. 12
 72
    65
 73
     2
 40
1.400033900785118
 49
0.7000169503925592
 74
     0
 49
-0.7000169503925592
 74
     0
  0
LTYPE
  5
FB7
330
5
100
AcDbSymbolTableRecord
100
AcDbLinetypeTableRecord
  2
ZIGZAG
 70
     0
  3
Zig zag /\/\/\/\/\/\/\/\/\/\/\/\/\/\/\/\/\/\/\/\/\/\/\/
 72
    65
 73
     4
 40
0.8001000000000001
 49
0.0001
 74
     0
 49
-0.2
 74
     4
 75
   131
340
FB6
 46
0.2
 50
0.0
 44
-0.2
 45
0.0
 49
-0.4
 74
     4
 75
   131
340
FB6
 46
0.2
 50
180.0
 44
0.2
 45
0.0
 49
-0.2
 74
     0
  0
ENDTAB
  0
TABLE
  2
LAYER
  5
2
102
{ACAD_XDICTIONARY
360
153
102
}
330
0
100
AcDbSymbolTable
 70
     3
  0
LAYER
  5
10
330
2
100
AcDbSymbolTableRecord
100
AcDbLayerTableRecord
  2
0
 70
     0
 62
     3
  6
Continuous
370
    -3
390
F
347
3E
  0
LAYER
  5
40
330
2
100
AcDbSymbolTableRecord
100
AcDbLayerTableRecord
  2
_U+56FE_U+5C42 1
 70
     0
 62
     1
  6
Continuous
370
    -3
390
F
347
3E
  0
LAYER
  5
117
330
2
100
AcDbSymbolTableRecord
100
AcDbLayerTableRecord
  2
Defpoints
 70
     0
 62
     2
  6
Continuous
290
     0
370
    -3
390
F
347
3E
  0
ENDTAB
  0
TABLE
  2
STYLE
  5
3
330
0
100
AcDbSymbolTable
 70
     2
  0
STYLE
  5
11
330
3
100
AcDbSymbolTableRecord
100
AcDbTextStyleTableRecord
  2
Standard
 70
     0
 40
0.0
 41
1.0
 50
0.0
 71
     0
 42
0.2
  3
txt
  4

  0
STYLE
  5
FB6
330
3
100
AcDbSymbolTableRecord
100
AcDbTextStyleTableRecord
  2

 70
     1
 40
0.0
 41
1.0
 50
0.0
 71
     0
 42
0.2
  3
ltypeshp.shx
  4

  0
ENDTAB
  0
TABLE
  2
VIEW
  5
6
330
0
100
AcDbSymbolTable
 70
     0
  0
ENDTAB
  0
TABLE
  2
UCS
  5
7
330
0
100
AcDbSymbolTable
 70
     0
  0
ENDTAB
  0
TABLE
  2
APPID
  5
9
330
0
100
AcDbSymbolTable
 70
     3
  0
APPID
  5
12
330
9
100
AcDbSymbolTableRecord
100
AcDbRegAppTableRecord
  2
ACAD
 70
     0
  0
APPID
  5
14D
330
9
100
AcDbSymbolTableRecord
100
AcDbRegAppTableRecord
  2
ACAD_EXEMPT_FROM_CAD_STANDARDS
 70
     0
  0
APPID
  5
1A79
330
9
100
AcDbSymbolTableRecord
100
AcDbRegAppTableRecord
  2
ACAD_PSEXT
 70
     0
  0
ENDTAB
  0
TABLE
  2
DIMSTYLE
  5
A
330
0
100
AcDbSymbolTable
 70
     2
100
AcDbDimStyleTable
 71
     1
340
27
  0
DIMSTYLE
105
27
102
{ACAD_REACTORS
330
8B4
330
8B5
330
8B8
330
8BB
330
8BE
330
8C1
330
8F9
330
8FC
330
8FF
330
902
330
905
330
1CAD
330
1CC7
330
1CE1
330
1D4C
330
1D66
102
}
330
A
100
AcDbSymbolTableRecord
100
AcDbDimStyleTableRecord
  2
Standard
 70
     0
140
15.0
271
     1
272
     1
340
11
  0
DIMSTYLE
105
1A78
330
A
100
AcDbSymbolTableRecord
100
AcDbDimStyleTableRecord
  2
ISO-25
 70
     0
 41
2.5
 42
0.625
 43
3.75
 44
1.25
 73
     0
 74
     0
 77
     1
 78
     8
140
2.5
141
2.5
143
0.03937007874016
147
0.625
171
     3
172
     1
271
     2
272
     2
274
     3
278
    44
283
     0
284
     8
340
11
  0
ENDTAB
  0
TABLE
  2
BLOCK_RECORD
  5
1
330
0
100
AcDbSymbolTable
 70
   110
  0
BLOCK_RECORD
  5
1F
102
{ACAD_XDICTIONARY
360
114
102
}
330
1
100
AcDbSymbolTableRecord
100
AcDbBlockTableRecord
  2
*Model_Space
340
22
 70
     0
280
     1
281
     0
  0
BLOCK_RECORD
  5
1B
330
1
100
AcDbSymbolTableRecord
100
AcDbBlockTableRecord
  2
*Paper_Space
340
1E
 70
     0
280
     1
281
     0
  0
BLOCK_RECORD
  5
23
330
1
100
AcDbSymbolTableRecord
100
AcDbBlockTableRecord
  2
*Paper_Space0
340
26
 70
     0
280
     1
281
     0
  0
BLOCK_RECORD
  5
118
330
1
100
AcDbSymbolTableRecord
100
AcDbBlockTableRecord
  2
*D1
340
0
 70
     0
280
     1
281
     0
  0
BLOCK_RECORD
  5
132
330
1
100
AcDbSymbolTableRecord
100
AcDbBlockTableRecord
  2
*D2
340
0
 70
     0
280
     1
281
     0
  0
BLOCK_RECORD
  5
1F7
330
1
100
AcDbSymbolTableRecord
100
AcDbBlockTableRecord
  2
*D3
340
0
 70
     0
280
     1
281
     0
  0
BLOCK_RECORD
  5
211
330
1
100
AcDbSymbolTableRecord
100
AcDbBlockTableRecord
  2
*D4
340
0
 70
     0
280
     1
281
     0
  0
BLOCK_RECORD
  5
23F
330
1
100
AcDbSymbolTableRecord
100
AcDbBlockTableRecord
  2
*D5
340
0
 70
     0
280
     1
281
     0
  0
BLOCK_RECORD
  5
295
330
1
100
AcDbSymbolTableRecord
100
AcDbBlockTableRecord
  2
*D6
340
0
 70
     0
280
     1
281
     0
  0
BLOCK_RECORD
  5
2AF
330
1
100
AcDbSymbolTableRecord
100
AcDbBlockTableRecord
  2
*D7
340
0
 70
     0
280
     1
281
     0
  0
BLOCK_RECORD
  5
2DD
330
1
100
AcDbSymbolTableRecord
100
AcDbBlockTableRecord
  2
*D8
340
0
 70
     0
280
     1
281
     0
  0
BLOCK_RECORD
  5
2F7
330
1
100
AcDbSymbolTableRecord
100
AcDbBlockTableRecord
  2
*D9
340
0
 70
     0
280
     1
281
     0
  0
BLOCK_RECORD
  5
365
330
1
100
AcDbSymbolTableRecord
100
AcDbBlockTableRecord
  2
*D10
340
0
 70
     0
280
     1
281
     0
  0
BLOCK_RECORD
  5
37F
330
1
100
AcDbSymbolTableRecord
100
AcDbBlockTableRecord
  2
*D11
340
0
 70
     0
280
     1
281
     0
  0
BLOCK_RECORD
  5
399
330
1
100
AcDbSymbolTableRecord
100
AcDbBlockTableRecord
  2
*D12
340
0
 70
     0
280
     1
281
     0
  0
BLOCK_RECORD
  5
3B3
330
1
100
AcDbSymbolTableRecord
100
AcDbBlockTableRecord
  2
*D13
340
0
 70
     0
280
     1
281
     0
  0
BLOCK_RECORD
  5
3CD
330
1
100
AcDbSymbolTableRecord
100
AcDbBlockTableRecord
  2
*D14
340
0
 70
     0
280
     1
281
     0
  0
BLOCK_RECORD
  5
3E7
330
1
100
AcDbSymbolTableRecord
100
AcDbBlockTableRecord
  2
*D15
340
0
 70
     0
280
     1
281
     0
  0
BLOCK_RECORD
  5
401
330
1
100
AcDbSymbolTableRecord
100
AcDbBlockTableRecord
  2
*D16
340
0
 70
     0
280
     1
281
     0
  0
BLOCK_RECORD
  5
549
330
1
100
AcDbSymbolTableRecord
100
AcDbBlockTableRecord
  2
*D17
340
0
 70
     0
280
     1
281
     0
  0
BLOCK_RECORD
  5
563
330
1
100
AcDbSymbolTableRecord
100
AcDbBlockTableRecord
  2
*D18
340
0
 70
     0
280
     1
281
     0
  0
BLOCK_RECORD
  5
61F
330
1
100
AcDbSymbolTableRecord
100
AcDbBlockTableRecord
  2
*D19
340
0
 70
     0
280
     1
281
     0
  0
BLOCK_RECORD
  5
62C
330
1
100
AcDbSymbolTableRecord
100
AcDbBlockTableRecord
  2
*D20
340
0
 70
     0
280
     1
281
     0
  0
BLOCK_RECORD
  5
639
330
1
100
AcDbSymbolTableRecord
100
AcDbBlockTableRecord
  2
*D21
340
0
 70
     0
280
     1
281
     0
  0
BLOCK_RECORD
  5
647
330
1
100
AcDbSymbolTableRecord
100
AcDbBlockTableRecord
  2
*D22
340
0
 70
     0
280
     1
281
     0
  0
BLOCK_RECORD
  5
661
330
1
100
AcDbSymbolTableRecord
100
AcDbBlockTableRecord
  2
*D23
340
0
 70
     0
280
     1
281
     0
  0
BLOCK_RECORD
  5
720
330
1
100
AcDbSymbolTableRecord
100
AcDbBlockTableRecord
  2
*D24
340
0
 70
     0
280
     1
281
     0
  0
BLOCK_RECORD
  5
72D
330
1
100
AcDbSymbolTableRecord
100
AcDbBlockTableRecord
  2
*D25
340
0
 70
     0
280
     1
281
     0
  0
BLOCK_RECORD
  5
73A
330
1
100
AcDbSymbolTableRecord
100
AcDbBlockTableRecord
  2
*D26
340
0
 70
     0
280
     1
281
     0
  0
BLOCK_RECORD
  5
747
330
1
100
AcDbSymbolTableRecord
100
AcDbBlockTableRecord
  2
*D27
340
0
 70
     0
280
     1
281
     0
  0
BLOCK_RECORD
  5
754
330
1
100
AcDbSymbolTableRecord
100
AcDbBlockTableRecord
  2
*D28
340
0
 70
     0
280
     1
281
     0
  0
BLOCK_RECORD
  5
76B
330
1
100
AcDbSymbolTableRecord
100
AcDbBlockTableRecord
  2
*D29
340
0
 70
     0
280
     1
281
     0
  0
BLOCK_RECORD
  5
778
330
1
100
AcDbSymbolTableRecord
100
AcDbBlockTableRecord
  2
*D30
340
0
 70
     0
280
     1
281
     0
  0
BLOCK_RECORD
  5
785
330
1
100
AcDbSymbolTableRecord
100
AcDbBlockTableRecord
  2
*D31
340
0
 70
     0
280
     1
281
     0
  0
BLOCK_RECORD
  5
792
330
1
100
AcDbSymbolTableRecord
100
AcDbBlockTableRecord
  2
*D32
340
0
 70
     0
280
     1
281
     0
  0
BLOCK_RECORD
  5
79F
330
1
100
AcDbSymbolTableRecord
100
AcDbBlockTableRecord
  2
*D33
340
0
 70
     0
280
     1
281
     0
  0
BLOCK_RECORD
  5
7AC
330
1
100
AcDbSymbolTableRecord
100
AcDbBlockTableRecord
  2
*D34
340
0
 70
     0
280
     1
281
     0
  0
BLOCK_RECORD
  5
7D2
330
1
100
AcDbSymbolTableRecord
100
AcDbBlockTableRecord
  2
*D35
340
0
 70
     0
280
     1
281
     0
  0
BLOCK_RECORD
  5
7DF
330
1
100
AcDbSymbolTableRecord
100
AcDbBlockTableRecord
  2
*D36
340
0
 70
     0
280
     1
281
     0
  0
BLOCK_RECORD
  5
7EC
330
1
100
AcDbSymbolTableRecord
100
AcDbBlockTableRecord
  2
*D37
340
0
 70
     0
280
     1
281
     0
  0
BLOCK_RECORD
  5
7F9
330
1
100
AcDbSymbolTableRecord
100
AcDbBlockTableRecord
  2
*D38
340
0
 70
     0
280
     1
281
     0
  0
BLOCK_RECORD
  5
806
330
1
100
AcDbSymbolTableRecord
100
AcDbBlockTableRecord
  2
*D39
340
0
 70
     0
280
     1
281
     0
  0
BLOCK_RECORD
  5
813
330
1
100
AcDbSymbolTableRecord
100
AcDbBlockTableRecord
  2
*D40
340
0
 70
     0
280
     1
281
     0
  0
BLOCK_RECORD
  5
820
330
1
100
AcDbSymbolTableRecord
100
AcDbBlockTableRecord
  2
*D41
340
0
 70
     0
280
     1
281
     0
  0
BLOCK_RECORD
  5
82D
330
1
100
AcDbSymbolTableRecord
100
AcDbBlockTableRecord
  2
*D42
340
0
 70
     0
280
     1
281
     0
  0
BLOCK_RECORD
  5
83A
330
1
100
AcDbSymbolTableRecord
100
AcDbBlockTableRecord
  2
*D43
340
0
 70
     0
280
     1
281
     0
  0
BLOCK_RECORD
  5
847
330
1
100
AcDbSymbolTableRecord
100
AcDbBlockTableRecord
  2
*D44
340
0
 70
     0
280
     1
281
     0
  0
BLOCK_RECORD
  5
854
330
1
100
AcDbSymbolTableRecord
100
AcDbBlockTableRecord
  2
*D45
340
0
 70
     0
280
     1
281
     0
  0
BLOCK_RECORD
  5
861
102
{ACAD_XDICTIONARY
360
908
102
}
330
1
100
AcDbSymbolTableRecord
100
AcDbBlockTableRecord
  2
A$C7FA962DC
340
0
 70
     1
280
     1
281
     0
  0
BLOCK_RECORD
  5
9B2
330
1
100
AcDbSymbolTableRecord
100
AcDbBlockTableRecord
  2
*D47
340
0
 70
     0
280
     1
281
     0
  0
BLOCK_RECORD
  5
9BF
330
1
100
AcDbSymbolTableRecord
100
AcDbBlockTableRecord
  2
*D48
340
0
 70
     0
280
     1
281
     0
  0
BLOCK_RECORD
  5
9CC
330
1
100
AcDbSymbolTableRecord
100
AcDbBlockTableRecord
  2
*D49
340
0
 70
     0
280
     1
281
     0
  0
BLOCK_RECORD
  5
9D9
330
1
100
AcDbSymbolTableRecord
100
AcDbBlockTableRecord
  2
*D50
340
0
 70
     0
280
     1
281
     0
  0
BLOCK_RECORD
  5
9E6
330
1
100
AcDbSymbolTableRecord
100
AcDbBlockTableRecord
  2
*D51
340
0
 70
     0
280
     1
281
     0
  0
BLOCK_RECORD
  5
9FD
330
1
100
AcDbSymbolTableRecord
100
AcDbBlockTableRecord
  2
*D52
340
0
 70
     0
280
     1
281
     0
  0
BLOCK_RECORD
  5
A0A
330
1
100
AcDbSymbolTableRecord
100
AcDbBlockTableRecord
  2
*D53
340
0
 70
     0
280
     1
281
     0
  0
BLOCK_RECORD
  5
A17
330
1
100
AcDbSymbolTableRecord
100
AcDbBlockTableRecord
  2
*D54
340
0
 70
     0
280
     1
281
     0
  0
BLOCK_RECORD
  5
A24
330
1
100
AcDbSymbolTableRecord
100
AcDbBlockTableRecord
  2
*D55
340
0
 70
     0
280
     1
281
     0
  0
BLOCK_RECORD
  5
A31
330
1
100
AcDbSymbolTableRecord
100
AcDbBlockTableRecord
  2
*D56
340
0
 70
     0
280
     1
281
     0
  0
BLOCK_RECORD
  5
A3E
330
1
100
AcDbSymbolTableRecord
100
AcDbBlockTableRecord
  2
*D57
340
0
 70
     0
280
     1
281
     0
  0
BLOCK_RECORD
  5
CDF
330
1
100
AcDbSymbolTableRecord
100
AcDbBlockTableRecord
  2
*D58
340
0
 70
     0
280
     1
281
     0
  0
BLOCK_RECORD
  5
CF6
330
1
100
AcDbSymbolTableRecord
100
AcDbBlockTableRecord
  2
*D59
340
0
 70
     0
280
     1
281
     0
  0
BLOCK_RECORD
  5
D03
330
1
100
AcDbSymbolTableRecord
100
AcDbBlockTableRecord
  2
*D60
340
0
 70
     0
280
     1
281
     0
  0
BLOCK_RECORD
  5
D10
330
1
100
AcDbSymbolTableRecord
100
AcDbBlockTableRecord
  2
*D61
340
0
 70
     0
280
     1
281
     0
  0
BLOCK_RECORD
  5
D1D
330
1
100
AcDbSymbolTableRecord
100
AcDbBlockTableRecord
  2
*D62
340
0
 70
     0
280
     1
281
     0
  0
BLOCK_RECORD
  5
D2A
330
1
100
AcDbSymbolTableRecord
100
AcDbBlockTableRecord
  2
*D63
340
0
 70
     0
280
     1
281
     0
  0
BLOCK_RECORD
  5
D37
330
1
100
AcDbSymbolTableRecord
100
AcDbBlockTableRecord
  2
*D64
340
0
 70
     0
280
     1
281
     0
  0
BLOCK_RECORD
  5
D44
330
1
100
AcDbSymbolTableRecord
100
AcDbBlockTableRecord
  2
*D65
340
0
 70
     0
280
     1
281
     0
  0
BLOCK_RECORD
  5
D51
330
1
100
AcDbSymbolTableRecord
100
AcDbBlockTableRecord
  2
*D66
340
0
 70
     0
280
     1
281
     0
  0
BLOCK_RECORD
  5
D5E
330
1
100
AcDbSymbolTableRecord
100
AcDbBlockTableRecord
  2
*D67
340
0
 70
     0
280
     1
281
     0
  0
BLOCK_RECORD
  5
D6B
330
1
100
AcDbSymbolTableRecord
100
AcDbBlockTableRecord
  2
*D68
340
0
 70
     0
280
     1
281
     0
  0
BLOCK_RECORD
  5
132C
330
1
100
AcDbSymbolTableRecord
100
AcDbBlockTableRecord
  2
*D69
340
0
 70
     0
280
     1
281
     0
  0
BLOCK_RECORD
  5
1346
330
1
100
AcDbSymbolTableRecord
100
AcDbBlockTableRecord
  2
*D70
340
0
 70
     0
280
     1
281
     0
  0
BLOCK_RECORD
  5
1360
330
1
100
AcDbSymbolTableRecord
100
AcDbBlockTableRecord
  2
*D71
340
0
 70
     0
280
     1
281
     0
  0
BLOCK_RECORD
  5
137A
330
1
100
AcDbSymbolTableRecord
100
AcDbBlockTableRecord
  2
*D72
340
0
 70
     0
280
     1
281
     0
  0
BLOCK_RECORD
  5
1394
330
1
100
AcDbSymbolTableRecord
100
AcDbBlockTableRecord
  2
*D73
340
0
 70
     0
280
     1
281
     0
  0
BLOCK_RECORD
  5
13AE
330
1
100
AcDbSymbolTableRecord
100
AcDbBlockTableRecord
  2
*D74
340
0
 70
     0
280
     1
281
     0
  0
BLOCK_RECORD
  5
181F
330
1
100
AcDbSymbolTableRecord
100
AcDbBlockTableRecord
  2
*D75
340
0
 70
     0
280
     1
281
     0
  0
BLOCK_RECORD
  5
182C
330
1
100
AcDbSymbolTableRecord
100
AcDbBlockTableRecord
  2
*D76
340
0
 70
     0
280
     1
281
     0
  0
BLOCK_RECORD
  5
1839
330
1
100
AcDbSymbolTableRecord
100
AcDbBlockTableRecord
  2
*D77
340
0
 70
     0
280
     1
281
     0
  0
BLOCK_RECORD
  5
1846
330
1
100
AcDbSymbolTableRecord
100
AcDbBlockTableRecord
  2
*D78
340
0
 70
     0
280
     1
281
     0
  0
BLOCK_RECORD
  5
1951
330
1
100
AcDbSymbolTableRecord
100
AcDbBlockTableRecord
  2
*D79
340
0
 70
     0
280
     1
281
     0
  0
BLOCK_RECORD
  5
195E
330
1
100
AcDbSymbolTableRecord
100
AcDbBlockTableRecord
  2
*D80
340
0
 70
     0
280
     1
281
     0
  0
BLOCK_RECORD
  5
196B
330
1
100
AcDbSymbolTableRecord
100
AcDbBlockTableRecord
  2
*D81
340
0
 70
     0
280
     1
281
     0
  0
BLOCK_RECORD
  5
1978
330
1
100
AcDbSymbolTableRecord
100
AcDbBlockTableRecord
  2
*D82
340
0
 70
     0
280
     1
281
     0
  0
BLOCK_RECORD
  5
1986
330
1
100
AcDbSymbolTableRecord
100
AcDbBlockTableRecord
  2
*D83
340
0
 70
     0
280
     1
281
     0
  0
BLOCK_RECORD
  5
19D4
330
1
100
AcDbSymbolTableRecord
100
AcDbBlockTableRecord
  2
*D84
340
0
 70
     0
280
     1
281
     0
  0
BLOCK_RECORD
  5
19FA
330
1
100
AcDbSymbolTableRecord
100
AcDbBlockTableRecord
  2
*D85
340
0
 70
     0
280
     1
281
     0
  0
BLOCK_RECORD
  5
1A07
330
1
100
AcDbSymbolTableRecord
100
AcDbBlockTableRecord
  2
*D86
340
0
 70
     0
280
     1
281
     0
  0
BLOCK_RECORD
  5
1A14
330
1
100
AcDbSymbolTableRecord
100
AcDbBlockTableRecord
  2
*D87
340
0
 70
     0
280
     1
281
     0
  0
BLOCK_RECORD
  5
1A21
330
1
100
AcDbSymbolTableRecord
100
AcDbBlockTableRecord
  2
*D88
340
0
 70
     0
280
     1
281
     0
  0
BLOCK_RECORD
  5
1A2E
330
1
100
AcDbSymbolTableRecord
100
AcDbBlockTableRecord
  2
*D89
340
0
 70
     0
280
     1
281
     0
  0
BLOCK_RECORD
  5
1A3B
330
1
100
AcDbSymbolTableRecord
100
AcDbBlockTableRecord
  2
*D90
340
0
 70
     0
280
     1
281
     0
  0
BLOCK_RECORD
  5
1A47
330
1
100
AcDbSymbolTableRecord
100
AcDbBlockTableRecord
  2
*D91
340
0
 70
     0
280
     1
281
     0
  0
BLOCK_RECORD
  5
1A53
330
1
100
AcDbSymbolTableRecord
100
AcDbBlockTableRecord
  2
*D92
340
0
 70
     0
280
     1
281
     0
  0
BLOCK_RECORD
  5
1A60
330
1
100
AcDbSymbolTableRecord
100
AcDbBlockTableRecord
  2
*D93
340
0
 70
     0
280
     1
281
     0
  0
BLOCK_RECORD
  5
1A6C
330
1
100
AcDbSymbolTableRecord
100
AcDbBlockTableRecord
  2
*D94
340
0
 70
     0
280
     1
281
     0
  0
BLOCK_RECORD
  5
1BC4
330
1
100
AcDbSymbolTableRecord
100
AcDbBlockTableRecord
  2
*D95
340
0
 70
     0
280
     1
281
     0
  0
BLOCK_RECORD
  5
1BD1
330
1
100
AcDbSymbolTableRecord
100
AcDbBlockTableRecord
  2
*D96
340
0
 70
     0
280
     1
281
     0
  0
BLOCK_RECORD
  5
1BDE
330
1
100
AcDbSymbolTableRecord
100
AcDbBlockTableRecord
  2
*D97
340
0
 70
     0
280
     1
281
     0
  0
BLOCK_RECORD
  5
1BEA
330
1
100
AcDbSymbolTableRecord
100
AcDbBlockTableRecord
  2
*D98
340
0
 70
     0
280
     1
281
     0
  0
BLOCK_RECORD
  5
1BF6
330
1
100
AcDbSymbolTableRecord
100
AcDbBlockTableRecord
  2
*D99
340
0
 70
     0
280
     1
281
     0
  0
BLOCK_RECORD
  5
1C03
330
1
100
AcDbSymbolTableRecord
100
AcDbBlockTableRecord
  2
*D100
340
0
 70
     0
280
     1
281
     0
  0
BLOCK_RECORD
  5
1C0F
330
1
100
AcDbSymbolTableRecord
100
AcDbBlockTableRecord
  2
*D101
340
0
 70
     0
280
     1
281
     0
  0
BLOCK_RECORD
  5
1C25
330
1
100
AcDbSymbolTableRecord
100
AcDbBlockTableRecord
  2
*D102
340
0
 70
     0
280
     1
281
     0
  0
BLOCK_RECORD
  5
1C32
330
1
100
AcDbSymbolTableRecord
100
AcDbBlockTableRecord
  2
*D103
340
0
 70
     0
280
     1
281
     0
  0
BLOCK_RECORD
  5
1C3F
330
1
100
AcDbSymbolTableRecord
100
AcDbBlockTableRecord
  2
*D104
340
0
 70
     0
280
     1
281
     0
  0
BLOCK_RECORD
  5
1CAE
330
1
100
AcDbSymbolTableRecord
100
AcDbBlockTableRecord
  2
*D105
340
0
 70
     0
280
     1
281
     0
  0
BLOCK_RECORD
  5
1CC8
330
1
100
AcDbSymbolTableRecord
100
AcDbBlockTableRecord
  2
*D106
340
0
 70
     0
280
     1
281
     0
  0
BLOCK_RECORD
  5
1CE2
330
1
100
AcDbSymbolTableRecord
100
AcDbBlockTableRecord
  2
*D107
340
0
 70
     0
280
     1
281
     0
  0
BLOCK_RECORD
  5
1D4D
330
1
100
AcDbSymbolTableRecord
100
AcDbBlockTableRecord
  2
*D108
340
0
 70
     0
280
     1
281
     0
  0
BLOCK_RECORD
  5
1D67
330
1
100
AcDbSymbolTableRecord
100
AcDbBlockTableRecord
  2
*D109
340
0
 70
     0
280
     1
281
     0
  0
ENDTAB
  0
ENDSEC
  0
SECTION
  2
BLOCKS
  0
BLOCK
  5
20
330
1F
100
AcDbEntity
  8
0
100
AcDbBlockBegin
  2
*Model_Space
 70
     0
 10
0.0
 20
0.0
 30
0.0
  3
*Model_Space
  1

  0
ENDBLK
  5
21
330
1F
100
AcDbEntity
  8
0
100
AcDbBlockEnd
  0
BLOCK
  5
1C
330
1B
100
AcDbEntity
 67
     1
  8
0
100
AcDbBlockBegin
  2
*Paper_Space
 70
     0
 10
0.0
 20
0.0
 30
0.0
  3
*Paper_Space
  1

  0
ENDBLK
  5
1D
330
1B
100
AcDbEntity
 67
     1
  8
0
100
AcDbBlockEnd
  0
BLOCK
  5
24
330
23
100
AcDbEntity
 67
     1
  8
0
100
AcDbBlockBegin
  2
*Paper_Space0
 70
     0
 10
0.0
 20
0.0
 30
0.0
  3
*Paper_Space0
  1

  0
ENDBLK
  5
25
330
23
100
AcDbEntity
 67
     1
  8
0
100
AcDbBlockEnd
  0
BLOCK
  5
123
330
118
100
AcDbEntity
  8
0
100
AcDbBlockBegin
  2
*D1
 70
     1
 10
0.0
 20
0.0
 30
0.0
  3
*D1
  1

  0
LINE
  5
126
330
118
100
AcDbEntity
  8
0
 62
     0
370
    -2
100
AcDbLine
 10
106.9924919814767
 20
98.13476682964656
 30
0.0
 11
108.9481941685683
 21
98.13476682964656
 31
0.0
  0
LINE
  5
127
330
118
100
AcDbEntity
  8
0
 62
     0
370
    -2
100
AcDbLine
 10
106.9938686739304
 20
28.41120723437941
 30
0.0
 11
108.9481941685682
 21
28.41120723437941
 31
0.0
  0
LINE
  5
128
330
118
100
AcDbEntity
  8
0
 62
     0
370
    -2
100
AcDbLine
 10
108.7681941685683
 20
97.95476682964654
 30
0.0
 11
108.7681941685682
 21
63.45298703201297
 31
0.0
  0
LINE
  5
129
330
118
100
AcDbEntity
  8
0
 62
     0
370
    -2
100
AcDbLine
 10
108.7681941685682
 20
28.59120723437941
 30
0.0
 11
108.7681941685682
 21
63.09298703201297
 31
0.0
  0
SOLID
  5
12A
330
118
100
AcDbEntity
  8
0
 62
     0
100
AcDbTrace
 10
108.7381941685683
 20
97.95476682964654
 30
0.0
 11
108.7981941685683
 21
97.95476682964654
 31
0.0
 12
108.7681941685683
 22
98.13476682964656
 32
0.0
 13
108.7681941685683
 23
98.13476682964656
 33
0.0
  0
SOLID
  5
12B
330
118
100
AcDbEntity
  8
0
 62
     0
100
AcDbTrace
 10
108.7381941685682
 20
28.59120723437941
 30
0.0
 11
108.7981941685682
 21
28.59120723437941
 31
0.0
 12
108.7681941685682
 22
28.41120723437941
 32
0.0
 13
108.7681941685682
 23
28.41120723437941
 33
0.0
  0
MTEXT
  5
12C
330
118
100
AcDbEntity
  8
0
 62
     0
100
AcDbMText
 10
108.7681941685682
 20
63.27298703201297
 30
0.0
 40
0.18
 41
0.0
 46
0.0
 71
     5
 72
     1
  1
\A1;69.7236
 73
     1
 44
1.0
  0
POINT
  5
12D
330
118
100
AcDbEntity
  8
Defpoints
 62
     0
100
AcDbPoint
 10
106.9299919814767
 20
98.13476682964656
 30
0.0
  0
POINT
  5
12E
330
118
100
AcDbEntity
  8
Defpoints
 62
     0
100
AcDbPoint
 10
106.9313686739304
 20
28.41120723437941
 30
0.0
  0
POINT
  5
12F
330
118
100
AcDbEntity
  8
Defpoints
 62
     0
100
AcDbPoint
 10
108.7681941685682
 20
28.41120723437941
 30
0.0
  0
ENDBLK
  5
124
330
118
100
AcDbEntity
  8
0
100
AcDbBlockEnd
  0
BLOCK
  5
13D
330
132
100
AcDbEntity
  8
0
100
AcDbBlockBegin
  2
*D2
 70
     1
 10
0.0
 20
0.0
 30
0.0
  3
*D2
  1

  0
LINE
  5
140
330
132
100
AcDbEntity
  8
0
 62
     0
370
    -2
100
AcDbLine
 10
106.9924919814767
 20
98.13476682964656
 30
0.0
 11
107.1099919814767
 21
98.13476682964656
 31
0.0
  0
LINE
  5
141
330
132
100
AcDbEntity
  8
0
 62
     0
370
    -2
100
AcDbLine
 10
106.8674919814767
 20
28.41120723437941
 30
0.0
 11
106.7499919814767
 21
28.41120723437941
 31
0.0
  0
LINE
  5
142
330
132
100
AcDbEntity
  8
0
 62
     0
370
    -2
100
AcDbLine
 10
106.9299919814767
 20
97.95476682964654
 30
0.0
 11
106.9299919814767
 21
70.86298703201297
 31
0.0
  0
LINE
  5
143
330
132
100
AcDbEntity
  8
0
 62
     0
370
    -2
100
AcDbLine
 10
106.9299919814767
 20
28.59120723437941
 30
0.0
 11
106.9299919814767
 21
55.68298703201296
 31
0.0
  0
SOLID
  5
144
330
132
100
AcDbEntity
  8
0
 62
     0
100
AcDbTrace
 10
106.8999919814767
 20
97.95476682964654
 30
0.0
 11
106.9599919814767
 21
97.95476682964654
 31
0.0
 12
106.9299919814767
 22
98.13476682964656
 32
0.0
 13
106.9299919814767
 23
98.13476682964656
 33
0.0
  0
SOLID
  5
145
330
132
100
AcDbEntity
  8
0
 62
     0
100
AcDbTrace
 10
106.8999919814767
 20
28.59120723437941
 30
0.0
 11
106.9599919814767
 21
28.59120723437941
 31
0.0
 12
106.9299919814767
 22
28.41120723437941
 32
0.0
 13
106.9299919814767
 23
28.41120723437941
 33
0.0
  0
MTEXT
  5
146
330
132
100
AcDbEntity
  8
0
 62
     0
100
AcDbMText
 10
106.9299919814767
 20
63.27298703201297
 30
0.0
 40
15.0
 41
0.0
 46
0.0
 71
     5
 72
     1
  1
\A1;69.7236
 73
     1
 44
1.0
  0
POINT
  5
147
330
132
100
AcDbEntity
  8
Defpoints
 62
     0
100
AcDbPoint
 10
106.9299919814767
 20
98.13476682964656
 30
0.0
  0
POINT
  5
148
330
132
100
AcDbEntity
  8
Defpoints
 62
     0
100
AcDbPoint
 10
106.9299919814767
 20
28.41120723437941
 30
0.0
  0
POINT
  5
149
330
132
100
AcDbEntity
  8
Defpoints
 62
     0
100
AcDbPoint
 10
106.9299919814767
 20
28.41120723437941
 30
0.0
  0
ENDBLK
  5
13E
330
132
100
AcDbEntity
  8
0
100
AcDbBlockEnd
  0
BLOCK
  5
202
330
1F7
100
AcDbEntity
  8
0
100
AcDbBlockBegin
  2
*D3
 70
     1
 10
0.0
 20
0.0
 30
0.0
  3
*D3
  1

  0
LINE
  5
205
330
1F7
100
AcDbEntity
  8
_U+56FE_U+5C42 1
 62
     0
370
    -2
100
AcDbLine
 10
1153.25393974482
 20
101.3006236029935
 30
0.0
 11
1538.753158263856
 21
101.3006236029934
 31
0.0
  0
LINE
  5
206
330
1F7
100
AcDbEntity
  8
_U+56FE_U+5C42 1
 62
     0
370
    -2
100
AcDbLine
 10
1153.253939744821
 20
821.3006236029933
 30
0.0
 11
1538.753158263856
 21
821.3006236029933
 31
0.0
  0
LINE
  5
207
330
1F7
100
AcDbEntity
  8
_U+56FE_U+5C42 1
 62
     0
370
    -2
100
AcDbLine
 10
1538.573158263855
 20
101.4806236029934
 30
0.0
 11
1538.573158263855
 21
453.7106236029933
 31
0.0
  0
LINE
  5
208
330
1F7
100
AcDbEntity
  8
_U+56FE_U+5C42 1
 62
     0
370
    -2
100
AcDbLine
 10
1538.573158263856
 20
821.1206236029934
 30
0.0
 11
1538.573158263855
 21
468.8906236029933
 31
0.0
  0
SOLID
  5
209
330
1F7
100
AcDbEntity
  8
_U+56FE_U+5C42 1
 62
     0
100
AcDbTrace
 10
1538.543158263856
 20
101.4806236029934
 30
0.0
 11
1538.603158263855
 21
101.4806236029934
 31
0.0
 12
1538.573158263855
 22
101.3006236029934
 32
0.0
 13
1538.573158263855
 23
101.3006236029934
 33
0.0
  0
SOLID
  5
20A
330
1F7
100
AcDbEntity
  8
_U+56FE_U+5C42 1
 62
     0
100
AcDbTrace
 10
1538.543158263856
 20
821.1206236029934
 30
0.0
 11
1538.603158263856
 21
821.1206236029934
 31
0.0
 12
1538.573158263856
 22
821.3006236029933
 32
0.0
 13
1538.573158263856
 23
821.3006236029933
 33
0.0
  0
MTEXT
  5
20B
330
1F7
100
AcDbEntity
  8
_U+56FE_U+5C42 1
 62
     0
100
AcDbMText
 10
1538.573158263855
 20
461.3006236029936
 30
0.0
 40
15.0
 41
0.0
 46
0.0
 71
     5
 72
     1
  1
\A1;720.0000
 73
     1
 44
1.0
  0
POINT
  5
20C
330
1F7
100
AcDbEntity
  8
Defpoints
 62
     0
100
AcDbPoint
 10
1153.19143974482
 20
101.3006236029935
 30
0.0
  0
POINT
  5
20D
330
1F7
100
AcDbEntity
  8
Defpoints
 62
     0
100
AcDbPoint
 10
1153.191439744821
 20
821.3006236029933
 30
0.0
  0
POINT
  5
20E
330
1F7
100
AcDbEntity
  8
Defpoints
 62
     0
100
AcDbPoint
 10
1538.573158263856
 20
821.3006236029933
 30
0.0
  0
ENDBLK
  5
203
330
1F7
100
AcDbEntity
  8
0
100
AcDbBlockEnd
  0
BLOCK
  5
21C
330
211
100
AcDbEntity
  8
0
100
AcDbBlockBegin
  2
*D4
 70
     1
 10
0.0
 20
0.0
 30
0.0
  3
*D4
  1

  0
LINE
  5
21F
330
211
100
AcDbEntity
  8
_U+56FE_U+5C42 1
 62
     0
370
    -2
100
AcDbLine
 10
911.9457063580425
 20
571.3631236029932
 30
0.0
 11
911.9457063580425
 21
858.5622620398389
 31
0.0
  0
LINE
  5
220
330
211
100
AcDbEntity
  8
_U+56FE_U+5C42 1
 62
     0
370
    -2
100
AcDbLine
 10
1296.945706358043
 20
571.3631236029932
 30
0.0
 11
1296.945706358043
 21
858.5622620398389
 31
0.0
  0
LINE
  5
221
330
211
100
AcDbEntity
  8
_U+56FE_U+5C42 1
 62
     0
370
    -2
100
AcDbLine
 10
912.1257063580422
 20
858.382262039839
 30
0.0
 11
1056.855706358042
 21
858.382262039839
 31
0.0
  0
LINE
  5
222
330
211
100
AcDbEntity
  8
_U+56FE_U+5C42 1
 62
     0
370
    -2
100
AcDbLine
 10
1296.765706358043
 20
858.382262039839
 30
0.0
 11
1152.035706358042
 21
858.382262039839
 31
0.0
  0
SOLID
  5
223
330
211
100
AcDbEntity
  8
_U+56FE_U+5C42 1
 62
     0
100
AcDbTrace
 10
912.1257063580422
 20
858.4122620398389
 30
0.0
 11
912.1257063580422
 21
858.3522620398387
 31
0.0
 12
911.9457063580425
 22
858.382262039839
 32
0.0
 13
911.9457063580425
 23
858.382262039839
 33
0.0
  0
SOLID
  5
224
330
211
100
AcDbEntity
  8
_U+56FE_U+5C42 1
 62
     0
100
AcDbTrace
 10
1296.765706358043
 20
858.4122620398389
 30
0.0
 11
1296.765706358043
 21
858.3522620398387
 31
0.0
 12
1296.945706358043
 22
858.382262039839
 32
0.0
 13
1296.945706358043
 23
858.382262039839
 33
0.0
  0
MTEXT
  5
225
330
211
100
AcDbEntity
  8
_U+56FE_U+5C42 1
 62
     0
100
AcDbMText
 10
1104.445706358042
 20
858.382262039839
 30
0.0
 40
15.0
 41
0.0
 46
0.0
 71
     5
 72
     1
  1
\A1;385.0000
 73
     1
 44
1.0
  0
POINT
  5
226
330
211
100
AcDbEntity
  8
Defpoints
 62
     0
100
AcDbPoint
 10
911.9457063580425
 20
571.3006236029935
 30
0.0
  0
POINT
  5
227
330
211
100
AcDbEntity
  8
Defpoints
 62
     0
100
AcDbPoint
 10
1296.945706358043
 20
571.3006236029935
 30
0.0
  0
POINT
  5
228
330
211
100
AcDbEntity
  8
Defpoints
 62
     0
100
AcDbPoint
 10
1296.945706358043
 20
858.382262039839
 30
0.0
  0
ENDBLK
  5
21D
330
211
100
AcDbEntity
  8
0
100
AcDbBlockEnd
  0
BLOCK
  5
248
330
23F
100
AcDbEntity
  8
0
100
AcDbBlockBegin
  2
*D5
 70
     1
 10
0.0
 20
0.0
 30
0.0
  3
*D5
  1

  0
LINE
  5
24B
330
23F
100
AcDbEntity
  8
_U+56FE_U+5C42 1
 62
     0
370
    -2
100
AcDbLine
 10
1114.343093597448
 20
608.9911113315586
 30
0.0
 11
1114.523093597448
 21
608.9911113315586
 31
0.0
  0
LINE
  5
24C
330
23F
100
AcDbEntity
  8
_U+56FE_U+5C42 1
 62
     0
370
    -2
100
AcDbLine
 10
1114.523093597448
 20
608.9911113315586
 30
0.0
 11
1114.645771737471
 21
609.1228310110317
 31
0.0
  0
MTEXT
  5
24D
330
23F
100
AcDbEntity
  8
_U+56FE_U+5C42 1
 62
     0
100
AcDbMText
 10
1076.753093597448
 20
608.9911113315586
 30
0.0
 40
15.0
 41
0.0
 46
0.0
 71
     5
 72
     1
  1
\A1;R1.0000
 73
     1
 44
1.0
  0
SOLID
  5
24E
330
23F
100
AcDbEntity
  8
_U+56FE_U+5C42 1
 62
     0
100
AcDbTrace
 10
1114.623818457559
 20
609.1432773677022
 30
0.0
 11
1114.667725017383
 21
609.1023846543612
 31
0.0
 12
1114.768449877494
 22
609.2545506905052
 32
0.0
 13
1114.768449877494
 23
609.2545506905052
 33
0.0
  0
LINE
  5
24F
330
23F
100
AcDbEntity
  8
_U+56FE_U+5C42 1
 62
     0
370
    -2
100
AcDbLine
 10
1115.359995099843
 20
609.9863266875789
 30
0.0
 11
1115.539995099843
 21
609.9863266875789
 31
0.0
  0
LINE
  5
250
330
23F
100
AcDbEntity
  8
_U+56FE_U+5C42 1
 62
     0
370
    -2
100
AcDbLine
 10
1115.449995099843
 20
609.8963266875791
 30
0.0
 11
1115.449995099843
 21
610.076326687579
 31
0.0
  0
POINT
  5
251
330
23F
100
AcDbEntity
  8
Defpoints
 62
     0
100
AcDbPoint
 10
1114.768449877494
 20
609.2545506905052
 30
0.0
  0
POINT
  5
252
330
23F
100
AcDbEntity
  8
Defpoints
 62
     0
100
AcDbPoint
 10
1115.449995099843
 20
609.9863266875789
 30
0.0
  0
ENDBLK
  5
249
330
23F
100
AcDbEntity
  8
0
100
AcDbBlockEnd
  0
BLOCK
  5
2A0
330
295
100
AcDbEntity
  8
0
100
AcDbBlockBegin
  2
*D6
 70
     1
 10
0.0
 20
0.0
 30
0.0
  3
*D6
  1

  0
LINE
  5
338
330
295
100
AcDbEntity
  8
_U+56FE_U+5C42 1
 62
     0
370
    -2
100
AcDbLine
 10
1064.486007994086
 20
203.8640336790386
 30
0.0
 11
1064.486007994086
 21
197.6682388127322
 31
0.0
  0
LINE
  5
339
330
295
100
AcDbEntity
  8
_U+56FE_U+5C42 1
 62
     0
370
    -2
100
AcDbLine
 10
1265.486007994086
 20
203.8640336790386
 30
0.0
 11
1265.486007994086
 21
197.6682388127322
 31
0.0
  0
LINE
  5
33A
330
295
100
AcDbEntity
  8
_U+56FE_U+5C42 1
 62
     0
370
    -2
100
AcDbLine
 10
1064.666007994086
 20
197.8482388127322
 30
0.0
 11
1139.896007994086
 21
197.8482388127322
 31
0.0
  0
LINE
  5
33B
330
295
100
AcDbEntity
  8
_U+56FE_U+5C42 1
 62
     0
370
    -2
100
AcDbLine
 10
1265.306007994086
 20
197.8482388127322
 30
0.0
 11
1190.076007994085
 21
197.8482388127322
 31
0.0
  0
SOLID
  5
33C
330
295
100
AcDbEntity
  8
_U+56FE_U+5C42 1
 62
     0
100
AcDbTrace
 10
1064.666007994086
 20
197.8782388127322
 30
0.0
 11
1064.666007994086
 21
197.8182388127322
 31
0.0
 12
1064.486007994086
 22
197.8482388127322
 32
0.0
 13
1064.486007994086
 23
197.8482388127322
 33
0.0
  0
SOLID
  5
33D
330
295
100
AcDbEntity
  8
_U+56FE_U+5C42 1
 62
     0
100
AcDbTrace
 10
1265.306007994086
 20
197.8782388127322
 30
0.0
 11
1265.306007994086
 21
197.8182388127322
 31
0.0
 12
1265.486007994086
 22
197.8482388127322
 32
0.0
 13
1265.486007994086
 23
197.8482388127322
 33
0.0
  0
MTEXT
  5
33E
330
295
100
AcDbEntity
  8
_U+56FE_U+5C42 1
 62
     0
100
AcDbMText
 10
1164.986007994086
 20
197.8482388127322
 30
0.0
 40
15.0
 41
0.0
 46
0.0
 71
     5
 72
     1
  1
\A1;201.0
 73
     1
 44
1.0
  0
POINT
  5
33F
330
295
100
AcDbEntity
  8
Defpoints
 62
     0
100
AcDbPoint
 10
1064.486007994086
 20
203.9265336790386
 30
0.0
  0
POINT
  5
340
330
295
100
AcDbEntity
  8
Defpoints
 62
     0
100
AcDbPoint
 10
1265.486007994086
 20
203.9265336790386
 30
0.0
  0
POINT
  5
341
330
295
100
AcDbEntity
  8
Defpoints
 62
     0
100
AcDbPoint
 10
1265.486007994086
 20
197.8482388127322
 30
0.0
  0
ENDBLK
  5
2A1
330
295
100
AcDbEntity
  8
0
100
AcDbBlockEnd
  0
BLOCK
  5
2BA
330
2AF
100
AcDbEntity
  8
0
100
AcDbBlockBegin
  2
*D7
 70
     1
 10
0.0
 20
0.0
 30
0.0
  3
*D7
  1

  0
LINE
  5
356
330
2AF
100
AcDbEntity
  8
_U+56FE_U+5C42 1
 62
     0
370
    -2
100
AcDbLine
 10
581.2178846608198
 20
321.3006236029935
 30
0.0
 11
586.8095600546106
 21
321.3006236029935
 31
0.0
  0
LINE
  5
357
330
2AF
100
AcDbEntity
  8
_U+56FE_U+5C42 1
 62
     0
370
    -2
100
AcDbLine
 10
581.2178846608198
 20
121.3006236029935
 30
0.0
 11
586.8095600546105
 21
121.3006236029935
 31
0.0
  0
LINE
  5
358
330
2AF
100
AcDbEntity
  8
_U+56FE_U+5C42 1
 62
     0
370
    -2
100
AcDbLine
 10
586.6295600546107
 20
321.1206236029935
 30
0.0
 11
586.6295600546106
 21
228.8906236029935
 31
0.0
  0
LINE
  5
359
330
2AF
100
AcDbEntity
  8
_U+56FE_U+5C42 1
 62
     0
370
    -2
100
AcDbLine
 10
586.6295600546106
 20
121.4806236029935
 30
0.0
 11
586.6295600546106
 21
213.7106236029935
 31
0.0
  0
SOLID
  5
35A
330
2AF
100
AcDbEntity
  8
_U+56FE_U+5C42 1
 62
     0
100
AcDbTrace
 10
586.5995600546106
 20
321.1206236029935
 30
0.0
 11
586.6595600546105
 21
321.1206236029935
 31
0.0
 12
586.6295600546107
 22
321.3006236029935
 32
0.0
 13
586.6295600546107
 23
321.3006236029935
 33
0.0
  0
SOLID
  5
35B
330
2AF
100
AcDbEntity
  8
_U+56FE_U+5C42 1
 62
     0
100
AcDbTrace
 10
586.5995600546106
 20
121.4806236029935
 30
0.0
 11
586.6595600546105
 21
121.4806236029935
 31
0.0
 12
586.6295600546106
 22
121.3006236029935
 32
0.0
 13
586.6295600546106
 23
121.3006236029935
 33
0.0
  0
MTEXT
  5
35C
330
2AF
100
AcDbEntity
  8
_U+56FE_U+5C42 1
 62
     0
100
AcDbMText
 10
586.6295600546106
 20
221.3006236029936
 30
0.0
 40
15.0
 41
0.0
 46
0.0
 71
     5
 72
     1
  1
\A1;200.0
 73
     1
 44
1.0
  0
POINT
  5
35D
330
2AF
100
AcDbEntity
  8
Defpoints
 62
     0
100
AcDbPoint
 10
581.15538466082
 20
321.3006236029935
 30
0.0
  0
POINT
  5
35E
330
2AF
100
AcDbEntity
  8
Defpoints
 62
     0
100
AcDbPoint
 10
581.15538466082
 20
121.3006236029935
 30
0.0
  0
POINT
  5
35F
330
2AF
100
AcDbEntity
  8
Defpoints
 62
     0
100
AcDbPoint
 10
586.6295600546106
 20
121.3006236029935
 30
0.0
  0
ENDBLK
  5
2BB
330
2AF
100
AcDbEntity
  8
0
100
AcDbBlockEnd
  0
BLOCK
  5
2E8
330
2DD
100
AcDbEntity
  8
0
100
AcDbBlockBegin
  2
*D8
 70
     1
 10
0.0
 20
0.0
 30
0.0
  3
*D8
  1

  0
LINE
  5
2EB
330
2DD
100
AcDbEntity
  8
_U+56FE_U+5C42 1
 62
     0
370
    -2
100
AcDbLine
 10
414.4257823582141
 20
554.6727297454267
 30
0.0
 11
414.4257823582141
 21
565.2310857768476
 31
0.0
  0
LINE
  5
2EC
330
2DD
100
AcDbEntity
  8
_U+56FE_U+5C42 1
 62
     0
370
    -2
100
AcDbLine
 10
615.4257823582143
 20
554.6727297454267
 30
0.0
 11
615.4257823582143
 21
565.2310857768476
 31
0.0
  0
LINE
  5
2ED
330
2DD
100
AcDbEntity
  8
_U+56FE_U+5C42 1
 62
     0
370
    -2
100
AcDbLine
 10
414.6057823582141
 20
565.0510857768478
 30
0.0
 11
489.8357823582143
 21
565.0510857768478
 31
0.0
  0
LINE
  5
2EE
330
2DD
100
AcDbEntity
  8
_U+56FE_U+5C42 1
 62
     0
370
    -2
100
AcDbLine
 10
615.2457823582142
 20
565.0510857768478
 30
0.0
 11
540.0157823582143
 21
565.0510857768478
 31
0.0
  0
SOLID
  5
2EF
330
2DD
100
AcDbEntity
  8
_U+56FE_U+5C42 1
 62
     0
100
AcDbTrace
 10
414.6057823582141
 20
565.0810857768476
 30
0.0
 11
414.6057823582141
 21
565.0210857768477
 31
0.0
 12
414.4257823582141
 22
565.0510857768478
 32
0.0
 13
414.4257823582141
 23
565.0510857768478
 33
0.0
  0
SOLID
  5
2F0
330
2DD
100
AcDbEntity
  8
_U+56FE_U+5C42 1
 62
     0
100
AcDbTrace
 10
615.2457823582142
 20
565.0810857768476
 30
0.0
 11
615.2457823582142
 21
565.0210857768477
 31
0.0
 12
615.4257823582143
 22
565.0510857768478
 32
0.0
 13
615.4257823582143
 23
565.0510857768478
 33
0.0
  0
MTEXT
  5
2F1
330
2DD
100
AcDbEntity
  8
_U+56FE_U+5C42 1
 62
     0
100
AcDbMText
 10
514.9257823582143
 20
565.0510857768478
 30
0.0
 40
15.0
 41
0.0
 46
0.0
 71
     5
 72
     1
  1
\A1;201.0
 73
     1
 44
1.0
  0
POINT
  5
2F2
330
2DD
100
AcDbEntity
  8
Defpoints
 62
     0
100
AcDbPoint
 10
414.4257823582141
 20
554.6102297454267
 30
0.0
  0
POINT
  5
2F3
330
2DD
100
AcDbEntity
  8
Defpoints
 62
     0
100
AcDbPoint
 10
615.4257823582143
 20
554.6102297454267
 30
0.0
  0
POINT
  5
2F4
330
2DD
100
AcDbEntity
  8
Defpoints
 62
     0
100
AcDbPoint
 10
615.4257823582143
 20
565.0510857768478
 30
0.0
  0
ENDBLK
  5
2E9
330
2DD
100
AcDbEntity
  8
0
100
AcDbBlockEnd
  0
BLOCK
  5
302
330
2F7
100
AcDbEntity
  8
0
100
AcDbBlockBegin
  2
*D9
 70
     1
 10
0.0
 20
0.0
 30
0.0
  3
*D9
  1

  0
LINE
  5
34C
330
2F7
100
AcDbEntity
  8
_U+56FE_U+5C42 1
 62
     0
370
    -2
100
AcDbLine
 10
1174.500133046212
 20
471.3006236029935
 30
0.0
 11
1177.603113661574
 21
471.3006236029935
 31
0.0
  0
LINE
  5
34D
330
2F7
100
AcDbEntity
  8
_U+56FE_U+5C42 1
 62
     0
370
    -2
100
AcDbLine
 10
1174.500133046212
 20
321.3006236029935
 30
0.0
 11
1177.603113661574
 21
321.3006236029935
 31
0.0
  0
LINE
  5
34E
330
2F7
100
AcDbEntity
  8
_U+56FE_U+5C42 1
 62
     0
370
    -2
100
AcDbLine
 10
1177.423113661574
 20
471.1206236029934
 30
0.0
 11
1177.423113661574
 21
403.8906236029935
 31
0.0
  0
LINE
  5
34F
330
2F7
100
AcDbEntity
  8
_U+56FE_U+5C42 1
 62
     0
370
    -2
100
AcDbLine
 10
1177.423113661574
 20
321.4806236029935
 30
0.0
 11
1177.423113661574
 21
388.7106236029934
 31
0.0
  0
SOLID
  5
350
330
2F7
100
AcDbEntity
  8
_U+56FE_U+5C42 1
 62
     0
100
AcDbTrace
 10
1177.393113661574
 20
471.1206236029934
 30
0.0
 11
1177.453113661574
 21
471.1206236029934
 31
0.0
 12
1177.423113661574
 22
471.3006236029935
 32
0.0
 13
1177.423113661574
 23
471.3006236029935
 33
0.0
  0
SOLID
  5
351
330
2F7
100
AcDbEntity
  8
_U+56FE_U+5C42 1
 62
     0
100
AcDbTrace
 10
1177.393113661574
 20
321.4806236029935
 30
0.0
 11
1177.453113661574
 21
321.4806236029935
 31
0.0
 12
1177.423113661574
 22
321.3006236029935
 32
0.0
 13
1177.423113661574
 23
321.3006236029935
 33
0.0
  0
MTEXT
  5
352
330
2F7
100
AcDbEntity
  8
_U+56FE_U+5C42 1
 62
     0
100
AcDbMText
 10
1177.423113661574
 20
396.3006236029937
 30
0.0
 40
15.0
 41
0.0
 46
0.0
 71
     5
 72
     1
  1
\A1;150.0
 73
     1
 44
1.0
  0
POINT
  5
353
330
2F7
100
AcDbEntity
  8
Defpoints
 62
     0
100
AcDbPoint
 10
1174.437633046212
 20
471.3006236029935
 30
0.0
  0
POINT
  5
354
330
2F7
100
AcDbEntity
  8
Defpoints
 62
     0
100
AcDbPoint
 10
1174.437633046212
 20
321.3006236029935
 30
0.0
  0
POINT
  5
355
330
2F7
100
AcDbEntity
  8
Defpoints
 62
     0
100
AcDbPoint
 10
1177.423113661574
 20
321.3006236029935
 30
0.0
  0
ENDBLK
  5
303
330
2F7
100
AcDbEntity
  8
0
100
AcDbBlockEnd
  0
BLOCK
  5
370
330
365
100
AcDbEntity
  8
0
100
AcDbBlockBegin
  2
*D10
 70
     1
 10
0.0
 20
0.0
 30
0.0
  3
*D10
  1

  0
LINE
  5
1625
330
365
100
AcDbEntity
  8
0
 62
     0
370
    -2
100
AcDbLine
 10
1059.986007994086
 20
164.9385047696009
 30
0.0
 11
1059.986007994086
 21
168.4221670890885
 31
0.0
  0
LINE
  5
1626
330
365
100
AcDbEntity
  8
0
 62
     0
370
    -2
100
AcDbLine
 10
1269.986007994086
 20
164.9385047696009
 30
0.0
 11
1269.986007994086
 21
168.4221670890885
 31
0.0
  0
LINE
  5
1627
330
365
100
AcDbEntity
  8
0
 62
     0
370
    -2
100
AcDbLine
 10
1060.166007994086
 20
168.2421670890885
 30
0.0
 11
1139.896007994086
 21
168.2421670890885
 31
0.0
  0
LINE
  5
1628
330
365
100
AcDbEntity
  8
0
 62
     0
370
    -2
100
AcDbLine
 10
1269.806007994086
 20
168.2421670890885
 30
0.0
 11
1190.076007994086
 21
168.2421670890885
 31
0.0
  0
SOLID
  5
1629
330
365
100
AcDbEntity
  8
0
 62
     0
100
AcDbTrace
 10
1060.166007994086
 20
168.2721670890885
 30
0.0
 11
1060.166007994086
 21
168.2121670890885
 31
0.0
 12
1059.986007994086
 22
168.2421670890885
 32
0.0
 13
1059.986007994086
 23
168.2421670890885
 33
0.0
  0
SOLID
  5
162A
330
365
100
AcDbEntity
  8
0
 62
     0
100
AcDbTrace
 10
1269.806007994086
 20
168.2721670890885
 30
0.0
 11
1269.806007994086
 21
168.2121670890885
 31
0.0
 12
1269.986007994086
 22
168.2421670890885
 32
0.0
 13
1269.986007994086
 23
168.2421670890885
 33
0.0
  0
MTEXT
  5
162B
330
365
100
AcDbEntity
  8
0
 62
     0
100
AcDbMText
 10
1164.986007994086
 20
168.2421670890885
 30
0.0
 40
15.0
 41
0.0
 46
0.0
 71
     5
 72
     1
  1
\A1;210.0
 73
     1
 44
1.0
  0
POINT
  5
162C
330
365
100
AcDbEntity
  8
Defpoints
 62
     0
100
AcDbPoint
 10
1059.986007994086
 20
164.8760047696009
 30
0.0
  0
POINT
  5
162D
330
365
100
AcDbEntity
  8
Defpoints
 62
     0
100
AcDbPoint
 10
1269.986007994086
 20
164.8760047696009
 30
0.0
  0
POINT
  5
162E
330
365
100
AcDbEntity
  8
Defpoints
 62
     0
100
AcDbPoint
 10
1269.986007994086
 20
168.2421670890885
 30
0.0
  0
ENDBLK
  5
371
330
365
100
AcDbEntity
  8
0
100
AcDbBlockEnd
  0
BLOCK
  5
38A
330
37F
100
AcDbEntity
  8
0
100
AcDbBlockBegin
  2
*D11
 70
     1
 10
0.0
 20
0.0
 30
0.0
  3
*D11
  1

  0
LINE
  5
161B
330
37F
100
AcDbEntity
  8
0
 62
     0
370
    -2
100
AcDbLine
 10
1240.006575009759
 20
326.3006236029935
 30
0.0
 11
1239.889075009759
 21
326.3006236029935
 31
0.0
  0
LINE
  5
161C
330
37F
100
AcDbEntity
  8
0
 62
     0
370
    -2
100
AcDbLine
 10
1240.006575009759
 20
116.3006236029935
 30
0.0
 11
1239.889075009759
 21
116.3006236029935
 31
0.0
  0
LINE
  5
161D
330
37F
100
AcDbEntity
  8
0
 62
     0
370
    -2
100
AcDbLine
 10
1240.069075009759
 20
326.1206236029935
 30
0.0
 11
1240.069075009759
 21
228.8906236029935
 31
0.0
  0
LINE
  5
161E
330
37F
100
AcDbEntity
  8
0
 62
     0
370
    -2
100
AcDbLine
 10
1240.069075009759
 20
116.4806236029935
 30
0.0
 11
1240.069075009759
 21
213.7106236029935
 31
0.0
  0
SOLID
  5
161F
330
37F
100
AcDbEntity
  8
0
 62
     0
100
AcDbTrace
 10
1240.039075009759
 20
326.1206236029935
 30
0.0
 11
1240.099075009759
 21
326.1206236029935
 31
0.0
 12
1240.069075009759
 22
326.3006236029935
 32
0.0
 13
1240.069075009759
 23
326.3006236029935
 33
0.0
  0
SOLID
  5
1620
330
37F
100
AcDbEntity
  8
0
 62
     0
100
AcDbTrace
 10
1240.039075009759
 20
116.4806236029935
 30
0.0
 11
1240.099075009759
 21
116.4806236029935
 31
0.0
 12
1240.069075009759
 22
116.3006236029935
 32
0.0
 13
1240.069075009759
 23
116.3006236029935
 33
0.0
  0
MTEXT
  5
1621
330
37F
100
AcDbEntity
  8
0
 62
     0
100
AcDbMText
 10
1240.069075009759
 20
221.3006236029937
 30
0.0
 40
15.0
 41
0.0
 46
0.0
 71
     5
 72
     1
  1
\A1;210.0
 73
     1
 44
1.0
  0
POINT
  5
1622
330
37F
100
AcDbEntity
  8
Defpoints
 62
     0
100
AcDbPoint
 10
1240.069075009759
 20
326.3006236029935
 30
0.0
  0
POINT
  5
1623
330
37F
100
AcDbEntity
  8
Defpoints
 62
     0
100
AcDbPoint
 10
1240.069075009759
 20
116.3006236029935
 30
0.0
  0
POINT
  5
1624
330
37F
100
AcDbEntity
  8
Defpoints
 62
     0
100
AcDbPoint
 10
1240.069075009759
 20
116.3006236029935
 30
0.0
  0
ENDBLK
  5
38B
330
37F
100
AcDbEntity
  8
0
100
AcDbBlockEnd
  0
BLOCK
  5
3A4
330
399
100
AcDbEntity
  8
0
100
AcDbBlockBegin
  2
*D12
 70
     1
 10
0.0
 20
0.0
 30
0.0
  3
*D12
  1

  0
LINE
  5
1643
330
399
100
AcDbEntity
  8
0
 62
     0
370
    -2
100
AcDbLine
 10
1164.923507994086
 20
481.3006236029933
 30
0.0
 11
1150.943549853053
 21
481.3006236029933
 31
0.0
  0
LINE
  5
1644
330
399
100
AcDbEntity
  8
0
 62
     0
370
    -2
100
AcDbLine
 10
1164.923507994086
 20
326.3006236029935
 30
0.0
 11
1150.943549853053
 21
326.3006236029935
 31
0.0
  0
LINE
  5
1645
330
399
100
AcDbEntity
  8
0
 62
     0
370
    -2
100
AcDbLine
 10
1151.123549853053
 20
481.1206236029934
 30
0.0
 11
1151.123549853053
 21
411.3906236029934
 31
0.0
  0
LINE
  5
1646
330
399
100
AcDbEntity
  8
0
 62
     0
370
    -2
100
AcDbLine
 10
1151.123549853053
 20
326.4806236029936
 30
0.0
 11
1151.123549853053
 21
396.2106236029935
 31
0.0
  0
SOLID
  5
1647
330
399
100
AcDbEntity
  8
0
 62
     0
100
AcDbTrace
 10
1151.093549853053
 20
481.1206236029934
 30
0.0
 11
1151.153549853053
 21
481.1206236029934
 31
0.0
 12
1151.123549853053
 22
481.3006236029933
 32
0.0
 13
1151.123549853053
 23
481.3006236029933
 33
0.0
  0
SOLID
  5
1648
330
399
100
AcDbEntity
  8
0
 62
     0
100
AcDbTrace
 10
1151.093549853053
 20
326.4806236029936
 30
0.0
 11
1151.153549853053
 21
326.4806236029936
 31
0.0
 12
1151.123549853053
 22
326.3006236029935
 32
0.0
 13
1151.123549853053
 23
326.3006236029935
 33
0.0
  0
MTEXT
  5
1649
330
399
100
AcDbEntity
  8
0
 62
     0
100
AcDbMText
 10
1151.123549853053
 20
403.8006236029936
 30
0.0
 40
15.0
 41
0.0
 46
0.0
 71
     5
 72
     1
  1
\A1;155.0
 73
     1
 44
1.0
  0
POINT
  5
164A
330
399
100
AcDbEntity
  8
Defpoints
 62
     0
100
AcDbPoint
 10
1164.986007994086
 20
481.3006236029933
 30
0.0
  0
POINT
  5
164B
330
399
100
AcDbEntity
  8
Defpoints
 62
     0
100
AcDbPoint
 10
1164.986007994086
 20
326.3006236029935
 30
0.0
  0
POINT
  5
164C
330
399
100
AcDbEntity
  8
Defpoints
 62
     0
100
AcDbPoint
 10
1151.123549853053
 20
326.3006236029935
 30
0.0
  0
ENDBLK
  5
3A5
330
399
100
AcDbEntity
  8
0
100
AcDbBlockEnd
  0
BLOCK
  5
3BE
330
3B3
100
AcDbEntity
  8
0
100
AcDbBlockBegin
  2
*D13
 70
     1
 10
0.0
 20
0.0
 30
0.0
  3
*D13
  1

  0
LINE
  5
1657
330
3B3
100
AcDbEntity
  8
0
 62
     0
370
    -2
100
AcDbLine
 10
1269.986007994086
 20
586.2381236029932
 30
0.0
 11
1269.986007994086
 21
580.1969691744755
 31
0.0
  0
LINE
  5
1658
330
3B3
100
AcDbEntity
  8
0
 62
     0
370
    -2
100
AcDbLine
 10
1344.986007994086
 20
586.2381236029932
 30
0.0
 11
1344.986007994086
 21
580.1969691744755
 31
0.0
  0
LINE
  5
1659
330
3B3
100
AcDbEntity
  8
0
 62
     0
370
    -2
100
AcDbLine
 10
1270.166007994086
 20
580.3769691744754
 30
0.0
 11
1286.146007994086
 21
580.3769691744754
 31
0.0
  0
LINE
  5
165A
330
3B3
100
AcDbEntity
  8
0
 62
     0
370
    -2
100
AcDbLine
 10
1344.806007994086
 20
580.3769691744754
 30
0.0
 11
1328.826007994086
 21
580.3769691744754
 31
0.0
  0
SOLID
  5
165B
330
3B3
100
AcDbEntity
  8
0
 62
     0
100
AcDbTrace
 10
1270.166007994086
 20
580.4069691744754
 30
0.0
 11
1270.166007994086
 21
580.3469691744752
 31
0.0
 12
1269.986007994086
 22
580.3769691744754
 32
0.0
 13
1269.986007994086
 23
580.3769691744754
 33
0.0
  0
SOLID
  5
165C
330
3B3
100
AcDbEntity
  8
0
 62
     0
100
AcDbTrace
 10
1344.806007994086
 20
580.4069691744754
 30
0.0
 11
1344.806007994086
 21
580.3469691744752
 31
0.0
 12
1344.986007994086
 22
580.3769691744754
 32
0.0
 13
1344.986007994086
 23
580.3769691744754
 33
0.0
  0
MTEXT
  5
165D
330
3B3
100
AcDbEntity
  8
0
 62
     0
100
AcDbMText
 10
1307.486007994086
 20
580.3769691744754
 30
0.0
 40
15.0
 41
0.0
 46
0.0
 71
     5
 72
     1
  1
\A1;75.0
 73
     1
 44
1.0
  0
POINT
  5
165E
330
3B3
100
AcDbEntity
  8
Defpoints
 62
     0
100
AcDbPoint
 10
1269.986007994086
 20
586.3006236029932
 30
0.0
  0
POINT
  5
165F
330
3B3
100
AcDbEntity
  8
Defpoints
 62
     0
100
AcDbPoint
 10
1344.986007994086
 20
586.3006236029932
 30
0.0
  0
POINT
  5
1660
330
3B3
100
AcDbEntity
  8
Defpoints
 62
     0
100
AcDbPoint
 10
1344.986007994086
 20
580.3769691744754
 30
0.0
  0
ENDBLK
  5
3BF
330
3B3
100
AcDbEntity
  8
0
100
AcDbBlockEnd
  0
BLOCK
  5
3D8
330
3CD
100
AcDbEntity
  8
0
100
AcDbBlockBegin
  2
*D14
 70
     1
 10
0.0
 20
0.0
 30
0.0
  3
*D14
  1

  0
LINE
  5
1611
330
3CD
100
AcDbEntity
  8
0
 62
     0
370
    -2
100
AcDbLine
 10
1269.986007994086
 20
239.4571638321083
 30
0.0
 11
1269.986007994086
 21
241.2024830580912
 31
0.0
  0
LINE
  5
1612
330
3CD
100
AcDbEntity
  8
0
 62
     0
370
    -2
100
AcDbLine
 10
1344.986007994086
 20
239.4571638321083
 30
0.0
 11
1344.986007994086
 21
241.2024830580912
 31
0.0
  0
LINE
  5
1613
330
3CD
100
AcDbEntity
  8
0
 62
     0
370
    -2
100
AcDbLine
 10
1270.166007994086
 20
241.0224830580912
 30
0.0
 11
1286.146007994086
 21
241.0224830580912
 31
0.0
  0
LINE
  5
1614
330
3CD
100
AcDbEntity
  8
0
 62
     0
370
    -2
100
AcDbLine
 10
1344.806007994086
 20
241.0224830580912
 30
0.0
 11
1328.826007994086
 21
241.0224830580912
 31
0.0
  0
SOLID
  5
1615
330
3CD
100
AcDbEntity
  8
0
 62
     0
100
AcDbTrace
 10
1270.166007994086
 20
241.0524830580912
 30
0.0
 11
1270.166007994086
 21
240.9924830580912
 31
0.0
 12
1269.986007994086
 22
241.0224830580912
 32
0.0
 13
1269.986007994086
 23
241.0224830580912
 33
0.0
  0
SOLID
  5
1616
330
3CD
100
AcDbEntity
  8
0
 62
     0
100
AcDbTrace
 10
1344.806007994086
 20
241.0524830580912
 30
0.0
 11
1344.806007994086
 21
240.9924830580912
 31
0.0
 12
1344.986007994086
 22
241.0224830580912
 32
0.0
 13
1344.986007994086
 23
241.0224830580912
 33
0.0
  0
MTEXT
  5
1617
330
3CD
100
AcDbEntity
  8
0
 62
     0
100
AcDbMText
 10
1307.486007994086
 20
241.0224830580912
 30
0.0
 40
15.0
 41
0.0
 46
0.0
 71
     5
 72
     1
  1
\A1;75.0
 73
     1
 44
1.0
  0
POINT
  5
1618
330
3CD
100
AcDbEntity
  8
Defpoints
 62
     0
100
AcDbPoint
 10
1269.986007994086
 20
239.3946638321083
 30
0.0
  0
POINT
  5
1619
330
3CD
100
AcDbEntity
  8
Defpoints
 62
     0
100
AcDbPoint
 10
1344.986007994086
 20
239.3946638321083
 30
0.0
  0
POINT
  5
161A
330
3CD
100
AcDbEntity
  8
Defpoints
 62
     0
100
AcDbPoint
 10
1344.986007994086
 20
241.0224830580912
 30
0.0
  0
ENDBLK
  5
3D9
330
3CD
100
AcDbEntity
  8
0
100
AcDbBlockEnd
  0
BLOCK
  5
3F2
330
3E7
100
AcDbEntity
  8
0
100
AcDbBlockBegin
  2
*D15
 70
     1
 10
0.0
 20
0.0
 30
0.0
  3
*D15
  1

  0
LINE
  5
4F6
330
3E7
100
AcDbEntity
  8
0
 62
     0
370
    -2
100
AcDbLine
 10
931.9507318136757
 20
133.3065573087003
 30
0.0
 11
931.9507318136757
 21
59.9732433084182
 31
0.0
  0
LINE
  5
4F7
330
3E7
100
AcDbEntity
  8
0
 62
     0
370
    -2
100
AcDbLine
 10
1397.986007994086
 20
133.3065573087003
 30
0.0
 11
1397.986007994086
 21
59.9732433084182
 31
0.0
  0
LINE
  5
4F8
330
3E7
100
AcDbEntity
  8
0
 62
     0
370
    -2
100
AcDbLine
 10
932.1307318136756
 20
60.15324330841821
 30
0.0
 11
1136.128369903881
 21
60.15324330841821
 31
0.0
  0
LINE
  5
4F9
330
3E7
100
AcDbEntity
  8
0
 62
     0
370
    -2
100
AcDbLine
 10
1397.806007994086
 20
60.15324330841821
 30
0.0
 11
1193.808369903881
 21
60.15324330841821
 31
0.0
  0
SOLID
  5
4FA
330
3E7
100
AcDbEntity
  8
0
 62
     0
100
AcDbTrace
 10
932.1307318136756
 20
60.18324330841821
 30
0.0
 11
932.1307318136756
 21
60.12324330841821
 31
0.0
 12
931.9507318136757
 22
60.15324330841821
 32
0.0
 13
931.9507318136757
 23
60.15324330841821
 33
0.0
  0
SOLID
  5
4FB
330
3E7
100
AcDbEntity
  8
0
 62
     0
100
AcDbTrace
 10
1397.806007994086
 20
60.18324330841821
 30
0.0
 11
1397.806007994086
 21
60.12324330841821
 31
0.0
 12
1397.986007994086
 22
60.15324330841821
 32
0.0
 13
1397.986007994086
 23
60.15324330841821
 33
0.0
  0
MTEXT
  5
4FC
330
3E7
100
AcDbEntity
  8
0
 62
     0
100
AcDbMText
 10
1164.968369903881
 20
60.15324330841821
 30
0.0
 40
15.0
 41
0.0
 46
0.0
 71
     5
 72
     1
  1
\A1;466.0
 73
     1
 44
1.0
  0
POINT
  5
4FD
330
3E7
100
AcDbEntity
  8
Defpoints
 62
     0
100
AcDbPoint
 10
931.9507318136757
 20
133.3690573087003
 30
0.0
  0
POINT
  5
4FE
330
3E7
100
AcDbEntity
  8
Defpoints
 62
     0
100
AcDbPoint
 10
1397.986007994086
 20
133.3690573087003
 30
0.0
  0
POINT
  5
4FF
330
3E7
100
AcDbEntity
  8
Defpoints
 62
     0
100
AcDbPoint
 10
1397.986007994086
 20
60.15324330841821
 30
0.0
  0
ENDBLK
  5
3F3
330
3E7
100
AcDbEntity
  8
0
100
AcDbBlockEnd
  0
BLOCK
  5
40C
330
401
100
AcDbEntity
  8
0
100
AcDbBlockBegin
  2
*D16
 70
     1
 10
0.0
 20
0.0
 30
0.0
  3
*D16
  1

  0
LINE
  5
5A4
330
401
100
AcDbEntity
  8
0
 62
     0
370
    -2
100
AcDbLine
 10
1264.154247965053
 20
96.30062360299351
 30
0.0
 11
1481.155096713333
 21
96.30062360299346
 31
0.0
  0
LINE
  5
5A5
330
401
100
AcDbEntity
  8
0
 62
     0
370
    -2
100
AcDbLine
 10
1289.048507994086
 20
845.3006236029935
 30
0.0
 11
1481.155096713334
 21
845.3006236029935
 31
0.0
  0
LINE
  5
5A6
330
401
100
AcDbEntity
  8
0
 62
     0
370
    -2
100
AcDbLine
 10
1480.975096713333
 20
96.48062360299348
 30
0.0
 11
1480.975096713333
 21
463.2106236029933
 31
0.0
  0
LINE
  5
5A7
330
401
100
AcDbEntity
  8
0
 62
     0
370
    -2
100
AcDbLine
 10
1480.975096713333
 20
845.1206236029936
 30
0.0
 11
1480.975096713333
 21
478.3906236029934
 31
0.0
  0
SOLID
  5
5A8
330
401
100
AcDbEntity
  8
0
 62
     0
100
AcDbTrace
 10
1480.945096713333
 20
96.48062360299348
 30
0.0
 11
1481.005096713333
 21
96.48062360299348
 31
0.0
 12
1480.975096713333
 22
96.30062360299346
 32
0.0
 13
1480.975096713333
 23
96.30062360299346
 33
0.0
  0
SOLID
  5
5A9
330
401
100
AcDbEntity
  8
0
 62
     0
100
AcDbTrace
 10
1480.945096713333
 20
845.1206236029936
 30
0.0
 11
1481.005096713333
 21
845.1206236029936
 31
0.0
 12
1480.975096713333
 22
845.3006236029935
 32
0.0
 13
1480.975096713333
 23
845.3006236029935
 33
0.0
  0
MTEXT
  5
5AA
330
401
100
AcDbEntity
  8
0
 62
     0
100
AcDbMText
 10
1480.975096713333
 20
470.8006236029937
 30
0.0
 40
15.0
 41
0.0
 46
0.0
 71
     5
 72
     1
  1
\A1;749.0
 73
     1
 44
1.0
  0
POINT
  5
5AB
330
401
100
AcDbEntity
  8
Defpoints
 62
     0
100
AcDbPoint
 10
1264.091747965053
 20
96.30062360299351
 30
0.0
  0
POINT
  5
5AC
330
401
100
AcDbEntity
  8
Defpoints
 62
     0
100
AcDbPoint
 10
1288.986007994086
 20
845.3006236029935
 30
0.0
  0
POINT
  5
5AD
330
401
100
AcDbEntity
  8
Defpoints
 62
     0
100
AcDbPoint
 10
1480.975096713333
 20
845.3006236029935
 30
0.0
  0
ENDBLK
  5
40D
330
401
100
AcDbEntity
  8
0
100
AcDbBlockEnd
  0
BLOCK
  5
554
330
549
100
AcDbEntity
  8
0
100
AcDbBlockBegin
  2
*D17
 70
     1
 10
0.0
 20
0.0
 30
0.0
  3
*D17
  1

  0
LINE
  5
557
330
549
100
AcDbEntity
  8
0
 62
     0
370
    -2
100
AcDbLine
 10
1208.817362996838
 20
686.3006236029932
 30
0.0
 11
1188.433295653154
 21
686.3006236029932
 31
0.0
  0
LINE
  5
558
330
549
100
AcDbEntity
  8
0
 62
     0
370
    -2
100
AcDbLine
 10
1208.817362996838
 20
835.3006236029933
 30
0.0
 11
1188.433295653154
 21
835.3006236029933
 31
0.0
  0
LINE
  5
559
330
549
100
AcDbEntity
  8
0
 62
     0
370
    -2
100
AcDbLine
 10
1188.613295653154
 20
686.4806236029932
 30
0.0
 11
1188.613295653154
 21
753.2106236029933
 31
0.0
  0
LINE
  5
55A
330
549
100
AcDbEntity
  8
0
 62
     0
370
    -2
100
AcDbLine
 10
1188.613295653154
 20
835.1206236029932
 30
0.0
 11
1188.613295653154
 21
768.3906236029932
 31
0.0
  0
SOLID
  5
55B
330
549
100
AcDbEntity
  8
0
 62
     0
100
AcDbTrace
 10
1188.583295653153
 20
686.4806236029932
 30
0.0
 11
1188.643295653154
 21
686.4806236029932
 31
0.0
 12
1188.613295653154
 22
686.3006236029932
 32
0.0
 13
1188.613295653154
 23
686.3006236029932
 33
0.0
  0
SOLID
  5
55C
330
549
100
AcDbEntity
  8
0
 62
     0
100
AcDbTrace
 10
1188.583295653153
 20
835.1206236029932
 30
0.0
 11
1188.643295653154
 21
835.1206236029932
 31
0.0
 12
1188.613295653154
 22
835.3006236029933
 32
0.0
 13
1188.613295653154
 23
835.3006236029933
 33
0.0
  0
MTEXT
  5
55D
330
549
100
AcDbEntity
  8
0
 62
     0
100
AcDbMText
 10
1188.613295653153
 20
760.8006236029933
 30
0.0
 40
15.0
 41
0.0
 46
0.0
 71
     5
 72
     1
  1
\A1;149.0
 73
     1
 44
1.0
  0
POINT
  5
55E
330
549
100
AcDbEntity
  8
Defpoints
 62
     0
100
AcDbPoint
 10
1208.879862996838
 20
686.3006236029932
 30
0.0
  0
POINT
  5
55F
330
549
100
AcDbEntity
  8
Defpoints
 62
     0
100
AcDbPoint
 10
1208.879862996838
 20
835.3006236029933
 30
0.0
  0
POINT
  5
560
330
549
100
AcDbEntity
  8
Defpoints
 62
     0
100
AcDbPoint
 10
1188.613295653154
 20
835.3006236029933
 30
0.0
  0
ENDBLK
  5
555
330
549
100
AcDbEntity
  8
0
100
AcDbBlockEnd
  0
BLOCK
  5
56E
330
563
100
AcDbEntity
  8
0
100
AcDbBlockBegin
  2
*D18
 70
     1
 10
0.0
 20
0.0
 30
0.0
  3
*D18
  1

  0
LINE
  5
1639
330
563
100
AcDbEntity
  8
0
 62
     0
370
    -2
100
AcDbLine
 10
1268.986007994086
 20
381.084903368621
 30
0.0
 11
1268.986007994086
 21
403.0698523178258
 31
0.0
  0
LINE
  5
163A
330
563
100
AcDbEntity
  8
0
 62
     0
370
    -2
100
AcDbLine
 10
1350.986007994086
 20
381.0849033686205
 30
0.0
 11
1350.986007994086
 21
403.0698523178258
 31
0.0
  0
LINE
  5
163B
330
563
100
AcDbEntity
  8
0
 62
     0
370
    -2
100
AcDbLine
 10
1269.166007994086
 20
402.8898523178257
 30
0.0
 11
1288.646007994086
 21
402.8898523178257
 31
0.0
  0
LINE
  5
163C
330
563
100
AcDbEntity
  8
0
 62
     0
370
    -2
100
AcDbLine
 10
1350.806007994086
 20
402.8898523178257
 30
0.0
 11
1331.326007994086
 21
402.8898523178257
 31
0.0
  0
SOLID
  5
163D
330
563
100
AcDbEntity
  8
0
 62
     0
100
AcDbTrace
 10
1269.166007994086
 20
402.9198523178257
 30
0.0
 11
1269.166007994086
 21
402.8598523178256
 31
0.0
 12
1268.986007994086
 22
402.8898523178257
 32
0.0
 13
1268.986007994086
 23
402.8898523178257
 33
0.0
  0
SOLID
  5
163E
330
563
100
AcDbEntity
  8
0
 62
     0
100
AcDbTrace
 10
1350.806007994086
 20
402.9198523178257
 30
0.0
 11
1350.806007994086
 21
402.8598523178256
 31
0.0
 12
1350.986007994086
 22
402.8898523178257
 32
0.0
 13
1350.986007994086
 23
402.8898523178257
 33
0.0
  0
MTEXT
  5
163F
330
563
100
AcDbEntity
  8
0
 62
     0
100
AcDbMText
 10
1309.986007994086
 20
402.8898523178257
 30
0.0
 40
15.0
 41
0.0
 46
0.0
 71
     5
 72
     1
  1
\A1;82.0
 73
     1
 44
1.0
  0
POINT
  5
1640
330
563
100
AcDbEntity
  8
Defpoints
 62
     0
100
AcDbPoint
 10
1268.986007994086
 20
381.0224033686209
 30
0.0
  0
POINT
  5
1641
330
563
100
AcDbEntity
  8
Defpoints
 62
     0
100
AcDbPoint
 10
1350.986007994086
 20
381.0224033686205
 30
0.0
  0
POINT
  5
1642
330
563
100
AcDbEntity
  8
Defpoints
 62
     0
100
AcDbPoint
 10
1350.986007994086
 20
402.8898523178257
 30
0.0
  0
ENDBLK
  5
56F
330
563
100
AcDbEntity
  8
0
100
AcDbBlockEnd
  0
BLOCK
  5
62A
330
61F
100
AcDbEntity
  8
0
100
AcDbBlockBegin
  2
*D19
 70
     1
 10
0.0
 20
0.0
 30
0.0
  3
*D19
  1

  0
LINE
  5
1661
330
61F
100
AcDbEntity
  8
0
 62
     0
370
    -2
100
AcDbLine
 10
1059.986007994086
 20
586.2381236029932
 30
0.0
 11
1059.986007994086
 21
580.1969691744755
 31
0.0
  0
LINE
  5
1662
330
61F
100
AcDbEntity
  8
0
 62
     0
370
    -2
100
AcDbLine
 10
984.9860079940857
 20
586.2381236029932
 30
0.0
 11
984.9860079940857
 21
580.1969691744755
 31
0.0
  0
LINE
  5
1663
330
61F
100
AcDbEntity
  8
0
 62
     0
370
    -2
100
AcDbLine
 10
1059.806007994086
 20
580.3769691744754
 30
0.0
 11
1043.826007994086
 21
580.3769691744754
 31
0.0
  0
LINE
  5
1664
330
61F
100
AcDbEntity
  8
0
 62
     0
370
    -2
100
AcDbLine
 10
985.1660079940856
 20
580.3769691744754
 30
0.0
 11
1001.146007994086
 21
580.3769691744754
 31
0.0
  0
SOLID
  5
1665
330
61F
100
AcDbEntity
  8
0
 62
     0
100
AcDbTrace
 10
1059.806007994086
 20
580.4069691744754
 30
0.0
 11
1059.806007994086
 21
580.3469691744752
 31
0.0
 12
1059.986007994086
 22
580.3769691744754
 32
0.0
 13
1059.986007994086
 23
580.3769691744754
 33
0.0
  0
SOLID
  5
1666
330
61F
100
AcDbEntity
  8
0
 62
     0
100
AcDbTrace
 10
985.1660079940856
 20
580.4069691744754
 30
0.0
 11
985.1660079940856
 21
580.3469691744752
 31
0.0
 12
984.9860079940857
 22
580.3769691744754
 32
0.0
 13
984.9860079940857
 23
580.3769691744754
 33
0.0
  0
MTEXT
  5
1667
330
61F
100
AcDbEntity
  8
0
 62
     0
100
AcDbMText
 10
1022.486007994086
 20
580.3769691744754
 30
0.0
 40
15.0
 41
0.0
 46
0.0
 71
     5
 72
     1
  1
\A1;75.0
 73
     1
 44
1.0
  0
POINT
  5
1668
330
61F
100
AcDbEntity
  8
Defpoints
 62
     0
100
AcDbPoint
 10
1059.986007994086
 20
586.3006236029932
 30
0.0
  0
POINT
  5
1669
330
61F
100
AcDbEntity
  8
Defpoints
 62
     0
100
AcDbPoint
 10
984.9860079940857
 20
586.3006236029932
 30
0.0
  0
POINT
  5
166A
330
61F
100
AcDbEntity
  8
Defpoints
 62
     0
100
AcDbPoint
 10
984.9860079940857
 20
580.3769691744754
 30
0.0
  0
ENDBLK
  5
62B
330
61F
100
AcDbEntity
  8
0
100
AcDbBlockEnd
  0
BLOCK
  5
637
330
62C
100
AcDbEntity
  8
0
100
AcDbBlockBegin
  2
*D20
 70
     1
 10
0.0
 20
0.0
 30
0.0
  3
*D20
  1

  0
LINE
  5
162F
330
62C
100
AcDbEntity
  8
0
 62
     0
370
    -2
100
AcDbLine
 10
1059.986007994086
 20
239.4571638321083
 30
0.0
 11
1059.986007994086
 21
241.2024830580912
 31
0.0
  0
LINE
  5
1630
330
62C
100
AcDbEntity
  8
0
 62
     0
370
    -2
100
AcDbLine
 10
984.9860079940857
 20
239.4571638321083
 30
0.0
 11
984.9860079940857
 21
241.2024830580912
 31
0.0
  0
LINE
  5
1631
330
62C
100
AcDbEntity
  8
0
 62
     0
370
    -2
100
AcDbLine
 10
1059.806007994086
 20
241.0224830580912
 30
0.0
 11
1043.826007994086
 21
241.0224830580912
 31
0.0
  0
LINE
  5
1632
330
62C
100
AcDbEntity
  8
0
 62
     0
370
    -2
100
AcDbLine
 10
985.1660079940856
 20
241.0224830580912
 30
0.0
 11
1001.146007994086
 21
241.0224830580912
 31
0.0
  0
SOLID
  5
1633
330
62C
100
AcDbEntity
  8
0
 62
     0
100
AcDbTrace
 10
1059.806007994086
 20
241.0524830580912
 30
0.0
 11
1059.806007994086
 21
240.9924830580912
 31
0.0
 12
1059.986007994086
 22
241.0224830580912
 32
0.0
 13
1059.986007994086
 23
241.0224830580912
 33
0.0
  0
SOLID
  5
1634
330
62C
100
AcDbEntity
  8
0
 62
     0
100
AcDbTrace
 10
985.1660079940856
 20
241.0524830580912
 30
0.0
 11
985.1660079940856
 21
240.9924830580912
 31
0.0
 12
984.9860079940857
 22
241.0224830580912
 32
0.0
 13
984.9860079940857
 23
241.0224830580912
 33
0.0
  0
MTEXT
  5
1635
330
62C
100
AcDbEntity
  8
0
 62
     0
100
AcDbMText
 10
1022.486007994086
 20
241.0224830580912
 30
0.0
 40
15.0
 41
0.0
 46
0.0
 71
     5
 72
     1
  1
\A1;75.0
 73
     1
 44
1.0
  0
POINT
  5
1636
330
62C
100
AcDbEntity
  8
Defpoints
 62
     0
100
AcDbPoint
 10
1059.986007994086
 20
239.3946638321083
 30
0.0
  0
POINT
  5
1637
330
62C
100
AcDbEntity
  8
Defpoints
 62
     0
100
AcDbPoint
 10
984.9860079940857
 20
239.3946638321083
 30
0.0
  0
POINT
  5
1638
330
62C
100
AcDbEntity
  8
Defpoints
 62
     0
100
AcDbPoint
 10
984.9860079940857
 20
241.0224830580912
 30
0.0
  0
ENDBLK
  5
638
330
62C
100
AcDbEntity
  8
0
100
AcDbBlockEnd
  0
BLOCK
  5
644
330
639
100
AcDbEntity
  8
0
100
AcDbBlockBegin
  2
*D21
 70
     1
 10
0.0
 20
0.0
 30
0.0
  3
*D21
  1

  0
LINE
  5
164D
330
639
100
AcDbEntity
  8
0
 62
     0
370
    -2
100
AcDbLine
 10
1060.986007994086
 20
381.084903368621
 30
0.0
 11
1060.986007994086
 21
403.0698523178258
 31
0.0
  0
LINE
  5
164E
330
639
100
AcDbEntity
  8
0
 62
     0
370
    -2
100
AcDbLine
 10
978.9860079940856
 20
381.0849033686205
 30
0.0
 11
978.9860079940856
 21
403.0698523178258
 31
0.0
  0
LINE
  5
164F
330
639
100
AcDbEntity
  8
0
 62
     0
370
    -2
100
AcDbLine
 10
1060.806007994086
 20
402.8898523178257
 30
0.0
 11
1041.326007994086
 21
402.8898523178257
 31
0.0
  0
LINE
  5
1650
330
639
100
AcDbEntity
  8
0
 62
     0
370
    -2
100
AcDbLine
 10
979.1660079940857
 20
402.8898523178257
 30
0.0
 11
998.6460079940856
 21
402.8898523178257
 31
0.0
  0
SOLID
  5
1651
330
639
100
AcDbEntity
  8
0
 62
     0
100
AcDbTrace
 10
1060.806007994086
 20
402.9198523178257
 30
0.0
 11
1060.806007994086
 21
402.8598523178256
 31
0.0
 12
1060.986007994086
 22
402.8898523178257
 32
0.0
 13
1060.986007994086
 23
402.8898523178257
 33
0.0
  0
SOLID
  5
1652
330
639
100
AcDbEntity
  8
0
 62
     0
100
AcDbTrace
 10
979.1660079940857
 20
402.9198523178257
 30
0.0
 11
979.1660079940857
 21
402.8598523178256
 31
0.0
 12
978.9860079940856
 22
402.8898523178257
 32
0.0
 13
978.9860079940856
 23
402.8898523178257
 33
0.0
  0
MTEXT
  5
1653
330
639
100
AcDbEntity
  8
0
 62
     0
100
AcDbMText
 10
1019.986007994086
 20
402.8898523178257
 30
0.0
 40
15.0
 41
0.0
 46
0.0
 71
     5
 72
     1
  1
\A1;82.0
 73
     1
 44
1.0
  0
POINT
  5
1654
330
639
100
AcDbEntity
  8
Defpoints
 62
     0
100
AcDbPoint
 10
1060.986007994086
 20
381.0224033686209
 30
0.0
  0
POINT
  5
1655
330
639
100
AcDbEntity
  8
Defpoints
 62
     0
100
AcDbPoint
 10
978.9860079940856
 20
381.0224033686205
 30
0.0
  0
POINT
  5
1656
330
639
100
AcDbEntity
  8
Defpoints
 62
     0
100
AcDbPoint
 10
978.9860079940856
 20
402.8898523178257
 30
0.0
  0
ENDBLK
  5
645
330
639
100
AcDbEntity
  8
0
100
AcDbBlockEnd
  0
BLOCK
  5
652
330
647
100
AcDbEntity
  8
0
100
AcDbBlockBegin
  2
*D22
 70
     1
 10
0.0
 20
0.0
 30
0.0
  3
*D22
  1

  0
LINE
  5
15E9
330
647
100
AcDbEntity
  8
0
 62
     0
370
    -2
100
AcDbLine
 10
926.9860079940857
 20
146.5589531110356
 30
0.0
 11
926.9860079940857
 21
61.28784800758953
 31
0.0
  0
LINE
  5
15EA
330
647
100
AcDbEntity
  8
0
 62
     0
370
    -2
100
AcDbLine
 10
1402.986007994086
 20
146.5589531110356
 30
0.0
 11
1402.986007994086
 21
61.28784800758953
 31
0.0
  0
LINE
  5
15EB
330
647
100
AcDbEntity
  8
0
 62
     0
370
    -2
100
AcDbLine
 10
927.1660079940856
 20
61.46784800758954
 30
0.0
 11
1136.146007994086
 21
61.46784800758954
 31
0.0
  0
LINE
  5
15EC
330
647
100
AcDbEntity
  8
0
 62
     0
370
    -2
100
AcDbLine
 10
1402.806007994086
 20
61.46784800758954
 30
0.0
 11
1193.826007994086
 21
61.46784800758954
 31
0.0
  0
SOLID
  5
15ED
330
647
100
AcDbEntity
  8
0
 62
     0
100
AcDbTrace
 10
927.1660079940856
 20
61.49784800758954
 30
0.0
 11
927.1660079940856
 21
61.43784800758954
 31
0.0
 12
926.9860079940857
 22
61.46784800758954
 32
0.0
 13
926.9860079940857
 23
61.46784800758954
 33
0.0
  0
SOLID
  5
15EE
330
647
100
AcDbEntity
  8
0
 62
     0
100
AcDbTrace
 10
1402.806007994086
 20
61.49784800758954
 30
0.0
 11
1402.806007994086
 21
61.43784800758954
 31
0.0
 12
1402.986007994086
 22
61.46784800758954
 32
0.0
 13
1402.986007994086
 23
61.46784800758954
 33
0.0
  0
MTEXT
  5
15EF
330
647
100
AcDbEntity
  8
0
 62
     0
100
AcDbMText
 10
1164.986007994086
 20
61.46784800758954
 30
0.0
 40
15.0
 41
0.0
 46
0.0
 71
     5
 72
     1
  1
\A1;476.0
 73
     1
 44
1.0
  0
POINT
  5
15F0
330
647
100
AcDbEntity
  8
Defpoints
 62
     0
100
AcDbPoint
 10
926.9860079940857
 20
146.6214531110356
 30
0.0
  0
POINT
  5
15F1
330
647
100
AcDbEntity
  8
Defpoints
 62
     0
100
AcDbPoint
 10
1402.986007994086
 20
146.6214531110356
 30
0.0
  0
POINT
  5
15F2
330
647
100
AcDbEntity
  8
Defpoints
 62
     0
100
AcDbPoint
 10
1402.986007994086
 20
61.46784800758954
 30
0.0
  0
ENDBLK
  5
653
330
647
100
AcDbEntity
  8
0
100
AcDbBlockEnd
  0
BLOCK
  5
66C
330
661
100
AcDbEntity
  8
0
100
AcDbBlockBegin
  2
*D23
 70
     1
 10
0.0
 20
0.0
 30
0.0
  3
*D23
  1

  0
LINE
  5
1607
330
661
100
AcDbEntity
  8
0
 62
     0
370
    -2
100
AcDbLine
 10
1264.154247965053
 20
96.30062360299351
 30
0.0
 11
1492.029217379092
 21
96.30062360299346
 31
0.0
  0
LINE
  5
1608
330
661
100
AcDbEntity
  8
0
 62
     0
370
    -2
100
AcDbLine
 10
1269.048507994086
 20
845.3006236029933
 30
0.0
 11
1492.029217379092
 21
845.3006236029931
 31
0.0
  0
LINE
  5
1609
330
661
100
AcDbEntity
  8
0
 62
     0
370
    -2
100
AcDbLine
 10
1491.849217379092
 20
96.48062360299348
 30
0.0
 11
1491.849217379092
 21
463.2106236029933
 31
0.0
  0
LINE
  5
160A
330
661
100
AcDbEntity
  8
0
 62
     0
370
    -2
100
AcDbLine
 10
1491.849217379092
 20
845.1206236029932
 30
0.0
 11
1491.849217379092
 21
478.3906236029933
 31
0.0
  0
SOLID
  5
160B
330
661
100
AcDbEntity
  8
0
 62
     0
100
AcDbTrace
 10
1491.819217379092
 20
96.48062360299348
 30
0.0
 11
1491.879217379092
 21
96.48062360299348
 31
0.0
 12
1491.849217379092
 22
96.30062360299346
 32
0.0
 13
1491.849217379092
 23
96.30062360299346
 33
0.0
  0
SOLID
  5
160C
330
661
100
AcDbEntity
  8
0
 62
     0
100
AcDbTrace
 10
1491.819217379092
 20
845.1206236029932
 30
0.0
 11
1491.879217379092
 21
845.1206236029932
 31
0.0
 12
1491.849217379092
 22
845.3006236029931
 32
0.0
 13
1491.849217379092
 23
845.3006236029931
 33
0.0
  0
MTEXT
  5
160D
330
661
100
AcDbEntity
  8
0
 62
     0
100
AcDbMText
 10
1491.849217379092
 20
470.8006236029936
 30
0.0
 40
15.0
 41
0.0
 46
0.0
 71
     5
 72
     1
  1
\A1;749.0
 73
     1
 44
1.0
  0
POINT
  5
160E
330
661
100
AcDbEntity
  8
Defpoints
 62
     0
100
AcDbPoint
 10
1264.091747965053
 20
96.30062360299351
 30
0.0
  0
POINT
  5
160F
330
661
100
AcDbEntity
  8
Defpoints
 62
     0
100
AcDbPoint
 10
1268.986007994086
 20
845.3006236029933
 30
0.0
  0
POINT
  5
1610
330
661
100
AcDbEntity
  8
Defpoints
 62
     0
100
AcDbPoint
 10
1491.849217379092
 20
845.3006236029931
 30
0.0
  0
ENDBLK
  5
66D
330
661
100
AcDbEntity
  8
0
100
AcDbBlockEnd
  0
BLOCK
  5
72B
330
720
100
AcDbEntity
  8
0
100
AcDbBlockBegin
  2
*D24
 70
     1
 10
0.0
 20
0.0
 30
0.0
  3
*D24
  1

  0
LINE
  5
761
330
720
100
AcDbEntity
  8
0
 62
     0
370
    -2
100
AcDbLine
 10
1640.25075003338
 20
164.9385047696009
 30
0.0
 11
1640.25075003338
 21
168.4221670890885
 31
0.0
  0
LINE
  5
762
330
720
100
AcDbEntity
  8
0
 62
     0
370
    -2
100
AcDbLine
 10
1850.25075003338
 20
164.9385047696009
 30
0.0
 11
1850.25075003338
 21
168.4221670890885
 31
0.0
  0
LINE
  5
763
330
720
100
AcDbEntity
  8
0
 62
     0
370
    -2
100
AcDbLine
 10
1640.43075003338
 20
168.2421670890885
 30
0.0
 11
1720.16075003338
 21
168.2421670890885
 31
0.0
  0
LINE
  5
764
330
720
100
AcDbEntity
  8
0
 62
     0
370
    -2
100
AcDbLine
 10
1850.07075003338
 20
168.2421670890885
 30
0.0
 11
1770.34075003338
 21
168.2421670890885
 31
0.0
  0
SOLID
  5
765
330
720
100
AcDbEntity
  8
0
 62
     0
100
AcDbTrace
 10
1640.43075003338
 20
168.2721670890885
 30
0.0
 11
1640.43075003338
 21
168.2121670890885
 31
0.0
 12
1640.25075003338
 22
168.2421670890885
 32
0.0
 13
1640.25075003338
 23
168.2421670890885
 33
0.0
  0
SOLID
  5
766
330
720
100
AcDbEntity
  8
0
 62
     0
100
AcDbTrace
 10
1850.07075003338
 20
168.2721670890885
 30
0.0
 11
1850.07075003338
 21
168.2121670890885
 31
0.0
 12
1850.25075003338
 22
168.2421670890885
 32
0.0
 13
1850.25075003338
 23
168.2421670890885
 33
0.0
  0
MTEXT
  5
767
330
720
100
AcDbEntity
  8
0
 62
     0
100
AcDbMText
 10
1745.25075003338
 20
168.2421670890885
 30
0.0
 40
15.0
 41
0.0
 46
0.0
 71
     5
 72
     1
  1
\A1;210.0
 73
     1
 44
1.0
  0
POINT
  5
768
330
720
100
AcDbEntity
  8
Defpoints
 62
     0
100
AcDbPoint
 10
1640.25075003338
 20
164.8760047696009
 30
0.0
  0
POINT
  5
769
330
720
100
AcDbEntity
  8
Defpoints
 62
     0
100
AcDbPoint
 10
1850.25075003338
 20
164.8760047696009
 30
0.0
  0
POINT
  5
76A
330
720
100
AcDbEntity
  8
Defpoints
 62
     0
100
AcDbPoint
 10
1850.25075003338
 20
168.2421670890885
 30
0.0
  0
ENDBLK
  5
72C
330
720
100
AcDbEntity
  8
0
100
AcDbBlockEnd
  0
BLOCK
  5
738
330
72D
100
AcDbEntity
  8
0
100
AcDbBlockBegin
  2
*D25
 70
     1
 10
0.0
 20
0.0
 30
0.0
  3
*D25
  1

  0
LINE
  5
72E
330
72D
100
AcDbEntity
  8
0
 62
     0
370
    -2
100
AcDbLine
 10
1820.271317049053
 20
326.3006236029935
 30
0.0
 11
1820.153817049053
 21
326.3006236029935
 31
0.0
  0
LINE
  5
72F
330
72D
100
AcDbEntity
  8
0
 62
     0
370
    -2
100
AcDbLine
 10
1820.271317049053
 20
116.3006236029935
 30
0.0
 11
1820.153817049053
 21
116.3006236029935
 31
0.0
  0
LINE
  5
730
330
72D
100
AcDbEntity
  8
0
 62
     0
370
    -2
100
AcDbLine
 10
1820.333817049053
 20
326.1206236029935
 30
0.0
 11
1820.333817049053
 21
228.8906236029935
 31
0.0
  0
LINE
  5
731
330
72D
100
AcDbEntity
  8
0
 62
     0
370
    -2
100
AcDbLine
 10
1820.333817049053
 20
116.4806236029935
 30
0.0
 11
1820.333817049053
 21
213.7106236029935
 31
0.0
  0
SOLID
  5
732
330
72D
100
AcDbEntity
  8
0
 62
     0
100
AcDbTrace
 10
1820.303817049053
 20
326.1206236029935
 30
0.0
 11
1820.363817049053
 21
326.1206236029935
 31
0.0
 12
1820.333817049053
 22
326.3006236029935
 32
0.0
 13
1820.333817049053
 23
326.3006236029935
 33
0.0
  0
SOLID
  5
733
330
72D
100
AcDbEntity
  8
0
 62
     0
100
AcDbTrace
 10
1820.303817049053
 20
116.4806236029935
 30
0.0
 11
1820.363817049053
 21
116.4806236029935
 31
0.0
 12
1820.333817049053
 22
116.3006236029935
 32
0.0
 13
1820.333817049053
 23
116.3006236029935
 33
0.0
  0
MTEXT
  5
734
330
72D
100
AcDbEntity
  8
0
 62
     0
100
AcDbMText
 10
1820.333817049053
 20
221.3006236029938
 30
0.0
 40
15.0
 41
0.0
 46
0.0
 71
     5
 72
     1
  1
\A1;210.0
 73
     1
 44
1.0
  0
POINT
  5
735
330
72D
100
AcDbEntity
  8
Defpoints
 62
     0
100
AcDbPoint
 10
1820.333817049053
 20
326.3006236029935
 30
0.0
  0
POINT
  5
736
330
72D
100
AcDbEntity
  8
Defpoints
 62
     0
100
AcDbPoint
 10
1820.333817049053
 20
116.3006236029935
 30
0.0
  0
POINT
  5
737
330
72D
100
AcDbEntity
  8
Defpoints
 62
     0
100
AcDbPoint
 10
1820.333817049053
 20
116.3006236029935
 30
0.0
  0
ENDBLK
  5
739
330
72D
100
AcDbEntity
  8
0
100
AcDbBlockEnd
  0
BLOCK
  5
745
330
73A
100
AcDbEntity
  8
0
100
AcDbBlockBegin
  2
*D26
 70
     1
 10
0.0
 20
0.0
 30
0.0
  3
*D26
  1

  0
LINE
  5
73B
330
73A
100
AcDbEntity
  8
0
 62
     0
370
    -2
100
AcDbLine
 10
1745.18825003338
 20
481.3006236029933
 30
0.0
 11
1731.208291892347
 21
481.3006236029933
 31
0.0
  0
LINE
  5
73C
330
73A
100
AcDbEntity
  8
0
 62
     0
370
    -2
100
AcDbLine
 10
1745.18825003338
 20
326.3006236029935
 30
0.0
 11
1731.208291892347
 21
326.3006236029935
 31
0.0
  0
LINE
  5
73D
330
73A
100
AcDbEntity
  8
0
 62
     0
370
    -2
100
AcDbLine
 10
1731.388291892348
 20
481.1206236029934
 30
0.0
 11
1731.388291892348
 21
411.3906236029934
 31
0.0
  0
LINE
  5
73E
330
73A
100
AcDbEntity
  8
0
 62
     0
370
    -2
100
AcDbLine
 10
1731.388291892348
 20
326.4806236029935
 30
0.0
 11
1731.388291892348
 21
396.2106236029935
 31
0.0
  0
SOLID
  5
73F
330
73A
100
AcDbEntity
  8
0
 62
     0
100
AcDbTrace
 10
1731.358291892348
 20
481.1206236029934
 30
0.0
 11
1731.418291892348
 21
481.1206236029934
 31
0.0
 12
1731.388291892348
 22
481.3006236029933
 32
0.0
 13
1731.388291892348
 23
481.3006236029933
 33
0.0
  0
SOLID
  5
740
330
73A
100
AcDbEntity
  8
0
 62
     0
100
AcDbTrace
 10
1731.358291892348
 20
326.4806236029935
 30
0.0
 11
1731.418291892348
 21
326.4806236029935
 31
0.0
 12
1731.388291892348
 22
326.3006236029935
 32
0.0
 13
1731.388291892348
 23
326.3006236029935
 33
0.0
  0
MTEXT
  5
741
330
73A
100
AcDbEntity
  8
0
 62
     0
100
AcDbMText
 10
1731.388291892348
 20
403.8006236029938
 30
0.0
 40
15.0
 41
0.0
 46
0.0
 71
     5
 72
     1
  1
\A1;155.0
 73
     1
 44
1.0
  0
POINT
  5
742
330
73A
100
AcDbEntity
  8
Defpoints
 62
     0
100
AcDbPoint
 10
1745.25075003338
 20
481.3006236029933
 30
0.0
  0
POINT
  5
743
330
73A
100
AcDbEntity
  8
Defpoints
 62
     0
100
AcDbPoint
 10
1745.25075003338
 20
326.3006236029935
 30
0.0
  0
POINT
  5
744
330
73A
100
AcDbEntity
  8
Defpoints
 62
     0
100
AcDbPoint
 10
1731.388291892348
 20
326.3006236029935
 30
0.0
  0
ENDBLK
  5
746
330
73A
100
AcDbEntity
  8
0
100
AcDbBlockEnd
  0
BLOCK
  5
752
330
747
100
AcDbEntity
  8
0
100
AcDbBlockBegin
  2
*D27
 70
     1
 10
0.0
 20
0.0
 30
0.0
  3
*D27
  1

  0
LINE
  5
748
330
747
100
AcDbEntity
  8
0
 62
     0
370
    -2
100
AcDbLine
 10
1850.25075003338
 20
586.2381236029935
 30
0.0
 11
1850.25075003338
 21
580.1969691744756
 31
0.0
  0
LINE
  5
749
330
747
100
AcDbEntity
  8
0
 62
     0
370
    -2
100
AcDbLine
 10
1925.25075003338
 20
586.2381236029935
 30
0.0
 11
1925.25075003338
 21
580.1969691744756
 31
0.0
  0
LINE
  5
74A
330
747
100
AcDbEntity
  8
0
 62
     0
370
    -2
100
AcDbLine
 10
1850.43075003338
 20
580.3769691744754
 30
0.0
 11
1866.41075003338
 21
580.3769691744754
 31
0.0
  0
LINE
  5
74B
330
747
100
AcDbEntity
  8
0
 62
     0
370
    -2
100
AcDbLine
 10
1925.07075003338
 20
580.3769691744754
 30
0.0
 11
1909.09075003338
 21
580.3769691744754
 31
0.0
  0
SOLID
  5
74C
330
747
100
AcDbEntity
  8
0
 62
     0
100
AcDbTrace
 10
1850.43075003338
 20
580.4069691744755
 30
0.0
 11
1850.43075003338
 21
580.3469691744756
 31
0.0
 12
1850.25075003338
 22
580.3769691744754
 32
0.0
 13
1850.25075003338
 23
580.3769691744754
 33
0.0
  0
SOLID
  5
74D
330
747
100
AcDbEntity
  8
0
 62
     0
100
AcDbTrace
 10
1925.07075003338
 20
580.4069691744755
 30
0.0
 11
1925.07075003338
 21
580.3469691744756
 31
0.0
 12
1925.25075003338
 22
580.3769691744754
 32
0.0
 13
1925.25075003338
 23
580.3769691744754
 33
0.0
  0
MTEXT
  5
74E
330
747
100
AcDbEntity
  8
0
 62
     0
100
AcDbMText
 10
1887.75075003338
 20
580.3769691744754
 30
0.0
 40
15.0
 41
0.0
 46
0.0
 71
     5
 72
     1
  1
\A1;75.0
 73
     1
 44
1.0
  0
POINT
  5
74F
330
747
100
AcDbEntity
  8
Defpoints
 62
     0
100
AcDbPoint
 10
1850.25075003338
 20
586.3006236029932
 30
0.0
  0
POINT
  5
750
330
747
100
AcDbEntity
  8
Defpoints
 62
     0
100
AcDbPoint
 10
1925.25075003338
 20
586.3006236029932
 30
0.0
  0
POINT
  5
751
330
747
100
AcDbEntity
  8
Defpoints
 62
     0
100
AcDbPoint
 10
1925.25075003338
 20
580.3769691744754
 30
0.0
  0
ENDBLK
  5
753
330
747
100
AcDbEntity
  8
0
100
AcDbBlockEnd
  0
BLOCK
  5
75F
330
754
100
AcDbEntity
  8
0
100
AcDbBlockBegin
  2
*D28
 70
     1
 10
0.0
 20
0.0
 30
0.0
  3
*D28
  1

  0
LINE
  5
755
330
754
100
AcDbEntity
  8
0
 62
     0
370
    -2
100
AcDbLine
 10
1850.25075003338
 20
239.4571638321083
 30
0.0
 11
1850.25075003338
 21
241.2024830580912
 31
0.0
  0
LINE
  5
756
330
754
100
AcDbEntity
  8
0
 62
     0
370
    -2
100
AcDbLine
 10
1925.25075003338
 20
239.4571638321083
 30
0.0
 11
1925.25075003338
 21
241.2024830580912
 31
0.0
  0
LINE
  5
757
330
754
100
AcDbEntity
  8
0
 62
     0
370
    -2
100
AcDbLine
 10
1850.43075003338
 20
241.0224830580912
 30
0.0
 11
1866.41075003338
 21
241.0224830580912
 31
0.0
  0
LINE
  5
758
330
754
100
AcDbEntity
  8
0
 62
     0
370
    -2
100
AcDbLine
 10
1925.07075003338
 20
241.0224830580912
 30
0.0
 11
1909.09075003338
 21
241.0224830580912
 31
0.0
  0
SOLID
  5
759
330
754
100
AcDbEntity
  8
0
 62
     0
100
AcDbTrace
 10
1850.43075003338
 20
241.0524830580912
 30
0.0
 11
1850.43075003338
 21
240.9924830580912
 31
0.0
 12
1850.25075003338
 22
241.0224830580912
 32
0.0
 13
1850.25075003338
 23
241.0224830580912
 33
0.0
  0
SOLID
  5
75A
330
754
100
AcDbEntity
  8
0
 62
     0
100
AcDbTrace
 10
1925.07075003338
 20
241.0524830580912
 30
0.0
 11
1925.07075003338
 21
240.9924830580912
 31
0.0
 12
1925.25075003338
 22
241.0224830580912
 32
0.0
 13
1925.25075003338
 23
241.0224830580912
 33
0.0
  0
MTEXT
  5
75B
330
754
100
AcDbEntity
  8
0
 62
     0
100
AcDbMText
 10
1887.75075003338
 20
241.0224830580912
 30
0.0
 40
15.0
 41
0.0
 46
0.0
 71
     5
 72
     1
  1
\A1;75.0
 73
     1
 44
1.0
  0
POINT
  5
75C
330
754
100
AcDbEntity
  8
Defpoints
 62
     0
100
AcDbPoint
 10
1850.25075003338
 20
239.3946638321083
 30
0.0
  0
POINT
  5
75D
330
754
100
AcDbEntity
  8
Defpoints
 62
     0
100
AcDbPoint
 10
1925.25075003338
 20
239.3946638321083
 30
0.0
  0
POINT
  5
75E
330
754
100
AcDbEntity
  8
Defpoints
 62
     0
100
AcDbPoint
 10
1925.25075003338
 20
241.0224830580912
 30
0.0
  0
ENDBLK
  5
760
330
754
100
AcDbEntity
  8
0
100
AcDbBlockEnd
  0
BLOCK
  5
776
330
76B
100
AcDbEntity
  8
0
100
AcDbBlockBegin
  2
*D29
 70
     1
 10
0.0
 20
0.0
 30
0.0
  3
*D29
  1

  0
LINE
  5
76C
330
76B
100
AcDbEntity
  8
0
 62
     0
370
    -2
100
AcDbLine
 10
1849.25075003338
 20
381.084903368621
 30
0.0
 11
1849.25075003338
 21
403.0698523178258
 31
0.0
  0
LINE
  5
76D
330
76B
100
AcDbEntity
  8
0
 62
     0
370
    -2
100
AcDbLine
 10
1931.25075003338
 20
381.0849033686205
 30
0.0
 11
1931.25075003338
 21
403.0698523178258
 31
0.0
  0
LINE
  5
76E
330
76B
100
AcDbEntity
  8
0
 62
     0
370
    -2
100
AcDbLine
 10
1849.43075003338
 20
402.8898523178257
 30
0.0
 11
1868.91075003338
 21
402.8898523178257
 31
0.0
  0
LINE
  5
76F
330
76B
100
AcDbEntity
  8
0
 62
     0
370
    -2
100
AcDbLine
 10
1931.07075003338
 20
402.8898523178257
 30
0.0
 11
1911.59075003338
 21
402.8898523178257
 31
0.0
  0
SOLID
  5
770
330
76B
100
AcDbEntity
  8
0
 62
     0
100
AcDbTrace
 10
1849.43075003338
 20
402.9198523178257
 30
0.0
 11
1849.43075003338
 21
402.8598523178256
 31
0.0
 12
1849.25075003338
 22
402.8898523178257
 32
0.0
 13
1849.25075003338
 23
402.8898523178257
 33
0.0
  0
SOLID
  5
771
330
76B
100
AcDbEntity
  8
0
 62
     0
100
AcDbTrace
 10
1931.07075003338
 20
402.9198523178257
 30
0.0
 11
1931.07075003338
 21
402.8598523178256
 31
0.0
 12
1931.25075003338
 22
402.8898523178257
 32
0.0
 13
1931.25075003338
 23
402.8898523178257
 33
0.0
  0
MTEXT
  5
772
330
76B
100
AcDbEntity
  8
0
 62
     0
100
AcDbMText
 10
1890.25075003338
 20
402.8898523178257
 30
0.0
 40
15.0
 41
0.0
 46
0.0
 71
     5
 72
     1
  1
\A1;82.0
 73
     1
 44
1.0
  0
POINT
  5
773
330
76B
100
AcDbEntity
  8
Defpoints
 62
     0
100
AcDbPoint
 10
1849.25075003338
 20
381.0224033686209
 30
0.0
  0
POINT
  5
774
330
76B
100
AcDbEntity
  8
Defpoints
 62
     0
100
AcDbPoint
 10
1931.25075003338
 20
381.0224033686205
 30
0.0
  0
POINT
  5
775
330
76B
100
AcDbEntity
  8
Defpoints
 62
     0
100
AcDbPoint
 10
1931.25075003338
 20
402.8898523178257
 30
0.0
  0
ENDBLK
  5
777
330
76B
100
AcDbEntity
  8
0
100
AcDbBlockEnd
  0
BLOCK
  5
783
330
778
100
AcDbEntity
  8
0
100
AcDbBlockBegin
  2
*D30
 70
     1
 10
0.0
 20
0.0
 30
0.0
  3
*D30
  1

  0
LINE
  5
779
330
778
100
AcDbEntity
  8
0
 62
     0
370
    -2
100
AcDbLine
 10
1640.25075003338
 20
586.2381236029935
 30
0.0
 11
1640.25075003338
 21
580.1969691744756
 31
0.0
  0
LINE
  5
77A
330
778
100
AcDbEntity
  8
0
 62
     0
370
    -2
100
AcDbLine
 10
1565.25075003338
 20
586.2381236029935
 30
0.0
 11
1565.25075003338
 21
580.1969691744756
 31
0.0
  0
LINE
  5
77B
330
778
100
AcDbEntity
  8
0
 62
     0
370
    -2
100
AcDbLine
 10
1640.07075003338
 20
580.3769691744754
 30
0.0
 11
1624.09075003338
 21
580.3769691744754
 31
0.0
  0
LINE
  5
77C
330
778
100
AcDbEntity
  8
0
 62
     0
370
    -2
100
AcDbLine
 10
1565.43075003338
 20
580.3769691744754
 30
0.0
 11
1581.41075003338
 21
580.3769691744754
 31
0.0
  0
SOLID
  5
77D
330
778
100
AcDbEntity
  8
0
 62
     0
100
AcDbTrace
 10
1640.07075003338
 20
580.4069691744755
 30
0.0
 11
1640.07075003338
 21
580.3469691744756
 31
0.0
 12
1640.25075003338
 22
580.3769691744754
 32
0.0
 13
1640.25075003338
 23
580.3769691744754
 33
0.0
  0
SOLID
  5
77E
330
778
100
AcDbEntity
  8
0
 62
     0
100
AcDbTrace
 10
1565.43075003338
 20
580.4069691744755
 30
0.0
 11
1565.43075003338
 21
580.3469691744756
 31
0.0
 12
1565.25075003338
 22
580.3769691744754
 32
0.0
 13
1565.25075003338
 23
580.3769691744754
 33
0.0
  0
MTEXT
  5
77F
330
778
100
AcDbEntity
  8
0
 62
     0
100
AcDbMText
 10
1602.75075003338
 20
580.3769691744754
 30
0.0
 40
15.0
 41
0.0
 46
0.0
 71
     5
 72
     1
  1
\A1;75.0
 73
     1
 44
1.0
  0
POINT
  5
780
330
778
100
AcDbEntity
  8
Defpoints
 62
     0
100
AcDbPoint
 10
1640.25075003338
 20
586.3006236029932
 30
0.0
  0
POINT
  5
781
330
778
100
AcDbEntity
  8
Defpoints
 62
     0
100
AcDbPoint
 10
1565.25075003338
 20
586.3006236029932
 30
0.0
  0
POINT
  5
782
330
778
100
AcDbEntity
  8
Defpoints
 62
     0
100
AcDbPoint
 10
1565.25075003338
 20
580.3769691744754
 30
0.0
  0
ENDBLK
  5
784
330
778
100
AcDbEntity
  8
0
100
AcDbBlockEnd
  0
BLOCK
  5
790
330
785
100
AcDbEntity
  8
0
100
AcDbBlockBegin
  2
*D31
 70
     1
 10
0.0
 20
0.0
 30
0.0
  3
*D31
  1

  0
LINE
  5
786
330
785
100
AcDbEntity
  8
0
 62
     0
370
    -2
100
AcDbLine
 10
1640.25075003338
 20
239.4571638321083
 30
0.0
 11
1640.25075003338
 21
241.2024830580912
 31
0.0
  0
LINE
  5
787
330
785
100
AcDbEntity
  8
0
 62
     0
370
    -2
100
AcDbLine
 10
1565.25075003338
 20
239.4571638321083
 30
0.0
 11
1565.25075003338
 21
241.2024830580912
 31
0.0
  0
LINE
  5
788
330
785
100
AcDbEntity
  8
0
 62
     0
370
    -2
100
AcDbLine
 10
1640.07075003338
 20
241.0224830580912
 30
0.0
 11
1624.09075003338
 21
241.0224830580912
 31
0.0
  0
LINE
  5
789
330
785
100
AcDbEntity
  8
0
 62
     0
370
    -2
100
AcDbLine
 10
1565.43075003338
 20
241.0224830580912
 30
0.0
 11
1581.41075003338
 21
241.0224830580912
 31
0.0
  0
SOLID
  5
78A
330
785
100
AcDbEntity
  8
0
 62
     0
100
AcDbTrace
 10
1640.07075003338
 20
241.0524830580912
 30
0.0
 11
1640.07075003338
 21
240.9924830580912
 31
0.0
 12
1640.25075003338
 22
241.0224830580912
 32
0.0
 13
1640.25075003338
 23
241.0224830580912
 33
0.0
  0
SOLID
  5
78B
330
785
100
AcDbEntity
  8
0
 62
     0
100
AcDbTrace
 10
1565.43075003338
 20
241.0524830580912
 30
0.0
 11
1565.43075003338
 21
240.9924830580912
 31
0.0
 12
1565.25075003338
 22
241.0224830580912
 32
0.0
 13
1565.25075003338
 23
241.0224830580912
 33
0.0
  0
MTEXT
  5
78C
330
785
100
AcDbEntity
  8
0
 62
     0
100
AcDbMText
 10
1602.75075003338
 20
241.0224830580912
 30
0.0
 40
15.0
 41
0.0
 46
0.0
 71
     5
 72
     1
  1
\A1;75.0
 73
     1
 44
1.0
  0
POINT
  5
78D
330
785
100
AcDbEntity
  8
Defpoints
 62
     0
100
AcDbPoint
 10
1640.25075003338
 20
239.3946638321083
 30
0.0
  0
POINT
  5
78E
330
785
100
AcDbEntity
  8
Defpoints
 62
     0
100
AcDbPoint
 10
1565.25075003338
 20
239.3946638321083
 30
0.0
  0
POINT
  5
78F
330
785
100
AcDbEntity
  8
Defpoints
 62
     0
100
AcDbPoint
 10
1565.25075003338
 20
241.0224830580912
 30
0.0
  0
ENDBLK
  5
791
330
785
100
AcDbEntity
  8
0
100
AcDbBlockEnd
  0
BLOCK
  5
79D
330
792
100
AcDbEntity
  8
0
100
AcDbBlockBegin
  2
*D32
 70
     1
 10
0.0
 20
0.0
 30
0.0
  3
*D32
  1

  0
LINE
  5
793
330
792
100
AcDbEntity
  8
0
 62
     0
370
    -2
100
AcDbLine
 10
1641.25075003338
 20
381.084903368621
 30
0.0
 11
1641.25075003338
 21
403.0698523178258
 31
0.0
  0
LINE
  5
794
330
792
100
AcDbEntity
  8
0
 62
     0
370
    -2
100
AcDbLine
 10
1559.25075003338
 20
381.0849033686205
 30
0.0
 11
1559.25075003338
 21
403.0698523178258
 31
0.0
  0
LINE
  5
795
330
792
100
AcDbEntity
  8
0
 62
     0
370
    -2
100
AcDbLine
 10
1641.07075003338
 20
402.8898523178257
 30
0.0
 11
1621.59075003338
 21
402.8898523178257
 31
0.0
  0
LINE
  5
796
330
792
100
AcDbEntity
  8
0
 62
     0
370
    -2
100
AcDbLine
 10
1559.43075003338
 20
402.8898523178257
 30
0.0
 11
1578.91075003338
 21
402.8898523178257
 31
0.0
  0
SOLID
  5
797
330
792
100
AcDbEntity
  8
0
 62
     0
100
AcDbTrace
 10
1641.07075003338
 20
402.9198523178257
 30
0.0
 11
1641.07075003338
 21
402.8598523178256
 31
0.0
 12
1641.25075003338
 22
402.8898523178257
 32
0.0
 13
1641.25075003338
 23
402.8898523178257
 33
0.0
  0
SOLID
  5
798
330
792
100
AcDbEntity
  8
0
 62
     0
100
AcDbTrace
 10
1559.43075003338
 20
402.9198523178257
 30
0.0
 11
1559.43075003338
 21
402.8598523178256
 31
0.0
 12
1559.25075003338
 22
402.8898523178257
 32
0.0
 13
1559.25075003338
 23
402.8898523178257
 33
0.0
  0
MTEXT
  5
799
330
792
100
AcDbEntity
  8
0
 62
     0
100
AcDbMText
 10
1600.25075003338
 20
402.8898523178257
 30
0.0
 40
15.0
 41
0.0
 46
0.0
 71
     5
 72
     1
  1
\A1;82.0
 73
     1
 44
1.0
  0
POINT
  5
79A
330
792
100
AcDbEntity
  8
Defpoints
 62
     0
100
AcDbPoint
 10
1641.25075003338
 20
381.0224033686209
 30
0.0
  0
POINT
  5
79B
330
792
100
AcDbEntity
  8
Defpoints
 62
     0
100
AcDbPoint
 10
1559.25075003338
 20
381.0224033686205
 30
0.0
  0
POINT
  5
79C
330
792
100
AcDbEntity
  8
Defpoints
 62
     0
100
AcDbPoint
 10
1559.25075003338
 20
402.8898523178257
 30
0.0
  0
ENDBLK
  5
79E
330
792
100
AcDbEntity
  8
0
100
AcDbBlockEnd
  0
BLOCK
  5
7AA
330
79F
100
AcDbEntity
  8
0
100
AcDbBlockBegin
  2
*D33
 70
     1
 10
0.0
 20
0.0
 30
0.0
  3
*D33
  1

  0
LINE
  5
7A0
330
79F
100
AcDbEntity
  8
0
 62
     0
370
    -2
100
AcDbLine
 10
1507.25075003338
 20
146.5589531110356
 30
0.0
 11
1507.25075003338
 21
61.28784800758953
 31
0.0
  0
LINE
  5
7A1
330
79F
100
AcDbEntity
  8
0
 62
     0
370
    -2
100
AcDbLine
 10
1983.25075003338
 20
146.5589531110356
 30
0.0
 11
1983.25075003338
 21
61.28784800758953
 31
0.0
  0
LINE
  5
7A2
330
79F
100
AcDbEntity
  8
0
 62
     0
370
    -2
100
AcDbLine
 10
1507.43075003338
 20
61.46784800758954
 30
0.0
 11
1716.41075003338
 21
61.46784800758954
 31
0.0
  0
LINE
  5
7A3
330
79F
100
AcDbEntity
  8
0
 62
     0
370
    -2
100
AcDbLine
 10
1983.07075003338
 20
61.46784800758954
 30
0.0
 11
1774.09075003338
 21
61.46784800758954
 31
0.0
  0
SOLID
  5
7A4
330
79F
100
AcDbEntity
  8
0
 62
     0
100
AcDbTrace
 10
1507.43075003338
 20
61.49784800758954
 30
0.0
 11
1507.43075003338
 21
61.43784800758954
 31
0.0
 12
1507.25075003338
 22
61.46784800758954
 32
0.0
 13
1507.25075003338
 23
61.46784800758954
 33
0.0
  0
SOLID
  5
7A5
330
79F
100
AcDbEntity
  8
0
 62
     0
100
AcDbTrace
 10
1983.07075003338
 20
61.49784800758954
 30
0.0
 11
1983.07075003338
 21
61.43784800758954
 31
0.0
 12
1983.25075003338
 22
61.46784800758954
 32
0.0
 13
1983.25075003338
 23
61.46784800758954
 33
0.0
  0
MTEXT
  5
7A6
330
79F
100
AcDbEntity
  8
0
 62
     0
100
AcDbMText
 10
1745.25075003338
 20
61.46784800758954
 30
0.0
 40
15.0
 41
0.0
 46
0.0
 71
     5
 72
     1
  1
\A1;476.0
 73
     1
 44
1.0
  0
POINT
  5
7A7
330
79F
100
AcDbEntity
  8
Defpoints
 62
     0
100
AcDbPoint
 10
1507.25075003338
 20
146.6214531110356
 30
0.0
  0
POINT
  5
7A8
330
79F
100
AcDbEntity
  8
Defpoints
 62
     0
100
AcDbPoint
 10
1983.25075003338
 20
146.6214531110356
 30
0.0
  0
POINT
  5
7A9
330
79F
100
AcDbEntity
  8
Defpoints
 62
     0
100
AcDbPoint
 10
1983.25075003338
 20
61.46784800758954
 30
0.0
  0
ENDBLK
  5
7AB
330
79F
100
AcDbEntity
  8
0
100
AcDbBlockEnd
  0
BLOCK
  5
7B7
330
7AC
100
AcDbEntity
  8
0
100
AcDbBlockBegin
  2
*D34
 70
     1
 10
0.0
 20
0.0
 30
0.0
  3
*D34
  1

  0
LINE
  5
7AD
330
7AC
100
AcDbEntity
  8
0
 62
     0
370
    -2
100
AcDbLine
 10
1844.418990004347
 20
96.30062360299351
 30
0.0
 11
2072.293959418386
 21
96.30062360299346
 31
0.0
  0
LINE
  5
7AE
330
7AC
100
AcDbEntity
  8
0
 62
     0
370
    -2
100
AcDbLine
 10
1849.31325003338
 20
845.3006236029933
 30
0.0
 11
2072.293959418386
 21
845.3006236029933
 31
0.0
  0
LINE
  5
7AF
330
7AC
100
AcDbEntity
  8
0
 62
     0
370
    -2
100
AcDbLine
 10
2072.113959418386
 20
96.48062360299348
 30
0.0
 11
2072.113959418386
 21
463.2106236029933
 31
0.0
  0
LINE
  5
7B0
330
7AC
100
AcDbEntity
  8
0
 62
     0
370
    -2
100
AcDbLine
 10
2072.113959418386
 20
845.1206236029932
 30
0.0
 11
2072.113959418386
 21
478.3906236029934
 31
0.0
  0
SOLID
  5
7B1
330
7AC
100
AcDbEntity
  8
0
 62
     0
100
AcDbTrace
 10
2072.083959418387
 20
96.48062360299348
 30
0.0
 11
2072.143959418387
 21
96.48062360299348
 31
0.0
 12
2072.113959418386
 22
96.30062360299346
 32
0.0
 13
2072.113959418386
 23
96.30062360299346
 33
0.0
  0
SOLID
  5
7B2
330
7AC
100
AcDbEntity
  8
0
 62
     0
100
AcDbTrace
 10
2072.083959418387
 20
845.1206236029932
 30
0.0
 11
2072.143959418387
 21
845.1206236029932
 31
0.0
 12
2072.113959418386
 22
845.3006236029933
 32
0.0
 13
2072.113959418386
 23
845.3006236029933
 33
0.0
  0
MTEXT
  5
7B3
330
7AC
100
AcDbEntity
  8
0
 62
     0
100
AcDbMText
 10
2072.113959418386
 20
470.8006236029937
 30
0.0
 40
15.0
 41
0.0
 46
0.0
 71
     5
 72
     1
  1
\A1;749.0
 73
     1
 44
1.0
  0
POINT
  5
7B4
330
7AC
100
AcDbEntity
  8
Defpoints
 62
     0
100
AcDbPoint
 10
1844.356490004347
 20
96.30062360299351
 30
0.0
  0
POINT
  5
7B5
330
7AC
100
AcDbEntity
  8
Defpoints
 62
     0
100
AcDbPoint
 10
1849.25075003338
 20
845.3006236029933
 30
0.0
  0
POINT
  5
7B6
330
7AC
100
AcDbEntity
  8
Defpoints
 62
     0
100
AcDbPoint
 10
2072.113959418386
 20
845.3006236029933
 30
0.0
  0
ENDBLK
  5
7B8
330
7AC
100
AcDbEntity
  8
0
100
AcDbBlockEnd
  0
BLOCK
  5
7D3
330
7D2
100
AcDbEntity
  8
0
100
AcDbBlockBegin
  2
*D35
 70
     1
 10
0.0
 20
0.0
 30
0.0
  3
*D35
  1

  0
LINE
  5
7D4
330
7D2
100
AcDbEntity
  8
0
 62
     0
370
    -2
100
AcDbLine
 10
1059.986007994086
 20
164.9385047696009
 30
0.0
 11
1059.986007994086
 21
168.4221670890885
 31
0.0
  0
LINE
  5
7D5
330
7D2
100
AcDbEntity
  8
0
 62
     0
370
    -2
100
AcDbLine
 10
1269.986007994086
 20
164.9385047696009
 30
0.0
 11
1269.986007994086
 21
168.4221670890885
 31
0.0
  0
LINE
  5
7D6
330
7D2
100
AcDbEntity
  8
0
 62
     0
370
    -2
100
AcDbLine
 10
1060.166007994086
 20
168.2421670890885
 30
0.0
 11
1139.896007994086
 21
168.2421670890885
 31
0.0
  0
LINE
  5
7D7
330
7D2
100
AcDbEntity
  8
0
 62
     0
370
    -2
100
AcDbLine
 10
1269.806007994086
 20
168.2421670890885
 30
0.0
 11
1190.076007994085
 21
168.2421670890885
 31
0.0
  0
SOLID
  5
7D8
330
7D2
100
AcDbEntity
  8
0
 62
     0
100
AcDbTrace
 10
1060.166007994086
 20
168.2721670890885
 30
0.0
 11
1060.166007994086
 21
168.2121670890885
 31
0.0
 12
1059.986007994086
 22
168.2421670890885
 32
0.0
 13
1059.986007994086
 23
168.2421670890885
 33
0.0
  0
SOLID
  5
7D9
330
7D2
100
AcDbEntity
  8
0
 62
     0
100
AcDbTrace
 10
1269.806007994086
 20
168.2721670890885
 30
0.0
 11
1269.806007994086
 21
168.2121670890885
 31
0.0
 12
1269.986007994086
 22
168.2421670890885
 32
0.0
 13
1269.986007994086
 23
168.2421670890885
 33
0.0
  0
MTEXT
  5
7DA
330
7D2
100
AcDbEntity
  8
0
 62
     0
100
AcDbMText
 10
1164.986007994086
 20
168.2421670890885
 30
0.0
 40
15.0
 41
0.0
 46
0.0
 71
     5
 72
     1
  1
\A1;210.0
 73
     1
 44
1.0
  0
POINT
  5
7DB
330
7D2
100
AcDbEntity
  8
Defpoints
 62
     0
100
AcDbPoint
 10
1059.986007994086
 20
164.8760047696009
 30
0.0
  0
POINT
  5
7DC
330
7D2
100
AcDbEntity
  8
Defpoints
 62
     0
100
AcDbPoint
 10
1269.986007994086
 20
164.8760047696009
 30
0.0
  0
POINT
  5
7DD
330
7D2
100
AcDbEntity
  8
Defpoints
 62
     0
100
AcDbPoint
 10
1269.986007994086
 20
168.2421670890885
 30
0.0
  0
ENDBLK
  5
7DE
330
7D2
100
AcDbEntity
  8
0
100
AcDbBlockEnd
  0
BLOCK
  5
7E0
330
7DF
100
AcDbEntity
  8
0
100
AcDbBlockBegin
  2
*D36
 70
     1
 10
0.0
 20
0.0
 30
0.0
  3
*D36
  1

  0
LINE
  5
7E1
330
7DF
100
AcDbEntity
  8
0
 62
     0
370
    -2
100
AcDbLine
 10
1240.006575009759
 20
326.3006236029935
 30
0.0
 11
1239.889075009759
 21
326.3006236029935
 31
0.0
  0
LINE
  5
7E2
330
7DF
100
AcDbEntity
  8
0
 62
     0
370
    -2
100
AcDbLine
 10
1240.006575009759
 20
116.3006236029935
 30
0.0
 11
1239.889075009759
 21
116.3006236029935
 31
0.0
  0
LINE
  5
7E3
330
7DF
100
AcDbEntity
  8
0
 62
     0
370
    -2
100
AcDbLine
 10
1240.069075009759
 20
326.1206236029935
 30
0.0
 11
1240.069075009759
 21
228.8906236029935
 31
0.0
  0
LINE
  5
7E4
330
7DF
100
AcDbEntity
  8
0
 62
     0
370
    -2
100
AcDbLine
 10
1240.069075009759
 20
116.4806236029935
 30
0.0
 11
1240.069075009759
 21
213.7106236029935
 31
0.0
  0
SOLID
  5
7E5
330
7DF
100
AcDbEntity
  8
0
 62
     0
100
AcDbTrace
 10
1240.039075009759
 20
326.1206236029935
 30
0.0
 11
1240.099075009759
 21
326.1206236029935
 31
0.0
 12
1240.069075009759
 22
326.3006236029935
 32
0.0
 13
1240.069075009759
 23
326.3006236029935
 33
0.0
  0
SOLID
  5
7E6
330
7DF
100
AcDbEntity
  8
0
 62
     0
100
AcDbTrace
 10
1240.039075009759
 20
116.4806236029935
 30
0.0
 11
1240.099075009759
 21
116.4806236029935
 31
0.0
 12
1240.069075009759
 22
116.3006236029935
 32
0.0
 13
1240.069075009759
 23
116.3006236029935
 33
0.0
  0
MTEXT
  5
7E7
330
7DF
100
AcDbEntity
  8
0
 62
     0
100
AcDbMText
 10
1240.069075009759
 20
221.3006236029937
 30
0.0
 40
15.0
 41
0.0
 46
0.0
 71
     5
 72
     1
  1
\A1;210.0
 73
     1
 44
1.0
  0
POINT
  5
7E8
330
7DF
100
AcDbEntity
  8
Defpoints
 62
     0
100
AcDbPoint
 10
1240.069075009759
 20
326.3006236029935
 30
0.0
  0
POINT
  5
7E9
330
7DF
100
AcDbEntity
  8
Defpoints
 62
     0
100
AcDbPoint
 10
1240.069075009759
 20
116.3006236029935
 30
0.0
  0
POINT
  5
7EA
330
7DF
100
AcDbEntity
  8
Defpoints
 62
     0
100
AcDbPoint
 10
1240.069075009759
 20
116.3006236029935
 30
0.0
  0
ENDBLK
  5
7EB
330
7DF
100
AcDbEntity
  8
0
100
AcDbBlockEnd
  0
BLOCK
  5
7ED
330
7EC
100
AcDbEntity
  8
0
100
AcDbBlockBegin
  2
*D37
 70
     1
 10
0.0
 20
0.0
 30
0.0
  3
*D37
  1

  0
LINE
  5
7EE
330
7EC
100
AcDbEntity
  8
0
 62
     0
370
    -2
100
AcDbLine
 10
1164.923507994086
 20
481.3006236029933
 30
0.0
 11
1150.943549853053
 21
481.3006236029933
 31
0.0
  0
LINE
  5
7EF
330
7EC
100
AcDbEntity
  8
0
 62
     0
370
    -2
100
AcDbLine
 10
1164.923507994086
 20
326.3006236029935
 30
0.0
 11
1150.943549853053
 21
326.3006236029935
 31
0.0
  0
LINE
  5
7F0
330
7EC
100
AcDbEntity
  8
0
 62
     0
370
    -2
100
AcDbLine
 10
1151.123549853053
 20
481.1206236029934
 30
0.0
 11
1151.123549853053
 21
411.3906236029934
 31
0.0
  0
LINE
  5
7F1
330
7EC
100
AcDbEntity
  8
0
 62
     0
370
    -2
100
AcDbLine
 10
1151.123549853053
 20
326.4806236029936
 30
0.0
 11
1151.123549853053
 21
396.2106236029936
 31
0.0
  0
SOLID
  5
7F2
330
7EC
100
AcDbEntity
  8
0
 62
     0
100
AcDbTrace
 10
1151.093549853054
 20
481.1206236029934
 30
0.0
 11
1151.153549853053
 21
481.1206236029934
 31
0.0
 12
1151.123549853053
 22
481.3006236029933
 32
0.0
 13
1151.123549853053
 23
481.3006236029933
 33
0.0
  0
SOLID
  5
7F3
330
7EC
100
AcDbEntity
  8
0
 62
     0
100
AcDbTrace
 10
1151.093549853054
 20
326.4806236029936
 30
0.0
 11
1151.153549853053
 21
326.4806236029936
 31
0.0
 12
1151.123549853053
 22
326.3006236029935
 32
0.0
 13
1151.123549853053
 23
326.3006236029935
 33
0.0
  0
MTEXT
  5
7F4
330
7EC
100
AcDbEntity
  8
0
 62
     0
100
AcDbMText
 10
1151.123549853053
 20
403.8006236029937
 30
0.0
 40
15.0
 41
0.0
 46
0.0
 71
     5
 72
     1
  1
\A1;155.0
 73
     1
 44
1.0
  0
POINT
  5
7F5
330
7EC
100
AcDbEntity
  8
Defpoints
 62
     0
100
AcDbPoint
 10
1164.986007994086
 20
481.3006236029933
 30
0.0
  0
POINT
  5
7F6
330
7EC
100
AcDbEntity
  8
Defpoints
 62
     0
100
AcDbPoint
 10
1164.986007994086
 20
326.3006236029935
 30
0.0
  0
POINT
  5
7F7
330
7EC
100
AcDbEntity
  8
Defpoints
 62
     0
100
AcDbPoint
 10
1151.123549853053
 20
326.3006236029935
 30
0.0
  0
ENDBLK
  5
7F8
330
7EC
100
AcDbEntity
  8
0
100
AcDbBlockEnd
  0
BLOCK
  5
7FA
330
7F9
100
AcDbEntity
  8
0
100
AcDbBlockBegin
  2
*D38
 70
     1
 10
0.0
 20
0.0
 30
0.0
  3
*D38
  1

  0
LINE
  5
7FB
330
7F9
100
AcDbEntity
  8
0
 62
     0
370
    -2
100
AcDbLine
 10
1269.986007994086
 20
586.2381236029935
 30
0.0
 11
1269.986007994086
 21
580.1969691744756
 31
0.0
  0
LINE
  5
7FC
330
7F9
100
AcDbEntity
  8
0
 62
     0
370
    -2
100
AcDbLine
 10
1344.986007994086
 20
586.2381236029935
 30
0.0
 11
1344.986007994086
 21
580.1969691744756
 31
0.0
  0
LINE
  5
7FD
330
7F9
100
AcDbEntity
  8
0
 62
     0
370
    -2
100
AcDbLine
 10
1270.166007994086
 20
580.3769691744754
 30
0.0
 11
1286.146007994086
 21
580.3769691744754
 31
0.0
  0
LINE
  5
7FE
330
7F9
100
AcDbEntity
  8
0
 62
     0
370
    -2
100
AcDbLine
 10
1344.806007994086
 20
580.3769691744754
 30
0.0
 11
1328.826007994086
 21
580.3769691744754
 31
0.0
  0
SOLID
  5
7FF
330
7F9
100
AcDbEntity
  8
0
 62
     0
100
AcDbTrace
 10
1270.166007994086
 20
580.4069691744755
 30
0.0
 11
1270.166007994086
 21
580.3469691744756
 31
0.0
 12
1269.986007994086
 22
580.3769691744754
 32
0.0
 13
1269.986007994086
 23
580.3769691744754
 33
0.0
  0
SOLID
  5
800
330
7F9
100
AcDbEntity
  8
0
 62
     0
100
AcDbTrace
 10
1344.806007994086
 20
580.4069691744755
 30
0.0
 11
1344.806007994086
 21
580.3469691744756
 31
0.0
 12
1344.986007994086
 22
580.3769691744754
 32
0.0
 13
1344.986007994086
 23
580.3769691744754
 33
0.0
  0
MTEXT
  5
801
330
7F9
100
AcDbEntity
  8
0
 62
     0
100
AcDbMText
 10
1307.486007994086
 20
580.3769691744754
 30
0.0
 40
15.0
 41
0.0
 46
0.0
 71
     5
 72
     1
  1
\A1;75.0
 73
     1
 44
1.0
  0
POINT
  5
802
330
7F9
100
AcDbEntity
  8
Defpoints
 62
     0
100
AcDbPoint
 10
1269.986007994086
 20
586.3006236029932
 30
0.0
  0
POINT
  5
803
330
7F9
100
AcDbEntity
  8
Defpoints
 62
     0
100
AcDbPoint
 10
1344.986007994086
 20
586.3006236029932
 30
0.0
  0
POINT
  5
804
330
7F9
100
AcDbEntity
  8
Defpoints
 62
     0
100
AcDbPoint
 10
1344.986007994086
 20
580.3769691744754
 30
0.0
  0
ENDBLK
  5
805
330
7F9
100
AcDbEntity
  8
0
100
AcDbBlockEnd
  0
BLOCK
  5
807
330
806
100
AcDbEntity
  8
0
100
AcDbBlockBegin
  2
*D39
 70
     1
 10
0.0
 20
0.0
 30
0.0
  3
*D39
  1

  0
LINE
  5
808
330
806
100
AcDbEntity
  8
0
 62
     0
370
    -2
100
AcDbLine
 10
1269.986007994086
 20
239.4571638321083
 30
0.0
 11
1269.986007994086
 21
241.2024830580912
 31
0.0
  0
LINE
  5
809
330
806
100
AcDbEntity
  8
0
 62
     0
370
    -2
100
AcDbLine
 10
1344.986007994086
 20
239.4571638321083
 30
0.0
 11
1344.986007994086
 21
241.2024830580912
 31
0.0
  0
LINE
  5
80A
330
806
100
AcDbEntity
  8
0
 62
     0
370
    -2
100
AcDbLine
 10
1270.166007994086
 20
241.0224830580912
 30
0.0
 11
1286.146007994086
 21
241.0224830580912
 31
0.0
  0
LINE
  5
80B
330
806
100
AcDbEntity
  8
0
 62
     0
370
    -2
100
AcDbLine
 10
1344.806007994086
 20
241.0224830580912
 30
0.0
 11
1328.826007994086
 21
241.0224830580912
 31
0.0
  0
SOLID
  5
80C
330
806
100
AcDbEntity
  8
0
 62
     0
100
AcDbTrace
 10
1270.166007994086
 20
241.0524830580912
 30
0.0
 11
1270.166007994086
 21
240.9924830580912
 31
0.0
 12
1269.986007994086
 22
241.0224830580912
 32
0.0
 13
1269.986007994086
 23
241.0224830580912
 33
0.0
  0
SOLID
  5
80D
330
806
100
AcDbEntity
  8
0
 62
     0
100
AcDbTrace
 10
1344.806007994086
 20
241.0524830580912
 30
0.0
 11
1344.806007994086
 21
240.9924830580912
 31
0.0
 12
1344.986007994086
 22
241.0224830580912
 32
0.0
 13
1344.986007994086
 23
241.0224830580912
 33
0.0
  0
MTEXT
  5
80E
330
806
100
AcDbEntity
  8
0
 62
     0
100
AcDbMText
 10
1307.486007994086
 20
241.0224830580912
 30
0.0
 40
15.0
 41
0.0
 46
0.0
 71
     5
 72
     1
  1
\A1;75.0
 73
     1
 44
1.0
  0
POINT
  5
80F
330
806
100
AcDbEntity
  8
Defpoints
 62
     0
100
AcDbPoint
 10
1269.986007994086
 20
239.3946638321083
 30
0.0
  0
POINT
  5
810
330
806
100
AcDbEntity
  8
Defpoints
 62
     0
100
AcDbPoint
 10
1344.986007994086
 20
239.3946638321083
 30
0.0
  0
POINT
  5
811
330
806
100
AcDbEntity
  8
Defpoints
 62
     0
100
AcDbPoint
 10
1344.986007994086
 20
241.0224830580912
 30
0.0
  0
ENDBLK
  5
812
330
806
100
AcDbEntity
  8
0
100
AcDbBlockEnd
  0
BLOCK
  5
814
330
813
100
AcDbEntity
  8
0
100
AcDbBlockBegin
  2
*D40
 70
     1
 10
0.0
 20
0.0
 30
0.0
  3
*D40
  1

  0
LINE
  5
815
330
813
100
AcDbEntity
  8
0
 62
     0
370
    -2
100
AcDbLine
 10
1268.986007994086
 20
381.084903368621
 30
0.0
 11
1268.986007994086
 21
403.0698523178258
 31
0.0
  0
LINE
  5
816
330
813
100
AcDbEntity
  8
0
 62
     0
370
    -2
100
AcDbLine
 10
1350.986007994086
 20
381.0849033686205
 30
0.0
 11
1350.986007994086
 21
403.0698523178258
 31
0.0
  0
LINE
  5
817
330
813
100
AcDbEntity
  8
0
 62
     0
370
    -2
100
AcDbLine
 10
1269.166007994086
 20
402.8898523178257
 30
0.0
 11
1288.646007994086
 21
402.8898523178257
 31
0.0
  0
LINE
  5
818
330
813
100
AcDbEntity
  8
0
 62
     0
370
    -2
100
AcDbLine
 10
1350.806007994086
 20
402.8898523178257
 30
0.0
 11
1331.326007994086
 21
402.8898523178257
 31
0.0
  0
SOLID
  5
819
330
813
100
AcDbEntity
  8
0
 62
     0
100
AcDbTrace
 10
1269.166007994086
 20
402.9198523178257
 30
0.0
 11
1269.166007994086
 21
402.8598523178256
 31
0.0
 12
1268.986007994086
 22
402.8898523178257
 32
0.0
 13
1268.986007994086
 23
402.8898523178257
 33
0.0
  0
SOLID
  5
81A
330
813
100
AcDbEntity
  8
0
 62
     0
100
AcDbTrace
 10
1350.806007994086
 20
402.9198523178257
 30
0.0
 11
1350.806007994086
 21
402.8598523178256
 31
0.0
 12
1350.986007994086
 22
402.8898523178257
 32
0.0
 13
1350.986007994086
 23
402.8898523178257
 33
0.0
  0
MTEXT
  5
81B
330
813
100
AcDbEntity
  8
0
 62
     0
100
AcDbMText
 10
1309.986007994086
 20
402.8898523178257
 30
0.0
 40
15.0
 41
0.0
 46
0.0
 71
     5
 72
     1
  1
\A1;82.0
 73
     1
 44
1.0
  0
POINT
  5
81C
330
813
100
AcDbEntity
  8
Defpoints
 62
     0
100
AcDbPoint
 10
1268.986007994086
 20
381.0224033686209
 30
0.0
  0
POINT
  5
81D
330
813
100
AcDbEntity
  8
Defpoints
 62
     0
100
AcDbPoint
 10
1350.986007994086
 20
381.0224033686205
 30
0.0
  0
POINT
  5
81E
330
813
100
AcDbEntity
  8
Defpoints
 62
     0
100
AcDbPoint
 10
1350.986007994086
 20
402.8898523178257
 30
0.0
  0
ENDBLK
  5
81F
330
813
100
AcDbEntity
  8
0
100
AcDbBlockEnd
  0
BLOCK
  5
821
330
820
100
AcDbEntity
  8
0
100
AcDbBlockBegin
  2
*D41
 70
     1
 10
0.0
 20
0.0
 30
0.0
  3
*D41
  1

  0
LINE
  5
822
330
820
100
AcDbEntity
  8
0
 62
     0
370
    -2
100
AcDbLine
 10
1059.986007994086
 20
586.2381236029935
 30
0.0
 11
1059.986007994086
 21
580.1969691744756
 31
0.0
  0
LINE
  5
823
330
820
100
AcDbEntity
  8
0
 62
     0
370
    -2
100
AcDbLine
 10
984.9860079940857
 20
586.2381236029935
 30
0.0
 11
984.9860079940857
 21
580.1969691744756
 31
0.0
  0
LINE
  5
824
330
820
100
AcDbEntity
  8
0
 62
     0
370
    -2
100
AcDbLine
 10
1059.806007994086
 20
580.3769691744754
 30
0.0
 11
1043.826007994085
 21
580.3769691744754
 31
0.0
  0
LINE
  5
825
330
820
100
AcDbEntity
  8
0
 62
     0
370
    -2
100
AcDbLine
 10
985.1660079940856
 20
580.3769691744754
 30
0.0
 11
1001.146007994085
 21
580.3769691744754
 31
0.0
  0
SOLID
  5
826
330
820
100
AcDbEntity
  8
0
 62
     0
100
AcDbTrace
 10
1059.806007994086
 20
580.4069691744755
 30
0.0
 11
1059.806007994086
 21
580.3469691744756
 31
0.0
 12
1059.986007994086
 22
580.3769691744754
 32
0.0
 13
1059.986007994086
 23
580.3769691744754
 33
0.0
  0
SOLID
  5
827
330
820
100
AcDbEntity
  8
0
 62
     0
100
AcDbTrace
 10
985.1660079940856
 20
580.4069691744755
 30
0.0
 11
985.1660079940856
 21
580.3469691744756
 31
0.0
 12
984.9860079940857
 22
580.3769691744754
 32
0.0
 13
984.9860079940857
 23
580.3769691744754
 33
0.0
  0
MTEXT
  5
828
330
820
100
AcDbEntity
  8
0
 62
     0
100
AcDbMText
 10
1022.486007994086
 20
580.3769691744754
 30
0.0
 40
15.0
 41
0.0
 46
0.0
 71
     5
 72
     1
  1
\A1;75.0
 73
     1
 44
1.0
  0
POINT
  5
829
330
820
100
AcDbEntity
  8
Defpoints
 62
     0
100
AcDbPoint
 10
1059.986007994086
 20
586.3006236029932
 30
0.0
  0
POINT
  5
82A
330
820
100
AcDbEntity
  8
Defpoints
 62
     0
100
AcDbPoint
 10
984.9860079940857
 20
586.3006236029932
 30
0.0
  0
POINT
  5
82B
330
820
100
AcDbEntity
  8
Defpoints
 62
     0
100
AcDbPoint
 10
984.9860079940857
 20
580.3769691744754
 30
0.0
  0
ENDBLK
  5
82C
330
820
100
AcDbEntity
  8
0
100
AcDbBlockEnd
  0
BLOCK
  5
82E
330
82D
100
AcDbEntity
  8
0
100
AcDbBlockBegin
  2
*D42
 70
     1
 10
0.0
 20
0.0
 30
0.0
  3
*D42
  1

  0
LINE
  5
82F
330
82D
100
AcDbEntity
  8
0
 62
     0
370
    -2
100
AcDbLine
 10
1059.986007994086
 20
239.4571638321083
 30
0.0
 11
1059.986007994086
 21
241.2024830580912
 31
0.0
  0
LINE
  5
830
330
82D
100
AcDbEntity
  8
0
 62
     0
370
    -2
100
AcDbLine
 10
984.9860079940857
 20
239.4571638321083
 30
0.0
 11
984.9860079940857
 21
241.2024830580912
 31
0.0
  0
LINE
  5
831
330
82D
100
AcDbEntity
  8
0
 62
     0
370
    -2
100
AcDbLine
 10
1059.806007994086
 20
241.0224830580912
 30
0.0
 11
1043.826007994086
 21
241.0224830580912
 31
0.0
  0
LINE
  5
832
330
82D
100
AcDbEntity
  8
0
 62
     0
370
    -2
100
AcDbLine
 10
985.1660079940856
 20
241.0224830580912
 30
0.0
 11
1001.146007994086
 21
241.0224830580912
 31
0.0
  0
SOLID
  5
833
330
82D
100
AcDbEntity
  8
0
 62
     0
100
AcDbTrace
 10
1059.806007994086
 20
241.0524830580912
 30
0.0
 11
1059.806007994086
 21
240.9924830580912
 31
0.0
 12
1059.986007994086
 22
241.0224830580912
 32
0.0
 13
1059.986007994086
 23
241.0224830580912
 33
0.0
  0
SOLID
  5
834
330
82D
100
AcDbEntity
  8
0
 62
     0
100
AcDbTrace
 10
985.1660079940856
 20
241.0524830580912
 30
0.0
 11
985.1660079940856
 21
240.9924830580912
 31
0.0
 12
984.9860079940857
 22
241.0224830580912
 32
0.0
 13
984.9860079940857
 23
241.0224830580912
 33
0.0
  0
MTEXT
  5
835
330
82D
100
AcDbEntity
  8
0
 62
     0
100
AcDbMText
 10
1022.486007994086
 20
241.0224830580912
 30
0.0
 40
15.0
 41
0.0
 46
0.0
 71
     5
 72
     1
  1
\A1;75.0
 73
     1
 44
1.0
  0
POINT
  5
836
330
82D
100
AcDbEntity
  8
Defpoints
 62
     0
100
AcDbPoint
 10
1059.986007994086
 20
239.3946638321083
 30
0.0
  0
POINT
  5
837
330
82D
100
AcDbEntity
  8
Defpoints
 62
     0
100
AcDbPoint
 10
984.9860079940857
 20
239.3946638321083
 30
0.0
  0
POINT
  5
838
330
82D
100
AcDbEntity
  8
Defpoints
 62
     0
100
AcDbPoint
 10
984.9860079940857
 20
241.0224830580912
 30
0.0
  0
ENDBLK
  5
839
330
82D
100
AcDbEntity
  8
0
100
AcDbBlockEnd
  0
BLOCK
  5
83B
330
83A
100
AcDbEntity
  8
0
100
AcDbBlockBegin
  2
*D43
 70
     1
 10
0.0
 20
0.0
 30
0.0
  3
*D43
  1

  0
LINE
  5
83C
330
83A
100
AcDbEntity
  8
0
 62
     0
370
    -2
100
AcDbLine
 10
1060.986007994086
 20
381.084903368621
 30
0.0
 11
1060.986007994086
 21
403.0698523178258
 31
0.0
  0
LINE
  5
83D
330
83A
100
AcDbEntity
  8
0
 62
     0
370
    -2
100
AcDbLine
 10
978.9860079940856
 20
381.0849033686205
 30
0.0
 11
978.9860079940856
 21
403.0698523178258
 31
0.0
  0
LINE
  5
83E
330
83A
100
AcDbEntity
  8
0
 62
     0
370
    -2
100
AcDbLine
 10
1060.806007994085
 20
402.8898523178257
 30
0.0
 11
1041.326007994086
 21
402.8898523178257
 31
0.0
  0
LINE
  5
83F
330
83A
100
AcDbEntity
  8
0
 62
     0
370
    -2
100
AcDbLine
 10
979.1660079940857
 20
402.8898523178257
 30
0.0
 11
998.6460079940856
 21
402.8898523178257
 31
0.0
  0
SOLID
  5
840
330
83A
100
AcDbEntity
  8
0
 62
     0
100
AcDbTrace
 10
1060.806007994085
 20
402.9198523178257
 30
0.0
 11
1060.806007994085
 21
402.8598523178256
 31
0.0
 12
1060.986007994086
 22
402.8898523178257
 32
0.0
 13
1060.986007994086
 23
402.8898523178257
 33
0.0
  0
SOLID
  5
841
330
83A
100
AcDbEntity
  8
0
 62
     0
100
AcDbTrace
 10
979.1660079940857
 20
402.9198523178257
 30
0.0
 11
979.1660079940857
 21
402.8598523178256
 31
0.0
 12
978.9860079940856
 22
402.8898523178257
 32
0.0
 13
978.9860079940856
 23
402.8898523178257
 33
0.0
  0
MTEXT
  5
842
330
83A
100
AcDbEntity
  8
0
 62
     0
100
AcDbMText
 10
1019.986007994086
 20
402.8898523178257
 30
0.0
 40
15.0
 41
0.0
 46
0.0
 71
     5
 72
     1
  1
\A1;82.0
 73
     1
 44
1.0
  0
POINT
  5
843
330
83A
100
AcDbEntity
  8
Defpoints
 62
     0
100
AcDbPoint
 10
1060.986007994086
 20
381.0224033686209
 30
0.0
  0
POINT
  5
844
330
83A
100
AcDbEntity
  8
Defpoints
 62
     0
100
AcDbPoint
 10
978.9860079940856
 20
381.0224033686205
 30
0.0
  0
POINT
  5
845
330
83A
100
AcDbEntity
  8
Defpoints
 62
     0
100
AcDbPoint
 10
978.9860079940856
 20
402.8898523178257
 30
0.0
  0
ENDBLK
  5
846
330
83A
100
AcDbEntity
  8
0
100
AcDbBlockEnd
  0
BLOCK
  5
848
330
847
100
AcDbEntity
  8
0
100
AcDbBlockBegin
  2
*D44
 70
     1
 10
0.0
 20
0.0
 30
0.0
  3
*D44
  1

  0
LINE
  5
849
330
847
100
AcDbEntity
  8
0
 62
     0
370
    -2
100
AcDbLine
 10
926.9860079940857
 20
146.5589531110356
 30
0.0
 11
926.9860079940857
 21
61.28784800758953
 31
0.0
  0
LINE
  5
84A
330
847
100
AcDbEntity
  8
0
 62
     0
370
    -2
100
AcDbLine
 10
1402.986007994086
 20
146.5589531110356
 30
0.0
 11
1402.986007994086
 21
61.28784800758953
 31
0.0
  0
LINE
  5
84B
330
847
100
AcDbEntity
  8
0
 62
     0
370
    -2
100
AcDbLine
 10
927.1660079940856
 20
61.46784800758954
 30
0.0
 11
1136.146007994086
 21
61.46784800758954
 31
0.0
  0
LINE
  5
84C
330
847
100
AcDbEntity
  8
0
 62
     0
370
    -2
100
AcDbLine
 10
1402.806007994086
 20
61.46784800758954
 30
0.0
 11
1193.826007994086
 21
61.46784800758954
 31
0.0
  0
SOLID
  5
84D
330
847
100
AcDbEntity
  8
0
 62
     0
100
AcDbTrace
 10
927.1660079940856
 20
61.49784800758954
 30
0.0
 11
927.1660079940856
 21
61.43784800758954
 31
0.0
 12
926.9860079940857
 22
61.46784800758954
 32
0.0
 13
926.9860079940857
 23
61.46784800758954
 33
0.0
  0
SOLID
  5
84E
330
847
100
AcDbEntity
  8
0
 62
     0
100
AcDbTrace
 10
1402.806007994086
 20
61.49784800758954
 30
0.0
 11
1402.806007994086
 21
61.43784800758954
 31
0.0
 12
1402.986007994086
 22
61.46784800758954
 32
0.0
 13
1402.986007994086
 23
61.46784800758954
 33
0.0
  0
MTEXT
  5
84F
330
847
100
AcDbEntity
  8
0
 62
     0
100
AcDbMText
 10
1164.986007994086
 20
61.46784800758954
 30
0.0
 40
15.0
 41
0.0
 46
0.0
 71
     5
 72
     1
  1
\A1;476.0
 73
     1
 44
1.0
  0
POINT
  5
850
330
847
100
AcDbEntity
  8
Defpoints
 62
     0
100
AcDbPoint
 10
926.9860079940857
 20
146.6214531110356
 30
0.0
  0
POINT
  5
851
330
847
100
AcDbEntity
  8
Defpoints
 62
     0
100
AcDbPoint
 10
1402.986007994086
 20
146.6214531110356
 30
0.0
  0
POINT
  5
852
330
847
100
AcDbEntity
  8
Defpoints
 62
     0
100
AcDbPoint
 10
1402.986007994086
 20
61.46784800758954
 30
0.0
  0
ENDBLK
  5
853
330
847
100
AcDbEntity
  8
0
100
AcDbBlockEnd
  0
BLOCK
  5
855
330
854
100
AcDbEntity
  8
0
100
AcDbBlockBegin
  2
*D45
 70
     1
 10
0.0
 20
0.0
 30
0.0
  3
*D45
  1

  0
LINE
  5
856
330
854
100
AcDbEntity
  8
0
 62
     0
370
    -2
100
AcDbLine
 10
1264.154247965053
 20
96.30062360299351
 30
0.0
 11
1492.029217379092
 21
96.30062360299346
 31
0.0
  0
LINE
  5
857
330
854
100
AcDbEntity
  8
0
 62
     0
370
    -2
100
AcDbLine
 10
1269.048507994086
 20
845.3006236029933
 30
0.0
 11
1492.029217379092
 21
845.3006236029931
 31
0.0
  0
LINE
  5
858
330
854
100
AcDbEntity
  8
0
 62
     0
370
    -2
100
AcDbLine
 10
1491.849217379092
 20
96.48062360299348
 30
0.0
 11
1491.849217379092
 21
463.2106236029933
 31
0.0
  0
LINE
  5
859
330
854
100
AcDbEntity
  8
0
 62
     0
370
    -2
100
AcDbLine
 10
1491.849217379092
 20
845.1206236029932
 30
0.0
 11
1491.849217379092
 21
478.3906236029933
 31
0.0
  0
SOLID
  5
85A
330
854
100
AcDbEntity
  8
0
 62
     0
100
AcDbTrace
 10
1491.819217379092
 20
96.48062360299348
 30
0.0
 11
1491.879217379092
 21
96.48062360299348
 31
0.0
 12
1491.849217379092
 22
96.30062360299346
 32
0.0
 13
1491.849217379092
 23
96.30062360299346
 33
0.0
  0
SOLID
  5
85B
330
854
100
AcDbEntity
  8
0
 62
     0
100
AcDbTrace
 10
1491.819217379092
 20
845.1206236029932
 30
0.0
 11
1491.879217379092
 21
845.1206236029932
 31
0.0
 12
1491.849217379092
 22
845.3006236029931
 32
0.0
 13
1491.849217379092
 23
845.3006236029931
 33
0.0
  0
MTEXT
  5
85C
330
854
100
AcDbEntity
  8
0
 62
     0
100
AcDbMText
 10
1491.849217379092
 20
470.8006236029936
 30
0.0
 40
15.0
 41
0.0
 46
0.0
 71
     5
 72
     1
  1
\A1;749.0
 73
     1
 44
1.0
  0
POINT
  5
85D
330
854
100
AcDbEntity
  8
Defpoints
 62
     0
100
AcDbPoint
 10
1264.091747965053
 20
96.30062360299351
 30
0.0
  0
POINT
  5
85E
330
854
100
AcDbEntity
  8
Defpoints
 62
     0
100
AcDbPoint
 10
1268.986007994086
 20
845.3006236029933
 30
0.0
  0
POINT
  5
85F
330
854
100
AcDbEntity
  8
Defpoints
 62
     0
100
AcDbPoint
 10
1491.849217379092
 20
845.3006236029931
 30
0.0
  0
ENDBLK
  5
860
330
854
100
AcDbEntity
  8
0
100
AcDbBlockEnd
  0
BLOCK
  5
90A
330
861
100
AcDbEntity
  8
0
100
AcDbBlockBegin
  2
A$C7FA962DC
 70
     0
 10
0.0
 20
0.0
 30
0.0
  3
A$C7FA962DC
  1

  0
LINE
  5
862
102
{ACAD_REACTORS
330
8B7
102
}
330
861
100
AcDbEntity
  8
Defpoints
100
AcDbLine
 10
134.0000022444097
 20
139.5022588556601
 30
0.0
 11
341.9647260639995
 21
139.5022588556601
 31
0.0
  0
LINE
  5
863
330
861
100
AcDbEntity
  8
_U+56FE_U+5C42 1
100
AcDbLine
 10
139.3589860930324
 20
119.5022588556601
 30
0.0
 11
337.1057422153772
 21
119.5022588556601
 31
0.0
  0
LINE
  5
864
102
{ACAD_REACTORS
330
8C0
102
}
330
861
100
AcDbEntity
  8
Defpoints
100
AcDbLine
 10
343.0000022444096
 20
140.5022588556601
 30
0.0
 11
343.0000022444096
 21
348.5022588556601
 31
0.0
  0
LINE
  5
865
102
{ACAD_REACTORS
330
8C0
102
}
330
861
100
AcDbEntity
  8
_U+56FE_U+5C42 1
100
AcDbLine
 10
418.0000022444096
 20
214.5022588556601
 30
0.0
 11
418.0000022444096
 21
274.5022588556601
 31
0.0
  0
LINE
  5
866
330
861
100
AcDbEntity
  8
Defpoints
100
AcDbLine
 10
430.0000022444096
 20
214.5022588556601
 30
0.0
 11
430.0000022444096
 21
274.5022588556601
 31
0.0
  0
LINE
  5
867
102
{ACAD_REACTORS
330
904
102
}
330
861
100
AcDbEntity
  8
_U+56FE_U+5C42 1
100
AcDbLine
 10
476.0000022444096
 20
152.5022588556601
 30
0.0
 11
476.0000022444096
 21
336.50225885566
 31
0.0
  0
ARC
  5
868
330
861
100
AcDbEntity
  8
_U+56FE_U+5C42 1
100
AcDbCircle
 10
464.0000022444096
 20
152.5022588556601
 30
0.0
 40
12.0
100
AcDbArc
 50
270.0
 51
0.0
  0
LINE
  5
869
102
{ACAD_REACTORS
330
8B7
330
8BA
102
}
330
861
100
AcDbEntity
  8
Defpoints
100
AcDbLine
 10
342.0000022444096
 20
349.5022588556601
 30
0.0
 11
134.0000022444097
 21
349.5022588556601
 31
0.0
  0
LINE
  5
86A
102
{ACAD_REACTORS
330
8BA
102
}
330
861
100
AcDbEntity
  8
Defpoints
100
AcDbLine
 10
342.0000022444096
 20
504.5022588556601
 30
0.0
 11
134.0000022444097
 21
504.5022588556601
 31
0.0
  0
LINE
  5
86B
330
861
100
AcDbEntity
  8
Defpoints
100
AcDbLine
 10
342.0000022444096
 20
714.5022588556598
 30
0.0
 11
134.0000022444097
 21
714.5022588556599
 31
0.0
  0
LINE
  5
86C
330
861
100
AcDbEntity
  8
_U+56FE_U+5C42 1
100
AcDbLine
 10
342.0000022444096
 20
868.50225885566
 30
0.0
 11
134.0000022444097
 21
868.50225885566
 31
0.0
  0
LINE
  5
86D
102
{ACAD_REACTORS
330
8C3
102
}
330
861
100
AcDbEntity
  8
Defpoints
100
AcDbLine
 10
342.0000022444096
 20
349.5022588556601
 30
0.0
 11
342.0000022444096
 21
504.5022588556601
 31
0.0
  0
LINE
  5
86E
102
{ACAD_REACTORS
330
8C3
102
}
330
861
100
AcDbEntity
  8
_U+56FE_U+5C42 1
100
AcDbLine
 10
424.0000022444096
 20
368.147328709003
 30
0.0
 11
424.0000022444101
 21
485.8571890023171
 31
0.0
  0
ARC
  5
86F
330
861
100
AcDbEntity
  8
_U+56FE_U+5C42 1
100
AcDbCircle
 10
416.0000022444096
 20
368.147328709003
 30
0.0
 40
8.0
100
AcDbArc
 50
279.9999999999986
 51
359.9999999999998
  0
LINE
  5
870
102
{ACAD_REACTORS
330
8BD
102
}
330
861
100
AcDbEntity
  8
Defpoints
100
AcDbLine
 10
343.0000022444096
 20
505.5022588556596
 30
0.0
 11
343.0000022444096
 21
713.5022588556604
 31
0.0
  0
LINE
  5
871
330
861
100
AcDbEntity
  8
Defpoints
100
AcDbLine
 10
342.0000022444096
 20
714.5022588556599
 30
0.0
 11
342.0000022444096
 21
868.5022588556597
 31
0.0
  0
LINE
  5
872
330
861
100
AcDbEntity
  8
_U+56FE_U+5C42 1
100
AcDbLine
 10
343.0000022444096
 20
350.5022588556601
 30
0.0
 11
362.0000022444101
 21
350.5022588556601
 31
0.0
  0
LINE
  5
873
102
{ACAD_REACTORS
330
907
102
}
330
861
100
AcDbEntity
  8
_U+56FE_U+5C42 1
100
AcDbLine
 10
342.0340764181208
 20
139.7610779007626
 30
0.0
 11
337.1057422153772
 21
119.5022588556601
 31
0.0
  0
LINE
  5
874
330
861
100
AcDbEntity
  8
_U+56FE_U+5C42 1
100
AcDbLine
 10
343.0000022444096
 20
348.5022588556601
 30
0.0
 11
464.0000022444096
 21
348.5022588556601
 31
0.0
  0
ARC
  5
875
330
861
100
AcDbEntity
  8
_U+56FE_U+5C42 1
100
AcDbCircle
 10
464.0000022444096
 20
336.50225885566
 30
0.0
 40
12.0
100
AcDbArc
 50
0.0
 51
90.0
  0
ARC
  5
876
330
861
100
AcDbEntity
  8
_U+56FE_U+5C42 1
100
AcDbCircle
 10
343.0000022444096
 20
349.5022588556602
 30
0.0
 40
0.9999999999998667
100
AcDbArc
 50
90.0
 51
270.0
  0
ARC
  5
877
330
861
100
AcDbEntity
  8
_U+56FE_U+5C42 1
100
AcDbCircle
 10
343.0000022444096
 20
504.5022588556598
 30
0.0
 40
0.9999999999998667
100
AcDbArc
 50
90.0
 51
270.0
  0
LINE
  5
878
330
861
100
AcDbEntity
  8
_U+56FE_U+5C42 1
100
AcDbLine
 10
362.0000022444096
 20
350.5022588556601
 30
0.0
 11
417.3891876657453
 21
360.2688666849055
 31
0.0
  0
ARC
  5
879
330
861
100
AcDbEntity
  8
_U+56FE_U+5C42 1
100
AcDbCircle
 10
416.0000022444096
 20
485.8571890023171
 30
0.0
 40
8.0
100
AcDbArc
 50
0.0
 51
80.00000000000147
  0
LINE
  5
87A
330
861
100
AcDbEntity
  8
_U+56FE_U+5C42 1
100
AcDbLine
 10
343.0000022444096
 20
503.5022588556598
 30
0.0
 11
362.0000022444101
 21
503.5022588556598
 31
0.0
  0
ARC
  5
87B
330
861
100
AcDbEntity
  8
_U+56FE_U+5C42 1
100
AcDbCircle
 10
343.0000022444096
 20
504.5022588556598
 30
0.0
 40
0.9999999999998667
100
AcDbArc
 50
90.0
 51
270.0
  0
LINE
  5
87C
330
861
100
AcDbEntity
  8
_U+56FE_U+5C42 1
100
AcDbLine
 10
362.0000022444096
 20
503.5022588556598
 30
0.0
 11
417.3891876657453
 21
493.7356510264144
 31
0.0
  0
LINE
  5
87D
330
861
100
AcDbEntity
  8
_U+56FE_U+5C42 1
100
AcDbLine
 10
343.0000022444096
 20
140.5022588556601
 30
0.0
 11
464.0000022444096
 21
140.5022588556601
 31
0.0
  0
LINE
  5
87E
330
861
100
AcDbEntity
  8
Defpoints
100
AcDbLine
 10
343.0000022444096
 20
713.5022588556604
 30
0.0
 11
343.0000022444096
 21
505.5022588556599
 31
0.0
  0
LINE
  5
87F
330
861
100
AcDbEntity
  8
_U+56FE_U+5C42 1
100
AcDbLine
 10
418.0000022444096
 20
681.5022588556601
 30
0.0
 11
418.0000022444096
 21
639.5022588556598
 31
0.0
  0
ARC
  5
880
330
861
100
AcDbEntity
  8
_U+56FE_U+5C42 1
100
AcDbCircle
 10
386.0000022444097
 20
681.5022588556601
 30
0.0
 40
32.0
100
AcDbArc
 50
0.0
 51
90.0
  0
LINE
  5
881
330
861
100
AcDbEntity
  8
_U+56FE_U+5C42 1
100
AcDbLine
 10
418.0000022444096
 20
579.5022588556601
 30
0.0
 11
418.0000022444096
 21
537.50225885566
 31
0.0
  0
ARC
  5
882
330
861
100
AcDbEntity
  8
_U+56FE_U+5C42 1
100
AcDbCircle
 10
386.0000022444097
 20
537.50225885566
 30
0.0
 40
32.0
100
AcDbArc
 50
270.0
 51
0.0
  0
LINE
  5
883
330
861
100
AcDbEntity
  8
_U+56FE_U+5C42 1
100
AcDbLine
 10
438.0000022444098
 20
629.5022588556601
 30
0.0
 11
438.0000022444098
 21
589.5022588556598
 31
0.0
  0
ARC
  5
884
330
861
100
AcDbEntity
  8
_U+56FE_U+5C42 1
100
AcDbCircle
 10
428.0000022444101
 20
629.5022588556601
 30
0.0
 40
10.0
100
AcDbArc
 50
0.0
 51
90.0
  0
ARC
  5
885
330
861
100
AcDbEntity
  8
_U+56FE_U+5C42 1
100
AcDbCircle
 10
416.0000022444096
 20
485.8571890023171
 30
0.0
 40
8.0
100
AcDbArc
 50
0.0
 51
80.00000000000147
  0
LINE
  5
886
330
861
100
AcDbEntity
  8
_U+56FE_U+5C42 1
100
AcDbLine
 10
343.0000022444096
 20
503.5022588556598
 30
0.0
 11
362.0000022444101
 21
503.5022588556598
 31
0.0
  0
LINE
  5
887
330
861
100
AcDbEntity
  8
_U+56FE_U+5C42 1
100
AcDbLine
 10
343.0000022444096
 20
505.5022588556599
 30
0.0
 11
386.0000022444097
 21
505.5022588556599
 31
0.0
  0
ARC
  5
888
330
861
100
AcDbEntity
  8
_U+56FE_U+5C42 1
100
AcDbCircle
 10
343.0000022444096
 20
504.5022588556598
 30
0.0
 40
0.9999999999998667
100
AcDbArc
 50
90.0
 51
270.0
  0
LINE
  5
889
330
861
100
AcDbEntity
  8
_U+56FE_U+5C42 1
100
AcDbLine
 10
362.0000022444096
 20
503.5022588556598
 30
0.0
 11
417.3891876657453
 21
493.7356510264144
 31
0.0
  0
LINE
  5
88A
330
861
100
AcDbEntity
  8
_U+56FE_U+5C42 1
100
AcDbLine
 10
418.0000022444096
 20
639.5022588556598
 30
0.0
 11
428.0000022444101
 21
639.5022588556598
 31
0.0
  0
LINE
  5
88B
330
861
100
AcDbEntity
  8
_U+56FE_U+5C42 1
100
AcDbLine
 10
418.0000022444096
 20
579.5022588556601
 30
0.0
 11
428.0000022444101
 21
579.5022588556601
 31
0.0
  0
ARC
  5
88C
330
861
100
AcDbEntity
  8
_U+56FE_U+5C42 1
100
AcDbCircle
 10
428.0000022444101
 20
589.5022588556598
 30
0.0
 40
10.0
100
AcDbArc
 50
270.0
 51
0.0
  0
LINE
  5
88D
330
861
100
AcDbEntity
  8
_U+56FE_U+5C42 1
100
AcDbLine
 10
343.0000022444096
 20
713.50225885566
 30
0.0
 11
386.0000022444097
 21
713.50225885566
 31
0.0
  0
LINE
  5
88E
102
{ACAD_REACTORS
330
8BD
102
}
330
861
100
AcDbEntity
  8
Defpoints
100
AcDbLine
 10
418.0000022444096
 20
579.5022588556601
 30
0.0
 11
418.0000022444101
 21
639.5022588556598
 31
0.0
  0
LINE
  5
88F
330
861
100
AcDbEntity
  8
_U+56FE_U+5C42 1
100
AcDbLine
 10
424.0000022444096
 20
850.8571890023173
 30
0.0
 11
424.0000022444101
 21
733.1473287090026
 31
0.0
  0
ARC
  5
890
330
861
100
AcDbEntity
  8
_U+56FE_U+5C42 1
100
AcDbCircle
 10
416.0000022444096
 20
850.8571890023173
 30
0.0
 40
8.0
100
AcDbArc
 50
0.0
 51
80.00000000000147
  0
LINE
  5
891
102
{ACAD_REACTORS
330
907
102
}
330
861
100
AcDbEntity
  8
_U+56FE_U+5C42 1
100
AcDbLine
 10
342.0000022444096
 20
868.50225885566
 30
0.0
 11
362.0000022444101
 21
868.50225885566
 31
0.0
  0
LINE
  5
892
330
861
100
AcDbEntity
  8
_U+56FE_U+5C42 1
100
AcDbLine
 10
362.0000022444096
 20
868.50225885566
 30
0.0
 11
417.3891876657453
 21
858.735651026415
 31
0.0
  0
ARC
  5
893
330
861
100
AcDbEntity
  8
_U+56FE_U+5C42 1
100
AcDbCircle
 10
416.0000022444096
 20
733.1473287090026
 30
0.0
 40
8.0
100
AcDbArc
 50
279.9999999999986
 51
0.0
  0
ARC
  5
894
330
861
100
AcDbEntity
  8
_U+56FE_U+5C42 1
100
AcDbCircle
 10
416.0000022444096
 20
733.1473287090026
 30
0.0
 40
8.0
100
AcDbArc
 50
279.9999999999986
 51
0.0
  0
LINE
  5
895
330
861
100
AcDbEntity
  8
_U+56FE_U+5C42 1
100
AcDbLine
 10
343.0000022444096
 20
715.5022588556599
 30
0.0
 11
362.0000022444101
 21
715.5022588556599
 31
0.0
  0
LINE
  5
896
330
861
100
AcDbEntity
  8
_U+56FE_U+5C42 1
100
AcDbLine
 10
362.0000022444096
 20
715.5022588556599
 30
0.0
 11
417.3891876657453
 21
725.2688666849051
 31
0.0
  0
ARC
  5
897
330
861
100
AcDbEntity
  8
_U+56FE_U+5C42 1
100
AcDbCircle
 10
343.0000022444096
 20
714.5022588556602
 30
0.0
 40
0.9999999999998667
100
AcDbArc
 50
90.0
 51
270.0
  0
ARC
  5
898
330
861
100
AcDbEntity
  8
_U+56FE_U+5C42 1
100
AcDbCircle
 10
343.0000022444096
 20
714.5022588556602
 30
0.0
 40
0.9999999999998667
100
AcDbArc
 50
90.0
 51
270.0
  0
ARC
  5
899
330
861
100
AcDbEntity
  8
_U+56FE_U+5C42 1
100
AcDbCircle
 10
343.0000022444096
 20
714.5022588556602
 30
0.0
 40
0.9999999999998667
100
AcDbArc
 50
90.0
 51
270.0
  0
ARC
  5
89A
330
861
100
AcDbEntity
  8
_U+56FE_U+5C42 1
100
AcDbCircle
 10
343.0000022444096
 20
139.5022588556601
 30
0.0
 40
1.0
100
AcDbArc
 50
90.0
 51
165.000000000001
  0
LINE
  5
89B
330
861
100
AcDbEntity
  8
Defpoints
100
AcDbLine
 10
248.5000022444097
 20
675.5022588556599
 30
0.0
 11
248.5000022444097
 21
649.1302528080885
 31
0.0
  0
ARC
  5
89C
330
861
100
AcDbEntity
  8
_U+56FE_U+5C42 1
100
AcDbCircle
 10
248.0000022444096
 20
609.50225885566
 30
0.0
 40
65.99999999999988
100
AcDbArc
 50
270.0
 51
90.0
  0
ARC
  5
89D
330
861
100
AcDbEntity
  8
_U+56FE_U+5C42 1
100
AcDbCircle
 10
248.0000022444096
 20
609.50225885566
 30
0.0
 40
42.99999999999989
100
AcDbArc
 50
277.1211482615685
 51
82.8788517384315
  0
ARC
  5
89E
330
861
100
AcDbEntity
  8
_U+56FE_U+5C42 1
100
AcDbCircle
 10
293.0000022444096
 20
609.50225885566
 30
0.0
 40
12.0
100
AcDbArc
 50
107.2352852570884
 51
252.7647147429116
  0
LINE
  5
89F
330
861
100
AcDbEntity
  8
_U+56FE_U+5C42 1
100
AcDbLine
 10
248.6300471621385
 20
647.1757883764109
 30
0.0
 11
253.1021831171379
 21
647.1757883764109
 31
0.0
  0
ARC
  5
8A0
330
861
100
AcDbEntity
  8
_U+56FE_U+5C42 1
100
AcDbCircle
 10
253.1021831171379
 20
647.1757883764109
 30
0.0
 40
5.0
100
AcDbArc
 50
87.3814488829802
 51
173.6206297915578
  0
ARC
  5
8A1
330
861
100
AcDbEntity
  8
_U+56FE_U+5C42 1
100
AcDbCircle
 10
248.6300471621385
 20
647.6757883764109
 30
0.0
 40
0.5
100
AcDbArc
 50
173.6206297915586
 51
270.0
  0
LINE
  5
8A2
330
861
100
AcDbEntity
  8
Defpoints
100
AcDbLine
 10
248.5000022444097
 20
543.5022588556599
 30
0.0
 11
248.5000022444097
 21
569.8742649032312
 31
0.0
  0
LINE
  5
8A3
330
861
100
AcDbEntity
  8
_U+56FE_U+5C42 1
100
AcDbLine
 10
248.6300471621385
 20
571.8287293349093
 30
0.0
 11
253.1021831171379
 21
571.8287293349093
 31
0.0
  0
ARC
  5
8A4
330
861
100
AcDbEntity
  8
_U+56FE_U+5C42 1
100
AcDbCircle
 10
253.1021831171379
 20
571.8287293349093
 30
0.0
 40
5.0
100
AcDbArc
 50
186.3793702084407
 51
272.6185511170198
  0
ARC
  5
8A5
330
861
100
AcDbEntity
  8
_U+56FE_U+5C42 1
100
AcDbCircle
 10
248.6300471621385
 20
571.3287293349093
 30
0.0
 40
0.5
100
AcDbArc
 50
90.0
 51
186.3793702084407
  0
LINE
  5
8A6
330
861
100
AcDbEntity
  8
Defpoints
100
AcDbLine
 10
227.5000022444096
 20
675.5022588556599
 30
0.0
 11
227.5000022444101
 21
649.1302528080885
 31
0.0
  0
ARC
  5
8A7
330
861
100
AcDbEntity
  8
_U+56FE_U+5C42 1
100
AcDbCircle
 10
228.0000022444097
 20
609.50225885566
 30
0.0
 40
65.99999999999988
100
AcDbArc
 50
90.0
 51
270.0
  0
ARC
  5
8A8
330
861
100
AcDbEntity
  8
_U+56FE_U+5C42 1
100
AcDbCircle
 10
228.0000022444097
 20
609.50225885566
 30
0.0
 40
42.99999999999989
100
AcDbArc
 50
97.12114826155536
 51
262.8788517384446
  0
ARC
  5
8A9
330
861
100
AcDbEntity
  8
_U+56FE_U+5C42 1
100
AcDbCircle
 10
183.0000022444096
 20
609.50225885566
 30
0.0
 40
12.0
100
AcDbArc
 50
287.2352852570748
 51
72.76471474292524
  0
LINE
  5
8AA
330
861
100
AcDbEntity
  8
_U+56FE_U+5C42 1
100
AcDbLine
 10
227.3699573266811
 20
647.1757883764109
 30
0.0
 11
222.8978213716814
 21
647.1757883764109
 31
0.0
  0
ARC
  5
8AB
330
861
100
AcDbEntity
  8
_U+56FE_U+5C42 1
100
AcDbCircle
 10
222.8978213716814
 20
647.1757883764109
 30
0.0
 40
5.0
100
AcDbArc
 50
6.37937020844259
 51
92.61855111703287
  0
ARC
  5
8AC
330
861
100
AcDbEntity
  8
_U+56FE_U+5C42 1
100
AcDbCircle
 10
227.3699573266811
 20
647.6757883764109
 30
0.0
 40
0.5
100
AcDbArc
 50
270.0
 51
6.379370208441982
  0
LINE
  5
8AD
330
861
100
AcDbEntity
  8
Defpoints
100
AcDbLine
 10
227.5000022444096
 20
543.5022588556599
 30
0.0
 11
227.5000022444101
 21
569.8742649032312
 31
0.0
  0
LINE
  5
8AE
330
861
100
AcDbEntity
  8
_U+56FE_U+5C42 1
100
AcDbLine
 10
227.3699573266811
 20
571.8287293349093
 30
0.0
 11
222.8978213716814
 21
571.8287293349093
 31
0.0
  0
ARC
  5
8AF
330
861
100
AcDbEntity
  8
_U+56FE_U+5C42 1
100
AcDbCircle
 10
222.8978213716814
 20
571.8287293349093
 30
0.0
 40
5.0
100
AcDbArc
 50
267.3814488829671
 51
353.6206297915587
  0
ARC
  5
8B0
330
861
100
AcDbEntity
  8
_U+56FE_U+5C42 1
100
AcDbCircle
 10
227.3699573266811
 20
571.3287293349093
 30
0.0
 40
0.5
100
AcDbArc
 50
353.6206297915587
 51
90.0
  0
LINE
  5
8B1
330
861
100
AcDbEntity
  8
_U+56FE_U+5C42 1
100
AcDbLine
 10
418.0000022444096
 20
214.5022588556601
 30
0.0
 11
430.0000022444096
 21
214.5022588556601
 31
0.0
  0
LINE
  5
8B2
330
861
100
AcDbEntity
  8
_U+56FE_U+5C42 1
100
AcDbLine
 10
418.0000022444096
 20
274.5022588556601
 30
0.0
 11
430.0000022444096
 21
274.5022588556601
 31
0.0
  0
MTEXT
  5
8B3
330
861
100
AcDbEntity
  8
0
100
AcDbMText
 10
203.9716553138092
 20
69.38906968535161
 30
0.0
 40
50.0
 41
113.9330467054915
 46
0.0
 71
     1
 72
     5
  1
{\fSimSun|b0|i0|c134|p2;6寸}
 73
     1
 44
1.0
  0
DIMENSION
  5
8B4
330
861
100
AcDbEntity
  8
0
100
AcDbDimension
  2
*D35
 10
343.0000022444096
 20
191.4438023417551
 30
0.0
 11
238.0000022444097
 21
191.4438023417551
 31
0.0
 12
-926.9860057496762
 22
23.20163525266659
 32
0.0
 71
     5
 42
210.0
 73
     0
 74
     0
 75
     0
  3
Standard
100
AcDbAlignedDimension
 13
133.0000022444096
 23
188.0776400222675
 33
0.0
 14
343.0000022444096
 24
188.0776400222675
 34
0.0
100
AcDbRotatedDimension
  0
DIMENSION
  5
8B5
102
{ACAD_XDICTIONARY
360
8B6
102
}
102
{ACAD_REACTORS
330
8B7
102
}
330
861
100
AcDbEntity
  8
0
100
AcDbDimension
  2
*D36
 10
313.0830692600827
 20
139.5022588556601
 30
0.0
 11
313.0830692600827
 21
244.5022588556603
 31
0.0
 12
-926.9860057496762
 22
23.20163525266659
 32
0.0
 71
     5
 42
210.0
 73
     0
 74
     0
 75
     0
  3
Standard
100
AcDbAlignedDimension
 13
313.0830692600827
 23
349.5022588556601
 33
0.0
 14
313.0830692600827
 24
139.5022588556601
 34
0.0
 50
90.0
100
AcDbRotatedDimension
  0
DIMENSION
  5
8B8
102
{ACAD_XDICTIONARY
360
8B9
102
}
102
{ACAD_REACTORS
330
8BA
102
}
330
861
100
AcDbEntity
  8
0
100
AcDbDimension
  2
*D37
 10
224.1375441033775
 20
349.5022588556601
 30
0.0
 11
224.1375441033775
 21
427.0022588556603
 31
0.0
 12
-926.986005749676
 22
23.20163525266659
 32
0.0
 71
     5
 42
155.0
 73
     0
 74
     0
 75
     0
  3
Standard
100
AcDbAlignedDimension
 13
238.0000022444098
 23
504.5022588556601
 33
0.0
 14
238.0000022444098
 24
349.5022588556601
 34
0.0
 50
90.0
100
AcDbRotatedDimension
  0
DIMENSION
  5
8BB
102
{ACAD_XDICTIONARY
360
8BC
102
}
102
{ACAD_REACTORS
330
8BD
102
}
330
861
100
AcDbEntity
  8
0
100
AcDbDimension
  2
*D38
 10
418.0000022444096
 20
603.5786044271421
 30
0.0
 11
380.5000022444096
 21
603.5786044271421
 31
0.0
 12
-926.9860057496762
 22
23.20163525266659
 32
0.0
 71
     5
 42
75.00000000000024
 73
     0
 74
     0
 75
     0
  3
Standard
100
AcDbAlignedDimension
 13
343.0000022444096
 23
609.50225885566
 33
0.0
 14
418.0000022444096
 24
609.50225885566
 34
0.0
100
AcDbRotatedDimension
  0
DIMENSION
  5
8BE
102
{ACAD_XDICTIONARY
360
8BF
102
}
102
{ACAD_REACTORS
330
8C0
102
}
330
861
100
AcDbEntity
  8
0
100
AcDbDimension
  2
*D39
 10
418.0000022444096
 20
264.2241183107578
 30
0.0
 11
380.5000022444096
 21
264.2241183107578
 31
0.0
 12
-926.9860057496762
 22
23.20163525266659
 32
0.0
 71
     5
 42
75.0
 73
     0
 74
     0
 75
     0
  3
Standard
100
AcDbAlignedDimension
 13
343.0000022444096
 23
262.5962990847749
 33
0.0
 14
418.0000022444096
 24
262.5962990847749
 34
0.0
100
AcDbRotatedDimension
  0
DIMENSION
  5
8C1
102
{ACAD_XDICTIONARY
360
8C2
102
}
102
{ACAD_REACTORS
330
8C3
102
}
330
861
100
AcDbEntity
  8
0
100
AcDbDimension
  2
*D40
 10
424.0000022444096
 20
426.0914875704925
 30
0.0
 11
383.0000022444096
 21
426.0914875704925
 31
0.0
 12
-926.9860057496762
 22
23.20163525266665
 32
0.0
 71
     5
 42
82.0
 73
     0
 74
     0
 75
     0
  3
Standard
100
AcDbAlignedDimension
 13
342.0000022444096
 23
404.2240386212875
 33
0.0
 14
424.0000022444096
 24
404.2240386212871
 34
0.0
100
AcDbRotatedDimension
  0
LINE
  5
8C4
102
{ACAD_REACTORS
330
8FE
102
}
330
861
100
AcDbEntity
  8
Defpoints
100
AcDbLine
 10
133.0000022444096
 20
140.5022588556601
 30
0.0
 11
133.0000022444096
 21
348.5022588556601
 31
0.0
  0
LINE
  5
8C5
102
{ACAD_REACTORS
330
8FE
102
}
330
861
100
AcDbEntity
  8
_U+56FE_U+5C42 1
100
AcDbLine
 10
58.00000224440964
 20
214.5022588556601
 30
0.0
 11
58.00000224440964
 21
274.5022588556601
 31
0.0
  0
LINE
  5
8C6
330
861
100
AcDbEntity
  8
Defpoints
100
AcDbLine
 10
46.00000224440964
 20
214.5022588556601
 30
0.0
 11
46.00000224440964
 21
274.5022588556601
 31
0.0
  0
LINE
  5
8C7
102
{ACAD_REACTORS
330
904
102
}
330
861
100
AcDbEntity
  8
_U+56FE_U+5C42 1
100
AcDbLine
 10
0.000002244409643
 20
152.5022588556601
 30
0.0
 11
0.000002244409643
 21
336.50225885566
 31
0.0
  0
ARC
  5
8C8
330
861
100
AcDbEntity
  8
_U+56FE_U+5C42 1
100
AcDbCircle
 10
12.00000224440964
 20
152.5022588556601
 30
0.0
 40
12.0
100
AcDbArc
 50
180.0
 51
270.0
  0
LINE
  5
8C9
102
{ACAD_REACTORS
330
901
102
}
330
861
100
AcDbEntity
  8
Defpoints
100
AcDbLine
 10
134.0000022444096
 20
349.5022588556601
 30
0.0
 11
134.0000022444096
 21
504.5022588556601
 31
0.0
  0
LINE
  5
8CA
102
{ACAD_REACTORS
330
901
102
}
330
861
100
AcDbEntity
  8
_U+56FE_U+5C42 1
100
AcDbLine
 10
52.00000224440963
 20
368.147328709003
 30
0.0
 11
52.00000224440919
 21
485.8571890023171
 31
0.0
  0
ARC
  5
8CB
330
861
100
AcDbEntity
  8
_U+56FE_U+5C42 1
100
AcDbCircle
 10
60.00000224440963
 20
368.147328709003
 30
0.0
 40
8.0
100
AcDbArc
 50
180.0000000000002
 51
259.9999999999949
  0
LINE
  5
8CC
102
{ACAD_REACTORS
330
8FB
102
}
330
861
100
AcDbEntity
  8
Defpoints
100
AcDbLine
 10
133.0000022444096
 20
505.5022588556596
 30
0.0
 11
133.0000022444096
 21
713.5022588556604
 31
0.0
  0
LINE
  5
8CD
330
861
100
AcDbEntity
  8
Defpoints
100
AcDbLine
 10
134.0000022444096
 20
714.5022588556599
 30
0.0
 11
134.0000022444096
 21
868.5022588556597
 31
0.0
  0
LINE
  5
8CE
330
861
100
AcDbEntity
  8
_U+56FE_U+5C42 1
100
AcDbLine
 10
133.0000022444096
 20
350.5022588556601
 30
0.0
 11
114.0000022444092
 21
350.5022588556601
 31
0.0
  0
LINE
  5
8CF
330
861
100
AcDbEntity
  8
_U+56FE_U+5C42 1
100
AcDbLine
 10
133.9659280706985
 20
139.7610779007626
 30
0.0
 11
138.8942622734421
 21
119.5022588556601
 31
0.0
  0
LINE
  5
8D0
330
861
100
AcDbEntity
  8
_U+56FE_U+5C42 1
100
AcDbLine
 10
133.0000022444096
 20
348.5022588556601
 30
0.0
 11
12.00000224440964
 21
348.5022588556601
 31
0.0
  0
ARC
  5
8D1
330
861
100
AcDbEntity
  8
_U+56FE_U+5C42 1
100
AcDbCircle
 10
12.00000224440964
 20
336.50225885566
 30
0.0
 40
12.0
100
AcDbArc
 50
90.0
 51
180.0
  0
ARC
  5
8D2
330
861
100
AcDbEntity
  8
_U+56FE_U+5C42 1
100
AcDbCircle
 10
133.0000022444096
 20
349.5022588556602
 30
0.0
 40
0.9999999999998667
100
AcDbArc
 50
270.0
 51
90.0
  0
ARC
  5
8D3
330
861
100
AcDbEntity
  8
_U+56FE_U+5C42 1
100
AcDbCircle
 10
133.0000022444096
 20
504.5022588556598
 30
0.0
 40
0.9999999999998667
100
AcDbArc
 50
270.0
 51
90.0
  0
LINE
  5
8D4
330
861
100
AcDbEntity
  8
_U+56FE_U+5C42 1
100
AcDbLine
 10
114.0000022444096
 20
350.5022588556601
 30
0.0
 11
58.61081682307395
 21
360.2688666849055
 31
0.0
  0
ARC
  5
8D5
330
861
100
AcDbEntity
  8
_U+56FE_U+5C42 1
100
AcDbCircle
 10
60.00000224440963
 20
485.8571890023171
 30
0.0
 40
8.0
100
AcDbArc
 50
100.0000000000051
 51
180.0
  0
LINE
  5
8D6
330
861
100
AcDbEntity
  8
_U+56FE_U+5C42 1
100
AcDbLine
 10
133.0000022444096
 20
503.5022588556598
 30
0.0
 11
114.0000022444092
 21
503.5022588556598
 31
0.0
  0
ARC
  5
8D7
330
861
100
AcDbEntity
  8
_U+56FE_U+5C42 1
100
AcDbCircle
 10
133.0000022444096
 20
504.5022588556598
 30
0.0
 40
0.9999999999998667
100
AcDbArc
 50
270.0
 51
90.0
  0
LINE
  5
8D8
330
861
100
AcDbEntity
  8
_U+56FE_U+5C42 1
100
AcDbLine
 10
114.0000022444096
 20
503.5022588556598
 30
0.0
 11
58.61081682307395
 21
493.7356510264144
 31
0.0
  0
LINE
  5
8D9
330
861
100
AcDbEntity
  8
_U+56FE_U+5C42 1
100
AcDbLine
 10
133.0000022444096
 20
140.5022588556601
 30
0.0
 11
12.00000224440964
 21
140.5022588556601
 31
0.0
  0
LINE
  5
8DA
330
861
100
AcDbEntity
  8
Defpoints
100
AcDbLine
 10
133.0000022444096
 20
713.5022588556604
 30
0.0
 11
133.0000022444096
 21
505.5022588556599
 31
0.0
  0
LINE
  5
8DB
330
861
100
AcDbEntity
  8
_U+56FE_U+5C42 1
100
AcDbLine
 10
58.00000224440964
 20
681.5022588556601
 30
0.0
 11
58.00000224440964
 21
639.5022588556598
 31
0.0
  0
ARC
  5
8DC
330
861
100
AcDbEntity
  8
_U+56FE_U+5C42 1
100
AcDbCircle
 10
90.00000224440965
 20
681.5022588556601
 30
0.0
 40
32.0
100
AcDbArc
 50
90.0
 51
180.0
  0
LINE
  5
8DD
330
861
100
AcDbEntity
  8
_U+56FE_U+5C42 1
100
AcDbLine
 10
58.00000224440964
 20
579.5022588556601
 30
0.0
 11
58.00000224440964
 21
537.50225885566
 31
0.0
  0
ARC
  5
8DE
330
861
100
AcDbEntity
  8
_U+56FE_U+5C42 1
100
AcDbCircle
 10
90.00000224440965
 20
537.50225885566
 30
0.0
 40
32.0
100
AcDbArc
 50
180.0
 51
270.0
  0
LINE
  5
8DF
330
861
100
AcDbEntity
  8
_U+56FE_U+5C42 1
100
AcDbLine
 10
38.00000224440942
 20
629.5022588556601
 30
0.0
 11
38.00000224440942
 21
589.5022588556598
 31
0.0
  0
ARC
  5
8E0
330
861
100
AcDbEntity
  8
_U+56FE_U+5C42 1
100
AcDbCircle
 10
48.00000224440919
 20
629.5022588556601
 30
0.0
 40
10.0
100
AcDbArc
 50
90.0
 51
180.0
  0
ARC
  5
8E1
330
861
100
AcDbEntity
  8
_U+56FE_U+5C42 1
100
AcDbCircle
 10
60.00000224440963
 20
485.8571890023171
 30
0.0
 40
8.0
100
AcDbArc
 50
100.0000000000051
 51
180.0
  0
LINE
  5
8E2
330
861
100
AcDbEntity
  8
_U+56FE_U+5C42 1
100
AcDbLine
 10
133.0000022444096
 20
503.5022588556598
 30
0.0
 11
114.0000022444092
 21
503.5022588556598
 31
0.0
  0
LINE
  5
8E3
330
861
100
AcDbEntity
  8
_U+56FE_U+5C42 1
100
AcDbLine
 10
133.0000022444096
 20
505.5022588556599
 30
0.0
 11
90.00000224440965
 21
505.5022588556599
 31
0.0
  0
ARC
  5
8E4
330
861
100
AcDbEntity
  8
_U+56FE_U+5C42 1
100
AcDbCircle
 10
133.0000022444096
 20
504.5022588556598
 30
0.0
 40
0.9999999999998667
100
AcDbArc
 50
270.0
 51
90.0
  0
LINE
  5
8E5
330
861
100
AcDbEntity
  8
_U+56FE_U+5C42 1
100
AcDbLine
 10
114.0000022444096
 20
503.5022588556598
 30
0.0
 11
58.61081682307395
 21
493.7356510264144
 31
0.0
  0
LINE
  5
8E6
330
861
100
AcDbEntity
  8
_U+56FE_U+5C42 1
100
AcDbLine
 10
58.00000224440964
 20
639.5022588556598
 30
0.0
 11
48.00000224440919
 21
639.5022588556598
 31
0.0
  0
LINE
  5
8E7
330
861
100
AcDbEntity
  8
_U+56FE_U+5C42 1
100
AcDbLine
 10
58.00000224440964
 20
579.5022588556601
 30
0.0
 11
48.00000224440919
 21
579.5022588556601
 31
0.0
  0
ARC
  5
8E8
330
861
100
AcDbEntity
  8
_U+56FE_U+5C42 1
100
AcDbCircle
 10
48.00000224440919
 20
589.5022588556598
 30
0.0
 40
10.0
100
AcDbArc
 50
180.0
 51
270.0
  0
LINE
  5
8E9
330
861
100
AcDbEntity
  8
_U+56FE_U+5C42 1
100
AcDbLine
 10
133.0000022444096
 20
713.50225885566
 30
0.0
 11
90.00000224440965
 21
713.50225885566
 31
0.0
  0
LINE
  5
8EA
102
{ACAD_REACTORS
330
8FB
102
}
330
861
100
AcDbEntity
  8
Defpoints
100
AcDbLine
 10
58.00000224440964
 20
579.5022588556601
 30
0.0
 11
58.00000224440919
 21
639.5022588556598
 31
0.0
  0
LINE
  5
8EB
330
861
100
AcDbEntity
  8
_U+56FE_U+5C42 1
100
AcDbLine
 10
52.00000224440963
 20
850.8571890023173
 30
0.0
 11
52.00000224440919
 21
733.1473287090026
 31
0.0
  0
ARC
  5
8EC
330
861
100
AcDbEntity
  8
_U+56FE_U+5C42 1
100
AcDbCircle
 10
60.00000224440963
 20
850.8571890023173
 30
0.0
 40
8.0
100
AcDbArc
 50
100.0000000000051
 51
180.0
  0
LINE
  5
8ED
330
861
100
AcDbEntity
  8
_U+56FE_U+5C42 1
100
AcDbLine
 10
134.0000022444096
 20
868.50225885566
 30
0.0
 11
114.0000022444092
 21
868.50225885566
 31
0.0
  0
LINE
  5
8EE
330
861
100
AcDbEntity
  8
_U+56FE_U+5C42 1
100
AcDbLine
 10
114.0000022444096
 20
868.50225885566
 30
0.0
 11
58.61081682307395
 21
858.735651026415
 31
0.0
  0
ARC
  5
8EF
330
861
100
AcDbEntity
  8
_U+56FE_U+5C42 1
100
AcDbCircle
 10
60.00000224440963
 20
733.1473287090026
 30
0.0
 40
8.0
100
AcDbArc
 50
180.0
 51
259.9999999999949
  0
ARC
  5
8F0
330
861
100
AcDbEntity
  8
_U+56FE_U+5C42 1
100
AcDbCircle
 10
60.00000224440963
 20
733.1473287090026
 30
0.0
 40
8.0
100
AcDbArc
 50
180.0
 51
259.9999999999949
  0
LINE
  5
8F1
330
861
100
AcDbEntity
  8
_U+56FE_U+5C42 1
100
AcDbLine
 10
133.0000022444096
 20
715.5022588556599
 30
0.0
 11
114.0000022444092
 21
715.5022588556599
 31
0.0
  0
LINE
  5
8F2
330
861
100
AcDbEntity
  8
_U+56FE_U+5C42 1
100
AcDbLine
 10
114.0000022444096
 20
715.5022588556599
 30
0.0
 11
58.61081682307395
 21
725.2688666849051
 31
0.0
  0
ARC
  5
8F3
330
861
100
AcDbEntity
  8
_U+56FE_U+5C42 1
100
AcDbCircle
 10
133.0000022444096
 20
714.5022588556602
 30
0.0
 40
0.9999999999998667
100
AcDbArc
 50
270.0
 51
90.0
  0
ARC
  5
8F4
330
861
100
AcDbEntity
  8
_U+56FE_U+5C42 1
100
AcDbCircle
 10
133.0000022444096
 20
714.5022588556602
 30
0.0
 40
0.9999999999998667
100
AcDbArc
 50
270.0
 51
90.0
  0
ARC
  5
8F5
330
861
100
AcDbEntity
  8
_U+56FE_U+5C42 1
100
AcDbCircle
 10
133.0000022444096
 20
714.5022588556602
 30
0.0
 40
0.9999999999998667
100
AcDbArc
 50
270.0
 51
90.0
  0
ARC
  5
8F6
330
861
100
AcDbEntity
  8
_U+56FE_U+5C42 1
100
AcDbCircle
 10
133.0000022444096
 20
139.5022588556601
 30
0.0
 40
1.0
100
AcDbArc
 50
14.99999999999858
 51
90.0
  0
LINE
  5
8F7
330
861
100
AcDbEntity
  8
_U+56FE_U+5C42 1
100
AcDbLine
 10
58.00000224440964
 20
214.5022588556601
 30
0.0
 11
46.00000224440964
 21
214.5022588556601
 31
0.0
  0
LINE
  5
8F8
330
861
100
AcDbEntity
  8
_U+56FE_U+5C42 1
100
AcDbLine
 10
58.00000224440964
 20
274.5022588556601
 30
0.0
 11
46.00000224440964
 21
274.5022588556601
 31
0.0
  0
DIMENSION
  5
8F9
102
{ACAD_XDICTIONARY
360
8FA
102
}
102
{ACAD_REACTORS
330
8FB
102
}
330
861
100
AcDbEntity
  8
0
100
AcDbDimension
  2
*D41
 10
58.00000224440942
 20
603.5786044271421
 30
0.0
 11
95.50000224440941
 21
603.5786044271421
 31
0.0
 12
-926.9860057496762
 22
23.20163525266659
 32
0.0
 71
     5
 42
75.00000000000024
 73
     0
 74
     0
 75
     0
  3
Standard
100
AcDbAlignedDimension
 13
133.0000022444096
 23
609.50225885566
 33
0.0
 14
58.00000224440942
 24
609.50225885566
 34
0.0
 50
180.0
100
AcDbRotatedDimension
  0
DIMENSION
  5
8FC
102
{ACAD_XDICTIONARY
360
8FD
102
}
102
{ACAD_REACTORS
330
8FE
102
}
330
861
100
AcDbEntity
  8
0
100
AcDbDimension
  2
*D42
 10
58.00000224440964
 20
264.2241183107578
 30
0.0
 11
95.50000224440964
 21
264.2241183107578
 31
0.0
 12
-926.9860057496762
 22
23.20163525266659
 32
0.0
 71
     5
 42
75.0
 73
     0
 74
     0
 75
     0
  3
Standard
100
AcDbAlignedDimension
 13
133.0000022444096
 23
262.5962990847749
 33
0.0
 14
58.00000224440964
 24
262.5962990847749
 34
0.0
 50
180.0
100
AcDbRotatedDimension
  0
DIMENSION
  5
8FF
102
{ACAD_XDICTIONARY
360
900
102
}
102
{ACAD_REACTORS
330
901
102
}
330
861
100
AcDbEntity
  8
0
100
AcDbDimension
  2
*D43
 10
52.00000224440963
 20
426.0914875704925
 30
0.0
 11
93.00000224440964
 21
426.0914875704925
 31
0.0
 12
-926.9860057496762
 22
23.20163525266665
 32
0.0
 71
     5
 42
82.0
 73
     0
 74
     0
 75
     0
  3
Standard
100
AcDbAlignedDimension
 13
134.0000022444096
 23
404.2240386212875
 33
0.0
 14
52.00000224440963
 24
404.2240386212871
 34
0.0
 50
180.0
100
AcDbRotatedDimension
  0
DIMENSION
  5
902
102
{ACAD_XDICTIONARY
360
903
102
}
102
{ACAD_REACTORS
330
904
102
}
330
861
100
AcDbEntity
  8
0
100
AcDbDimension
  2
*D44
 10
476.0000022444096
 20
84.66948326025613
 30
0.0
 11
238.0000022444097
 21
84.66948326025613
 31
0.0
 12
-926.9860057496762
 22
23.20163525266659
 32
0.0
 71
     5
 42
476.0
 73
     0
 74
     0
 75
     0
  3
Standard
100
AcDbAlignedDimension
 13
0.000002244409643
 23
169.8230883637021
 33
0.0
 14
476.0000022444096
 24
169.8230883637021
 34
0.0
100
AcDbRotatedDimension
  0
DIMENSION
  5
905
102
{ACAD_XDICTIONARY
360
906
102
}
102
{ACAD_REACTORS
330
907
102
}
330
861
100
AcDbEntity
  8
0
100
AcDbDimension
  2
*D45
 10
564.8632116294161
 20
868.50225885566
 30
0.0
 11
564.8632116294159
 21
494.0022588556598
 31
0.0
 12
-926.9860057496762
 22
23.20163525266659
 32
0.0
 71
     5
 42
748.9999999999996
 73
     0
 74
     0
 75
     0
  3
Standard
100
AcDbAlignedDimension
 13
337.1057422153772
 23
119.5022588556601
 33
0.0
 14
342.0000022444096
 24
868.50225885566
 34
0.0
 50
90.0
100
AcDbRotatedDimension
  0
ENDBLK
  5
90B
330
861
100
AcDbEntity
  8
0
100
AcDbBlockEnd
  0
BLOCK
  5
9BD
330
9B2
100
AcDbEntity
  8
0
100
AcDbBlockBegin
  2
*D47
 70
     1
 10
0.0
 20
0.0
 30
0.0
  3
*D47
  1

  0
LINE
  5
D78
330
9B2
100
AcDbEntity
  8
0
 62
     0
370
    -2
100
AcDbLine
 10
1926.566676905139
 20
188.9385047696007
 30
0.0
 11
1926.566676905139
 21
192.4221670890883
 31
0.0
  0
LINE
  5
D79
330
9B2
100
AcDbEntity
  8
0
 62
     0
370
    -2
100
AcDbLine
 10
2186.566676905139
 20
188.9385047696007
 30
0.0
 11
2186.566676905139
 21
192.4221670890883
 31
0.0
  0
LINE
  5
D7A
330
9B2
100
AcDbEntity
  8
0
 62
     0
370
    -2
100
AcDbLine
 10
1926.74667690514
 20
192.2421670890883
 30
0.0
 11
2028.97667690514
 21
192.2421670890883
 31
0.0
  0
LINE
  5
D7B
330
9B2
100
AcDbEntity
  8
0
 62
     0
370
    -2
100
AcDbLine
 10
2186.38667690514
 20
192.2421670890883
 30
0.0
 11
2084.15667690514
 21
192.2421670890883
 31
0.0
  0
SOLID
  5
D7C
330
9B2
100
AcDbEntity
  8
0
 62
     0
100
AcDbTrace
 10
1926.74667690514
 20
192.2721670890883
 30
0.0
 11
1926.74667690514
 21
192.2121670890883
 31
0.0
 12
1926.566676905139
 22
192.2421670890883
 32
0.0
 13
1926.566676905139
 23
192.2421670890883
 33
0.0
  0
SOLID
  5
D7D
330
9B2
100
AcDbEntity
  8
0
 62
     0
100
AcDbTrace
 10
2186.38667690514
 20
192.2721670890883
 30
0.0
 11
2186.38667690514
 21
192.2121670890883
 31
0.0
 12
2186.566676905139
 22
192.2421670890883
 32
0.0
 13
2186.566676905139
 23
192.2421670890883
 33
0.0
  0
MTEXT
  5
D7E
330
9B2
100
AcDbEntity
  8
0
 62
     0
100
AcDbMText
 10
2056.56667690514
 20
192.2421670890883
 30
0.0
 40
15.0
 41
0.0
 46
0.0
 71
     5
 72
     1
  1
\A1;260.0
 73
     1
 44
1.0
  0
POINT
  5
D7F
330
9B2
100
AcDbEntity
  8
Defpoints
 62
     0
100
AcDbPoint
 10
1926.566676905139
 20
188.8760047696007
 30
0.0
  0
POINT
  5
D80
330
9B2
100
AcDbEntity
  8
Defpoints
 62
     0
100
AcDbPoint
 10
2186.566676905139
 20
188.8760047696007
 30
0.0
  0
POINT
  5
D81
330
9B2
100
AcDbEntity
  8
Defpoints
 62
     0
100
AcDbPoint
 10
2186.566676905139
 20
192.2421670890883
 30
0.0
  0
ENDBLK
  5
9BE
330
9B2
100
AcDbEntity
  8
0
100
AcDbBlockEnd
  0
BLOCK
  5
9CA
330
9BF
100
AcDbEntity
  8
0
100
AcDbBlockBegin
  2
*D48
 70
     1
 10
0.0
 20
0.0
 30
0.0
  3
*D48
  1

  0
LINE
  5
DE6
330
9BF
100
AcDbEntity
  8
0
 62
     0
370
    -2
100
AcDbLine
 10
2149.636058107273
 20
375.3006236029932
 30
0.0
 11
2149.518558107273
 21
375.3006236029932
 31
0.0
  0
LINE
  5
DE7
330
9BF
100
AcDbEntity
  8
0
 62
     0
370
    -2
100
AcDbLine
 10
2149.636058107273
 20
115.3006236029933
 30
0.0
 11
2149.518558107273
 21
115.3006236029933
 31
0.0
  0
LINE
  5
DE8
330
9BF
100
AcDbEntity
  8
0
 62
     0
370
    -2
100
AcDbLine
 10
2149.698558107273
 20
375.1206236029933
 30
0.0
 11
2149.698558107273
 21
252.8906236029933
 31
0.0
  0
LINE
  5
DE9
330
9BF
100
AcDbEntity
  8
0
 62
     0
370
    -2
100
AcDbLine
 10
2149.698558107273
 20
115.4806236029933
 30
0.0
 11
2149.698558107273
 21
237.7106236029932
 31
0.0
  0
SOLID
  5
DEA
330
9BF
100
AcDbEntity
  8
0
 62
     0
100
AcDbTrace
 10
2149.668558107272
 20
375.1206236029933
 30
0.0
 11
2149.728558107273
 21
375.1206236029933
 31
0.0
 12
2149.698558107273
 22
375.3006236029932
 32
0.0
 13
2149.698558107273
 23
375.3006236029932
 33
0.0
  0
SOLID
  5
DEB
330
9BF
100
AcDbEntity
  8
0
 62
     0
100
AcDbTrace
 10
2149.668558107272
 20
115.4806236029933
 30
0.0
 11
2149.728558107273
 21
115.4806236029933
 31
0.0
 12
2149.698558107273
 22
115.3006236029933
 32
0.0
 13
2149.698558107273
 23
115.3006236029933
 33
0.0
  0
MTEXT
  5
DEC
330
9BF
100
AcDbEntity
  8
0
 62
     0
100
AcDbMText
 10
2149.698558107273
 20
245.3006236029936
 30
0.0
 40
15.0
 41
0.0
 46
0.0
 71
     5
 72
     1
  1
\A1;260.0
 73
     1
 44
1.0
  0
POINT
  5
DED
330
9BF
100
AcDbEntity
  8
Defpoints
 62
     0
100
AcDbPoint
 10
2149.698558107273
 20
375.3006236029932
 30
0.0
  0
POINT
  5
DEE
330
9BF
100
AcDbEntity
  8
Defpoints
 62
     0
100
AcDbPoint
 10
2149.698558107273
 20
115.3006236029933
 30
0.0
  0
POINT
  5
DEF
330
9BF
100
AcDbEntity
  8
Defpoints
 62
     0
100
AcDbPoint
 10
2149.698558107273
 20
115.3006236029933
 30
0.0
  0
ENDBLK
  5
9CB
330
9BF
100
AcDbEntity
  8
0
100
AcDbBlockEnd
  0
BLOCK
  5
9D7
330
9CC
100
AcDbEntity
  8
0
100
AcDbBlockBegin
  2
*D49
 70
     1
 10
0.0
 20
0.0
 30
0.0
  3
*D49
  1

  0
LINE
  5
DF0
330
9CC
100
AcDbEntity
  8
0
 62
     0
370
    -2
100
AcDbLine
 10
2056.50417690514
 20
530.3006236029931
 30
0.0
 11
2042.524218764108
 21
530.3006236029931
 31
0.0
  0
LINE
  5
DF1
330
9CC
100
AcDbEntity
  8
0
 62
     0
370
    -2
100
AcDbLine
 10
2056.50417690514
 20
375.3006236029932
 30
0.0
 11
2042.524218764107
 21
375.3006236029932
 31
0.0
  0
LINE
  5
DF2
330
9CC
100
AcDbEntity
  8
0
 62
     0
370
    -2
100
AcDbLine
 10
2042.704218764108
 20
530.1206236029933
 30
0.0
 11
2042.704218764107
 21
460.390623602993
 31
0.0
  0
LINE
  5
DF3
330
9CC
100
AcDbEntity
  8
0
 62
     0
370
    -2
100
AcDbLine
 10
2042.704218764107
 20
375.4806236029933
 30
0.0
 11
2042.704218764107
 21
445.2106236029933
 31
0.0
  0
SOLID
  5
DF4
330
9CC
100
AcDbEntity
  8
0
 62
     0
100
AcDbTrace
 10
2042.674218764108
 20
530.1206236029933
 30
0.0
 11
2042.734218764108
 21
530.1206236029933
 31
0.0
 12
2042.704218764108
 22
530.3006236029931
 32
0.0
 13
2042.704218764108
 23
530.3006236029931
 33
0.0
  0
SOLID
  5
DF5
330
9CC
100
AcDbEntity
  8
0
 62
     0
100
AcDbTrace
 10
2042.674218764108
 20
375.4806236029933
 30
0.0
 11
2042.734218764107
 21
375.4806236029933
 31
0.0
 12
2042.704218764107
 22
375.3006236029932
 32
0.0
 13
2042.704218764107
 23
375.3006236029932
 33
0.0
  0
MTEXT
  5
DF6
330
9CC
100
AcDbEntity
  8
0
 62
     0
100
AcDbMText
 10
2042.704218764107
 20
452.8006236029936
 30
0.0
 40
15.0
 41
0.0
 46
0.0
 71
     5
 72
     1
  1
\A1;155.0
 73
     1
 44
1.0
  0
POINT
  5
DF7
330
9CC
100
AcDbEntity
  8
Defpoints
 62
     0
100
AcDbPoint
 10
2056.56667690514
 20
530.3006236029931
 30
0.0
  0
POINT
  5
DF8
330
9CC
100
AcDbEntity
  8
Defpoints
 62
     0
100
AcDbPoint
 10
2056.56667690514
 20
375.3006236029932
 30
0.0
  0
POINT
  5
DF9
330
9CC
100
AcDbEntity
  8
Defpoints
 62
     0
100
AcDbPoint
 10
2042.704218764107
 20
375.3006236029932
 30
0.0
  0
ENDBLK
  5
9D8
330
9CC
100
AcDbEntity
  8
0
100
AcDbBlockEnd
  0
BLOCK
  5
9E4
330
9D9
100
AcDbEntity
  8
0
100
AcDbBlockBegin
  2
*D50
 70
     1
 10
0.0
 20
0.0
 30
0.0
  3
*D50
  1

  0
LINE
  5
D96
330
9D9
100
AcDbEntity
  8
0
 62
     0
370
    -2
100
AcDbLine
 10
2186.566676905139
 20
660.2381236029932
 30
0.0
 11
2186.566676905139
 21
654.1969691744752
 31
0.0
  0
LINE
  5
D97
330
9D9
100
AcDbEntity
  8
0
 62
     0
370
    -2
100
AcDbLine
 10
2261.566676905141
 20
660.2381236029932
 30
0.0
 11
2261.566676905141
 21
654.1969691744752
 31
0.0
  0
LINE
  5
D98
330
9D9
100
AcDbEntity
  8
0
 62
     0
370
    -2
100
AcDbLine
 10
2186.746676905139
 20
654.3769691744752
 30
0.0
 11
2202.72667690514
 21
654.3769691744752
 31
0.0
  0
LINE
  5
D99
330
9D9
100
AcDbEntity
  8
0
 62
     0
370
    -2
100
AcDbLine
 10
2261.386676905141
 20
654.3769691744752
 30
0.0
 11
2245.40667690514
 21
654.3769691744752
 31
0.0
  0
SOLID
  5
D9A
330
9D9
100
AcDbEntity
  8
0
 62
     0
100
AcDbTrace
 10
2186.746676905139
 20
654.4069691744752
 30
0.0
 11
2186.746676905139
 21
654.3469691744753
 31
0.0
 12
2186.566676905139
 22
654.3769691744752
 32
0.0
 13
2186.566676905139
 23
654.3769691744752
 33
0.0
  0
SOLID
  5
D9B
330
9D9
100
AcDbEntity
  8
0
 62
     0
100
AcDbTrace
 10
2261.386676905141
 20
654.4069691744752
 30
0.0
 11
2261.386676905141
 21
654.3469691744753
 31
0.0
 12
2261.566676905141
 22
654.3769691744752
 32
0.0
 13
2261.566676905141
 23
654.3769691744752
 33
0.0
  0
MTEXT
  5
D9C
330
9D9
100
AcDbEntity
  8
0
 62
     0
100
AcDbMText
 10
2224.06667690514
 20
654.3769691744752
 30
0.0
 40
15.0
 41
0.0
 46
0.0
 71
     5
 72
     1
  1
\A1;75.0
 73
     1
 44
1.0
  0
POINT
  5
D9D
330
9D9
100
AcDbEntity
  8
Defpoints
 62
     0
100
AcDbPoint
 10
2186.566676905139
 20
660.3006236029933
 30
0.0
  0
POINT
  5
D9E
330
9D9
100
AcDbEntity
  8
Defpoints
 62
     0
100
AcDbPoint
 10
2261.566676905141
 20
660.3006236029933
 30
0.0
  0
POINT
  5
D9F
330
9D9
100
AcDbEntity
  8
Defpoints
 62
     0
100
AcDbPoint
 10
2261.566676905141
 20
654.3769691744752
 30
0.0
  0
ENDBLK
  5
9E5
330
9D9
100
AcDbEntity
  8
0
100
AcDbBlockEnd
  0
BLOCK
  5
9F1
330
9E6
100
AcDbEntity
  8
0
100
AcDbBlockBegin
  2
*D51
 70
     1
 10
0.0
 20
0.0
 30
0.0
  3
*D51
  1

  0
LINE
  5
DA0
330
9E6
100
AcDbEntity
  8
0
 62
     0
370
    -2
100
AcDbLine
 10
2186.566676905139
 20
267.8066927333376
 30
0.0
 11
2186.566676905139
 21
269.5520119593205
 31
0.0
  0
LINE
  5
DA1
330
9E6
100
AcDbEntity
  8
0
 62
     0
370
    -2
100
AcDbLine
 10
2261.56667690514
 20
267.8066927333376
 30
0.0
 11
2261.56667690514
 21
269.5520119593205
 31
0.0
  0
LINE
  5
DA2
330
9E6
100
AcDbEntity
  8
0
 62
     0
370
    -2
100
AcDbLine
 10
2186.746676905139
 20
269.3720119593205
 30
0.0
 11
2202.72667690514
 21
269.3720119593205
 31
0.0
  0
LINE
  5
DA3
330
9E6
100
AcDbEntity
  8
0
 62
     0
370
    -2
100
AcDbLine
 10
2261.38667690514
 20
269.3720119593205
 30
0.0
 11
2245.40667690514
 21
269.3720119593205
 31
0.0
  0
SOLID
  5
DA4
330
9E6
100
AcDbEntity
  8
0
 62
     0
100
AcDbTrace
 10
2186.746676905139
 20
269.4020119593205
 30
0.0
 11
2186.746676905139
 21
269.3420119593205
 31
0.0
 12
2186.566676905139
 22
269.3720119593205
 32
0.0
 13
2186.566676905139
 23
269.3720119593205
 33
0.0
  0
SOLID
  5
DA5
330
9E6
100
AcDbEntity
  8
0
 62
     0
100
AcDbTrace
 10
2261.38667690514
 20
269.4020119593205
 30
0.0
 11
2261.38667690514
 21
269.3420119593205
 31
0.0
 12
2261.56667690514
 22
269.3720119593205
 32
0.0
 13
2261.56667690514
 23
269.3720119593205
 33
0.0
  0
MTEXT
  5
DA6
330
9E6
100
AcDbEntity
  8
0
 62
     0
100
AcDbMText
 10
2224.06667690514
 20
269.3720119593205
 30
0.0
 40
15.0
 41
0.0
 46
0.0
 71
     5
 72
     1
  1
\A1;75.0
 73
     1
 44
1.0
  0
POINT
  5
DA7
330
9E6
100
AcDbEntity
  8
Defpoints
 62
     0
100
AcDbPoint
 10
2186.566676905139
 20
267.7441927333376
 30
0.0
  0
POINT
  5
DA8
330
9E6
100
AcDbEntity
  8
Defpoints
 62
     0
100
AcDbPoint
 10
2261.56667690514
 20
267.7441927333376
 30
0.0
  0
POINT
  5
DA9
330
9E6
100
AcDbEntity
  8
Defpoints
 62
     0
100
AcDbPoint
 10
2261.56667690514
 20
269.3720119593205
 30
0.0
  0
ENDBLK
  5
9F2
330
9E6
100
AcDbEntity
  8
0
100
AcDbBlockEnd
  0
BLOCK
  5
A08
330
9FD
100
AcDbEntity
  8
0
100
AcDbBlockBegin
  2
*D52
 70
     1
 10
0.0
 20
0.0
 30
0.0
  3
*D52
  1

  0
LINE
  5
DAA
330
9FD
100
AcDbEntity
  8
0
 62
     0
370
    -2
100
AcDbLine
 10
2185.56667690514
 20
430.0849033686207
 30
0.0
 11
2185.56667690514
 21
452.0698523178256
 31
0.0
  0
LINE
  5
DAB
330
9FD
100
AcDbEntity
  8
0
 62
     0
370
    -2
100
AcDbLine
 10
2267.56667690514
 20
430.0849033686203
 30
0.0
 11
2267.56667690514
 21
452.0698523178256
 31
0.0
  0
LINE
  5
DAC
330
9FD
100
AcDbEntity
  8
0
 62
     0
370
    -2
100
AcDbLine
 10
2185.746676905139
 20
451.8898523178257
 30
0.0
 11
2205.226676905139
 21
451.8898523178257
 31
0.0
  0
LINE
  5
DAD
330
9FD
100
AcDbEntity
  8
0
 62
     0
370
    -2
100
AcDbLine
 10
2267.38667690514
 20
451.8898523178257
 30
0.0
 11
2247.90667690514
 21
451.8898523178257
 31
0.0
  0
SOLID
  5
DAE
330
9FD
100
AcDbEntity
  8
0
 62
     0
100
AcDbTrace
 10
2185.746676905139
 20
451.9198523178257
 30
0.0
 11
2185.746676905139
 21
451.8598523178257
 31
0.0
 12
2185.56667690514
 22
451.8898523178257
 32
0.0
 13
2185.56667690514
 23
451.8898523178257
 33
0.0
  0
SOLID
  5
DAF
330
9FD
100
AcDbEntity
  8
0
 62
     0
100
AcDbTrace
 10
2267.38667690514
 20
451.9198523178257
 30
0.0
 11
2267.38667690514
 21
451.8598523178257
 31
0.0
 12
2267.56667690514
 22
451.8898523178257
 32
0.0
 13
2267.56667690514
 23
451.8898523178257
 33
0.0
  0
MTEXT
  5
DB0
330
9FD
100
AcDbEntity
  8
0
 62
     0
100
AcDbMText
 10
2226.566676905139
 20
451.8898523178257
 30
0.0
 40
15.0
 41
0.0
 46
0.0
 71
     5
 72
     1
  1
\A1;82.0
 73
     1
 44
1.0
  0
POINT
  5
DB1
330
9FD
100
AcDbEntity
  8
Defpoints
 62
     0
100
AcDbPoint
 10
2185.56667690514
 20
430.0224033686204
 30
0.0
  0
POINT
  5
DB2
330
9FD
100
AcDbEntity
  8
Defpoints
 62
     0
100
AcDbPoint
 10
2267.56667690514
 20
430.0224033686203
 30
0.0
  0
POINT
  5
DB3
330
9FD
100
AcDbEntity
  8
Defpoints
 62
     0
100
AcDbPoint
 10
2267.56667690514
 20
451.8898523178257
 30
0.0
  0
ENDBLK
  5
A09
330
9FD
100
AcDbEntity
  8
0
100
AcDbBlockEnd
  0
BLOCK
  5
A15
330
A0A
100
AcDbEntity
  8
0
100
AcDbBlockBegin
  2
*D53
 70
     1
 10
0.0
 20
0.0
 30
0.0
  3
*D53
  1

  0
LINE
  5
DB4
330
A0A
100
AcDbEntity
  8
0
 62
     0
370
    -2
100
AcDbLine
 10
1926.566676905139
 20
660.2381236029932
 30
0.0
 11
1926.566676905139
 21
654.1969691744752
 31
0.0
  0
LINE
  5
DB5
330
A0A
100
AcDbEntity
  8
0
 62
     0
370
    -2
100
AcDbLine
 10
1851.566676905139
 20
660.2381236029932
 30
0.0
 11
1851.566676905139
 21
654.1969691744752
 31
0.0
  0
LINE
  5
DB6
330
A0A
100
AcDbEntity
  8
0
 62
     0
370
    -2
100
AcDbLine
 10
1926.38667690514
 20
654.3769691744752
 30
0.0
 11
1910.406676905139
 21
654.3769691744752
 31
0.0
  0
LINE
  5
DB7
330
A0A
100
AcDbEntity
  8
0
 62
     0
370
    -2
100
AcDbLine
 10
1851.746676905139
 20
654.3769691744752
 30
0.0
 11
1867.726676905139
 21
654.3769691744752
 31
0.0
  0
SOLID
  5
DB8
330
A0A
100
AcDbEntity
  8
0
 62
     0
100
AcDbTrace
 10
1926.38667690514
 20
654.4069691744752
 30
0.0
 11
1926.38667690514
 21
654.3469691744753
 31
0.0
 12
1926.566676905139
 22
654.3769691744752
 32
0.0
 13
1926.566676905139
 23
654.3769691744752
 33
0.0
  0
SOLID
  5
DB9
330
A0A
100
AcDbEntity
  8
0
 62
     0
100
AcDbTrace
 10
1851.746676905139
 20
654.4069691744752
 30
0.0
 11
1851.746676905139
 21
654.3469691744753
 31
0.0
 12
1851.566676905139
 22
654.3769691744752
 32
0.0
 13
1851.566676905139
 23
654.3769691744752
 33
0.0
  0
MTEXT
  5
DBA
330
A0A
100
AcDbEntity
  8
0
 62
     0
100
AcDbMText
 10
1889.066676905139
 20
654.3769691744752
 30
0.0
 40
15.0
 41
0.0
 46
0.0
 71
     5
 72
     1
  1
\A1;75.0
 73
     1
 44
1.0
  0
POINT
  5
DBB
330
A0A
100
AcDbEntity
  8
Defpoints
 62
     0
100
AcDbPoint
 10
1926.566676905139
 20
660.3006236029933
 30
0.0
  0
POINT
  5
DBC
330
A0A
100
AcDbEntity
  8
Defpoints
 62
     0
100
AcDbPoint
 10
1851.566676905139
 20
660.3006236029933
 30
0.0
  0
POINT
  5
DBD
330
A0A
100
AcDbEntity
  8
Defpoints
 62
     0
100
AcDbPoint
 10
1851.566676905139
 20
654.3769691744752
 30
0.0
  0
ENDBLK
  5
A16
330
A0A
100
AcDbEntity
  8
0
100
AcDbBlockEnd
  0
BLOCK
  5
A22
330
A17
100
AcDbEntity
  8
0
100
AcDbBlockBegin
  2
*D54
 70
     1
 10
0.0
 20
0.0
 30
0.0
  3
*D54
  1

  0
LINE
  5
DBE
330
A17
100
AcDbEntity
  8
0
 62
     0
370
    -2
100
AcDbLine
 10
1926.566676905139
 20
267.8066927333376
 30
0.0
 11
1926.566676905139
 21
269.5520119593205
 31
0.0
  0
LINE
  5
DBF
330
A17
100
AcDbEntity
  8
0
 62
     0
370
    -2
100
AcDbLine
 10
1851.566676905139
 20
267.8066927333376
 30
0.0
 11
1851.566676905139
 21
269.5520119593205
 31
0.0
  0
LINE
  5
DC0
330
A17
100
AcDbEntity
  8
0
 62
     0
370
    -2
100
AcDbLine
 10
1926.38667690514
 20
269.3720119593205
 30
0.0
 11
1910.406676905139
 21
269.3720119593205
 31
0.0
  0
LINE
  5
DC1
330
A17
100
AcDbEntity
  8
0
 62
     0
370
    -2
100
AcDbLine
 10
1851.74667690514
 20
269.3720119593205
 30
0.0
 11
1867.72667690514
 21
269.3720119593205
 31
0.0
  0
SOLID
  5
DC2
330
A17
100
AcDbEntity
  8
0
 62
     0
100
AcDbTrace
 10
1926.38667690514
 20
269.4020119593205
 30
0.0
 11
1926.38667690514
 21
269.3420119593205
 31
0.0
 12
1926.566676905139
 22
269.3720119593205
 32
0.0
 13
1926.566676905139
 23
269.3720119593205
 33
0.0
  0
SOLID
  5
DC3
330
A17
100
AcDbEntity
  8
0
 62
     0
100
AcDbTrace
 10
1851.74667690514
 20
269.4020119593205
 30
0.0
 11
1851.74667690514
 21
269.3420119593205
 31
0.0
 12
1851.566676905139
 22
269.3720119593205
 32
0.0
 13
1851.566676905139
 23
269.3720119593205
 33
0.0
  0
MTEXT
  5
DC4
330
A17
100
AcDbEntity
  8
0
 62
     0
100
AcDbMText
 10
1889.066676905139
 20
269.3720119593205
 30
0.0
 40
15.0
 41
0.0
 46
0.0
 71
     5
 72
     1
  1
\A1;75.0
 73
     1
 44
1.0
  0
POINT
  5
DC5
330
A17
100
AcDbEntity
  8
Defpoints
 62
     0
100
AcDbPoint
 10
1926.566676905139
 20
267.7441927333376
 30
0.0
  0
POINT
  5
DC6
330
A17
100
AcDbEntity
  8
Defpoints
 62
     0
100
AcDbPoint
 10
1851.566676905139
 20
267.7441927333376
 30
0.0
  0
POINT
  5
DC7
330
A17
100
AcDbEntity
  8
Defpoints
 62
     0
100
AcDbPoint
 10
1851.566676905139
 20
269.3720119593205
 30
0.0
  0
ENDBLK
  5
A23
330
A17
100
AcDbEntity
  8
0
100
AcDbBlockEnd
  0
BLOCK
  5
A2F
330
A24
100
AcDbEntity
  8
0
100
AcDbBlockBegin
  2
*D55
 70
     1
 10
0.0
 20
0.0
 30
0.0
  3
*D55
  1

  0
LINE
  5
DC8
330
A24
100
AcDbEntity
  8
0
 62
     0
370
    -2
100
AcDbLine
 10
1927.56667690514
 20
430.0849033686207
 30
0.0
 11
1927.56667690514
 21
452.0698523178256
 31
0.0
  0
LINE
  5
DC9
330
A24
100
AcDbEntity
  8
0
 62
     0
370
    -2
100
AcDbLine
 10
1845.566676905139
 20
430.0849033686203
 30
0.0
 11
1845.566676905139
 21
452.0698523178256
 31
0.0
  0
LINE
  5
DCA
330
A24
100
AcDbEntity
  8
0
 62
     0
370
    -2
100
AcDbLine
 10
1927.38667690514
 20
451.8898523178257
 30
0.0
 11
1907.90667690514
 21
451.8898523178257
 31
0.0
  0
LINE
  5
DCB
330
A24
100
AcDbEntity
  8
0
 62
     0
370
    -2
100
AcDbLine
 10
1845.74667690514
 20
451.8898523178257
 30
0.0
 11
1865.226676905139
 21
451.8898523178257
 31
0.0
  0
SOLID
  5
DCC
330
A24
100
AcDbEntity
  8
0
 62
     0
100
AcDbTrace
 10
1927.38667690514
 20
451.9198523178257
 30
0.0
 11
1927.38667690514
 21
451.8598523178257
 31
0.0
 12
1927.56667690514
 22
451.8898523178257
 32
0.0
 13
1927.56667690514
 23
451.8898523178257
 33
0.0
  0
SOLID
  5
DCD
330
A24
100
AcDbEntity
  8
0
 62
     0
100
AcDbTrace
 10
1845.74667690514
 20
451.9198523178257
 30
0.0
 11
1845.74667690514
 21
451.8598523178257
 31
0.0
 12
1845.566676905139
 22
451.8898523178257
 32
0.0
 13
1845.566676905139
 23
451.8898523178257
 33
0.0
  0
MTEXT
  5
DCE
330
A24
100
AcDbEntity
  8
0
 62
     0
100
AcDbMText
 10
1886.56667690514
 20
451.8898523178257
 30
0.0
 40
15.0
 41
0.0
 46
0.0
 71
     5
 72
     1
  1
\A1;82.0
 73
     1
 44
1.0
  0
POINT
  5
DCF
330
A24
100
AcDbEntity
  8
Defpoints
 62
     0
100
AcDbPoint
 10
1927.56667690514
 20
430.0224033686204
 30
0.0
  0
POINT
  5
DD0
330
A24
100
AcDbEntity
  8
Defpoints
 62
     0
100
AcDbPoint
 10
1845.566676905139
 20
430.0224033686203
 30
0.0
  0
POINT
  5
DD1
330
A24
100
AcDbEntity
  8
Defpoints
 62
     0
100
AcDbPoint
 10
1845.566676905139
 20
451.8898523178257
 30
0.0
  0
ENDBLK
  5
A30
330
A24
100
AcDbEntity
  8
0
100
AcDbBlockEnd
  0
BLOCK
  5
A3C
330
A31
100
AcDbEntity
  8
0
100
AcDbBlockBegin
  2
*D56
 70
     1
 10
0.0
 20
0.0
 30
0.0
  3
*D56
  1

  0
LINE
  5
DD2
330
A31
100
AcDbEntity
  8
0
 62
     0
370
    -2
100
AcDbLine
 10
1793.56667690514
 20
150.2657002599599
 30
0.0
 11
1793.56667690514
 21
64.99459515651381
 31
0.0
  0
LINE
  5
DD3
330
A31
100
AcDbEntity
  8
0
 62
     0
370
    -2
100
AcDbLine
 10
2319.566676905139
 20
150.2657002599599
 30
0.0
 11
2319.566676905139
 21
64.99459515651381
 31
0.0
  0
LINE
  5
DD4
330
A31
100
AcDbEntity
  8
0
 62
     0
370
    -2
100
AcDbLine
 10
1793.74667690514
 20
65.17459515651381
 30
0.0
 11
2027.72667690514
 21
65.17459515651381
 31
0.0
  0
LINE
  5
DD5
330
A31
100
AcDbEntity
  8
0
 62
     0
370
    -2
100
AcDbLine
 10
2319.38667690514
 20
65.17459515651381
 30
0.0
 11
2085.40667690514
 21
65.17459515651381
 31
0.0
  0
SOLID
  5
DD6
330
A31
100
AcDbEntity
  8
0
 62
     0
100
AcDbTrace
 10
1793.74667690514
 20
65.20459515651381
 30
0.0
 11
1793.74667690514
 21
65.14459515651381
 31
0.0
 12
1793.56667690514
 22
65.17459515651381
 32
0.0
 13
1793.56667690514
 23
65.17459515651381
 33
0.0
  0
SOLID
  5
DD7
330
A31
100
AcDbEntity
  8
0
 62
     0
100
AcDbTrace
 10
2319.38667690514
 20
65.20459515651381
 30
0.0
 11
2319.38667690514
 21
65.14459515651381
 31
0.0
 12
2319.566676905139
 22
65.17459515651381
 32
0.0
 13
2319.566676905139
 23
65.17459515651381
 33
0.0
  0
MTEXT
  5
DD8
330
A31
100
AcDbEntity
  8
0
 62
     0
100
AcDbMText
 10
2056.56667690514
 20
65.17459515651381
 30
0.0
 40
15.0
 41
0.0
 46
0.0
 71
     5
 72
     1
  1
\A1;526.0
 73
     1
 44
1.0
  0
POINT
  5
DD9
330
A31
100
AcDbEntity
  8
Defpoints
 62
     0
100
AcDbPoint
 10
1793.56667690514
 20
150.3282002599599
 30
0.0
  0
POINT
  5
DDA
330
A31
100
AcDbEntity
  8
Defpoints
 62
     0
100
AcDbPoint
 10
2319.566676905139
 20
150.3282002599599
 30
0.0
  0
POINT
  5
DDB
330
A31
100
AcDbEntity
  8
Defpoints
 62
     0
100
AcDbPoint
 10
2319.566676905139
 20
65.17459515651381
 30
0.0
  0
ENDBLK
  5
A3D
330
A31
100
AcDbEntity
  8
0
100
AcDbBlockEnd
  0
BLOCK
  5
A49
330
A3E
100
AcDbEntity
  8
0
100
AcDbBlockBegin
  2
*D57
 70
     1
 10
0.0
 20
0.0
 30
0.0
  3
*D57
  1

  0
LINE
  5
DDC
330
A3E
100
AcDbEntity
  8
0
 62
     0
370
    -2
100
AcDbLine
 10
2180.734916876108
 20
95.30062360299329
 30
0.0
 11
2408.609886290146
 21
95.3006236029932
 31
0.0
  0
LINE
  5
DDD
330
A3E
100
AcDbEntity
  8
0
 62
     0
370
    -2
100
AcDbLine
 10
2185.629176905139
 20
944.3006236029933
 30
0.0
 11
2408.609886290146
 21
944.300623602993
 31
0.0
  0
LINE
  5
DDE
330
A3E
100
AcDbEntity
  8
0
 62
     0
370
    -2
100
AcDbLine
 10
2408.429886290146
 20
95.48062360299322
 30
0.0
 11
2408.429886290146
 21
512.2106236029931
 31
0.0
  0
LINE
  5
DDF
330
A3E
100
AcDbEntity
  8
0
 62
     0
370
    -2
100
AcDbLine
 10
2408.429886290146
 20
944.1206236029927
 30
0.0
 11
2408.429886290146
 21
527.390623602993
 31
0.0
  0
SOLID
  5
DE0
330
A3E
100
AcDbEntity
  8
0
 62
     0
100
AcDbTrace
 10
2408.399886290146
 20
95.48062360299322
 30
0.0
 11
2408.459886290146
 21
95.48062360299322
 31
0.0
 12
2408.429886290146
 22
95.3006236029932
 32
0.0
 13
2408.429886290146
 23
95.3006236029932
 33
0.0
  0
SOLID
  5
DE1
330
A3E
100
AcDbEntity
  8
0
 62
     0
100
AcDbTrace
 10
2408.399886290146
 20
944.1206236029927
 30
0.0
 11
2408.459886290146
 21
944.1206236029927
 31
0.0
 12
2408.429886290146
 22
944.300623602993
 32
0.0
 13
2408.429886290146
 23
944.300623602993
 33
0.0
  0
MTEXT
  5
DE2
330
A3E
100
AcDbEntity
  8
0
 62
     0
100
AcDbMText
 10
2408.429886290146
 20
519.8006236029936
 30
0.0
 40
15.0
 41
0.0
 46
0.0
 71
     5
 72
     1
  1
\A1;849.0
 73
     1
 44
1.0
  0
POINT
  5
DE3
330
A3E
100
AcDbEntity
  8
Defpoints
 62
     0
100
AcDbPoint
 10
2180.672416876108
 20
95.30062360299329
 30
0.0
  0
POINT
  5
DE4
330
A3E
100
AcDbEntity
  8
Defpoints
 62
     0
100
AcDbPoint
 10
2185.56667690514
 20
944.3006236029933
 30
0.0
  0
POINT
  5
DE5
330
A3E
100
AcDbEntity
  8
Defpoints
 62
     0
100
AcDbPoint
 10
2408.429886290146
 20
944.300623602993
 30
0.0
  0
ENDBLK
  5
A4A
330
A3E
100
AcDbEntity
  8
0
100
AcDbBlockEnd
  0
BLOCK
  5
CEA
330
CDF
100
AcDbEntity
  8
0
100
AcDbBlockBegin
  2
*D58
 70
     1
 10
0.0
 20
0.0
 30
0.0
  3
*D58
  1

  0
LINE
  5
F44
330
CDF
100
AcDbEntity
  8
0
 62
     0
370
    -2
100
AcDbLine
 10
2841.671599148633
 20
167.4385047696009
 30
0.0
 11
2841.671599148633
 21
170.9221670890885
 31
0.0
  0
LINE
  5
F45
330
CDF
100
AcDbEntity
  8
0
 62
     0
370
    -2
100
AcDbLine
 10
3146.671599148633
 20
167.4385047696009
 30
0.0
 11
3146.671599148633
 21
170.9221670890885
 31
0.0
  0
LINE
  5
F46
330
CDF
100
AcDbEntity
  8
0
 62
     0
370
    -2
100
AcDbLine
 10
2841.851599148633
 20
170.7421670890885
 30
0.0
 11
2966.581599148632
 21
170.7421670890885
 31
0.0
  0
LINE
  5
F47
330
CDF
100
AcDbEntity
  8
0
 62
     0
370
    -2
100
AcDbLine
 10
3146.491599148633
 20
170.7421670890885
 30
0.0
 11
3021.761599148633
 21
170.7421670890885
 31
0.0
  0
SOLID
  5
F48
330
CDF
100
AcDbEntity
  8
0
 62
     0
100
AcDbTrace
 10
2841.851599148633
 20
170.7721670890885
 30
0.0
 11
2841.851599148633
 21
170.7121670890885
 31
0.0
 12
2841.671599148633
 22
170.7421670890885
 32
0.0
 13
2841.671599148633
 23
170.7421670890885
 33
0.0
  0
SOLID
  5
F49
330
CDF
100
AcDbEntity
  8
0
 62
     0
100
AcDbTrace
 10
3146.491599148633
 20
170.7721670890885
 30
0.0
 11
3146.491599148633
 21
170.7121670890885
 31
0.0
 12
3146.671599148633
 22
170.7421670890885
 32
0.0
 13
3146.671599148633
 23
170.7421670890885
 33
0.0
  0
MTEXT
  5
F4A
330
CDF
100
AcDbEntity
  8
0
 62
     0
100
AcDbMText
 10
2994.171599148632
 20
170.7421670890885
 30
0.0
 40
15.0
 41
0.0
 46
0.0
 71
     5
 72
     1
  1
\A1;305.0
 73
     1
 44
1.0
  0
POINT
  5
F4B
330
CDF
100
AcDbEntity
  8
Defpoints
 62
     0
100
AcDbPoint
 10
2841.671599148633
 20
167.3760047696009
 30
0.0
  0
POINT
  5
F4C
330
CDF
100
AcDbEntity
  8
Defpoints
 62
     0
100
AcDbPoint
 10
3146.671599148633
 20
167.3760047696009
 30
0.0
  0
POINT
  5
F4D
330
CDF
100
AcDbEntity
  8
Defpoints
 62
     0
100
AcDbPoint
 10
3146.671599148633
 20
170.7421670890885
 30
0.0
  0
ENDBLK
  5
CEB
330
CDF
100
AcDbEntity
  8
0
100
AcDbBlockEnd
  0
BLOCK
  5
D01
330
CF6
100
AcDbEntity
  8
0
100
AcDbBlockBegin
  2
*D59
 70
     1
 10
0.0
 20
0.0
 30
0.0
  3
*D59
  1

  0
LINE
  5
F58
330
CF6
100
AcDbEntity
  8
0
 62
     0
370
    -2
100
AcDbLine
 10
3103.48491311858
 20
398.8006236029935
 30
0.0
 11
3103.367413118581
 21
398.8006236029935
 31
0.0
  0
LINE
  5
F59
330
CF6
100
AcDbEntity
  8
0
 62
     0
370
    -2
100
AcDbLine
 10
3103.48491311858
 20
93.80062360299351
 30
0.0
 11
3103.367413118581
 21
93.80062360299351
 31
0.0
  0
LINE
  5
F5A
330
CF6
100
AcDbEntity
  8
0
 62
     0
370
    -2
100
AcDbLine
 10
3103.54741311858
 20
398.6206236029935
 30
0.0
 11
3103.54741311858
 21
253.8906236029935
 31
0.0
  0
LINE
  5
F5B
330
CF6
100
AcDbEntity
  8
0
 62
     0
370
    -2
100
AcDbLine
 10
3103.54741311858
 20
93.9806236029935
 30
0.0
 11
3103.54741311858
 21
238.7106236029935
 31
0.0
  0
SOLID
  5
F5C
330
CF6
100
AcDbEntity
  8
0
 62
     0
100
AcDbTrace
 10
3103.517413118579
 20
398.6206236029935
 30
0.0
 11
3103.577413118581
 21
398.6206236029935
 31
0.0
 12
3103.54741311858
 22
398.8006236029935
 32
0.0
 13
3103.54741311858
 23
398.8006236029935
 33
0.0
  0
SOLID
  5
F5D
330
CF6
100
AcDbEntity
  8
0
 62
     0
100
AcDbTrace
 10
3103.517413118579
 20
93.9806236029935
 30
0.0
 11
3103.577413118581
 21
93.9806236029935
 31
0.0
 12
3103.54741311858
 22
93.80062360299351
 32
0.0
 13
3103.54741311858
 23
93.80062360299351
 33
0.0
  0
MTEXT
  5
F5E
330
CF6
100
AcDbEntity
  8
0
 62
     0
100
AcDbMText
 10
3103.54741311858
 20
246.300623602994
 30
0.0
 40
15.0
 41
0.0
 46
0.0
 71
     5
 72
     1
  1
\A1;305.0
 73
     1
 44
1.0
  0
POINT
  5
F5F
330
CF6
100
AcDbEntity
  8
Defpoints
 62
     0
100
AcDbPoint
 10
3103.54741311858
 20
398.8006236029935
 30
0.0
  0
POINT
  5
F60
330
CF6
100
AcDbEntity
  8
Defpoints
 62
     0
100
AcDbPoint
 10
3103.54741311858
 20
93.80062360299351
 30
0.0
  0
POINT
  5
F61
330
CF6
100
AcDbEntity
  8
Defpoints
 62
     0
100
AcDbPoint
 10
3103.54741311858
 20
93.80062360299351
 30
0.0
  0
ENDBLK
  5
D02
330
CF6
100
AcDbEntity
  8
0
100
AcDbBlockEnd
  0
BLOCK
  5
D0E
330
D03
100
AcDbEntity
  8
0
100
AcDbBlockBegin
  2
*D60
 70
     1
 10
0.0
 20
0.0
 30
0.0
  3
*D60
  1

  0
LINE
  5
F4E
330
D03
100
AcDbEntity
  8
0
 62
     0
370
    -2
100
AcDbLine
 10
2994.109099148633
 20
553.8006236029935
 30
0.0
 11
2980.1291410076
 21
553.8006236029935
 31
0.0
  0
LINE
  5
F4F
330
D03
100
AcDbEntity
  8
0
 62
     0
370
    -2
100
AcDbLine
 10
2994.109099148633
 20
398.8006236029935
 30
0.0
 11
2980.1291410076
 21
398.8006236029935
 31
0.0
  0
LINE
  5
F50
330
D03
100
AcDbEntity
  8
0
 62
     0
370
    -2
100
AcDbLine
 10
2980.3091410076
 20
553.6206236029934
 30
0.0
 11
2980.3091410076
 21
483.8906236029933
 31
0.0
  0
LINE
  5
F51
330
D03
100
AcDbEntity
  8
0
 62
     0
370
    -2
100
AcDbLine
 10
2980.3091410076
 20
398.9806236029935
 30
0.0
 11
2980.3091410076
 21
468.7106236029934
 31
0.0
  0
SOLID
  5
F52
330
D03
100
AcDbEntity
  8
0
 62
     0
100
AcDbTrace
 10
2980.2791410076
 20
553.6206236029934
 30
0.0
 11
2980.339141007601
 21
553.6206236029934
 31
0.0
 12
2980.3091410076
 22
553.8006236029935
 32
0.0
 13
2980.3091410076
 23
553.8006236029935
 33
0.0
  0
SOLID
  5
F53
330
D03
100
AcDbEntity
  8
0
 62
     0
100
AcDbTrace
 10
2980.2791410076
 20
398.9806236029935
 30
0.0
 11
2980.339141007601
 21
398.9806236029935
 31
0.0
 12
2980.3091410076
 22
398.8006236029935
 32
0.0
 13
2980.3091410076
 23
398.8006236029935
 33
0.0
  0
MTEXT
  5
F54
330
D03
100
AcDbEntity
  8
0
 62
     0
100
AcDbMText
 10
2980.3091410076
 20
476.300623602994
 30
0.0
 40
15.0
 41
0.0
 46
0.0
 71
     5
 72
     1
  1
\A1;155.0
 73
     1
 44
1.0
  0
POINT
  5
F55
330
D03
100
AcDbEntity
  8
Defpoints
 62
     0
100
AcDbPoint
 10
2994.171599148632
 20
553.8006236029935
 30
0.0
  0
POINT
  5
F56
330
D03
100
AcDbEntity
  8
Defpoints
 62
     0
100
AcDbPoint
 10
2994.171599148632
 20
398.8006236029935
 30
0.0
  0
POINT
  5
F57
330
D03
100
AcDbEntity
  8
Defpoints
 62
     0
100
AcDbPoint
 10
2980.3091410076
 20
398.8006236029935
 30
0.0
  0
ENDBLK
  5
D0F
330
D03
100
AcDbEntity
  8
0
100
AcDbBlockEnd
  0
BLOCK
  5
D1B
330
D10
100
AcDbEntity
  8
0
100
AcDbBlockBegin
  2
*D61
 70
     1
 10
0.0
 20
0.0
 30
0.0
  3
*D61
  1

  0
LINE
  5
FA8
330
D10
100
AcDbEntity
  8
0
 62
     0
370
    -2
100
AcDbLine
 10
3146.671599148633
 20
706.2381236029935
 30
0.0
 11
3146.671599148633
 21
700.1969691744752
 31
0.0
  0
LINE
  5
FA9
330
D10
100
AcDbEntity
  8
0
 62
     0
370
    -2
100
AcDbLine
 10
3221.671599148633
 20
706.2381236029935
 30
0.0
 11
3221.671599148633
 21
700.1969691744752
 31
0.0
  0
LINE
  5
FAA
330
D10
100
AcDbEntity
  8
0
 62
     0
370
    -2
100
AcDbLine
 10
3146.851599148633
 20
700.3769691744751
 30
0.0
 11
3162.831599148633
 21
700.3769691744751
 31
0.0
  0
LINE
  5
FAB
330
D10
100
AcDbEntity
  8
0
 62
     0
370
    -2
100
AcDbLine
 10
3221.491599148635
 20
700.3769691744751
 30
0.0
 11
3205.511599148632
 21
700.3769691744751
 31
0.0
  0
SOLID
  5
FAC
330
D10
100
AcDbEntity
  8
0
 62
     0
100
AcDbTrace
 10
3146.851599148633
 20
700.4069691744749
 30
0.0
 11
3146.851599148633
 21
700.3469691744751
 31
0.0
 12
3146.671599148633
 22
700.3769691744751
 32
0.0
 13
3146.671599148633
 23
700.3769691744751
 33
0.0
  0
SOLID
  5
FAD
330
D10
100
AcDbEntity
  8
0
 62
     0
100
AcDbTrace
 10
3221.491599148635
 20
700.4069691744749
 30
0.0
 11
3221.491599148635
 21
700.3469691744751
 31
0.0
 12
3221.671599148633
 22
700.3769691744751
 32
0.0
 13
3221.671599148633
 23
700.3769691744751
 33
0.0
  0
MTEXT
  5
FAE
330
D10
100
AcDbEntity
  8
0
 62
     0
100
AcDbMText
 10
3184.171599148633
 20
700.3769691744751
 30
0.0
 40
15.0
 41
0.0
 46
0.0
 71
     5
 72
     1
  1
\A1;75.0
 73
     1
 44
1.0
  0
POINT
  5
FAF
330
D10
100
AcDbEntity
  8
Defpoints
 62
     0
100
AcDbPoint
 10
3146.671599148633
 20
706.3006236029933
 30
0.0
  0
POINT
  5
FB0
330
D10
100
AcDbEntity
  8
Defpoints
 62
     0
100
AcDbPoint
 10
3221.671599148633
 20
706.3006236029933
 30
0.0
  0
POINT
  5
FB1
330
D10
100
AcDbEntity
  8
Defpoints
 62
     0
100
AcDbPoint
 10
3221.671599148633
 20
700.3769691744751
 30
0.0
  0
ENDBLK
  5
D1C
330
D10
100
AcDbEntity
  8
0
100
AcDbBlockEnd
  0
BLOCK
  5
D28
330
D1D
100
AcDbEntity
  8
0
100
AcDbBlockBegin
  2
*D62
 70
     1
 10
0.0
 20
0.0
 30
0.0
  3
*D62
  1

  0
LINE
  5
F1C
330
D1D
100
AcDbEntity
  8
0
 62
     0
370
    -2
100
AcDbLine
 10
3146.671599148633
 20
272.7212687444444
 30
0.0
 11
3146.671599148633
 21
274.4665879704273
 31
0.0
  0
LINE
  5
F1D
330
D1D
100
AcDbEntity
  8
0
 62
     0
370
    -2
100
AcDbLine
 10
3221.671599148633
 20
272.7212687444444
 30
0.0
 11
3221.671599148633
 21
274.4665879704273
 31
0.0
  0
LINE
  5
F1E
330
D1D
100
AcDbEntity
  8
0
 62
     0
370
    -2
100
AcDbLine
 10
3146.851599148633
 20
274.2865879704273
 30
0.0
 11
3162.831599148633
 21
274.2865879704273
 31
0.0
  0
LINE
  5
F1F
330
D1D
100
AcDbEntity
  8
0
 62
     0
370
    -2
100
AcDbLine
 10
3221.491599148633
 20
274.2865879704273
 30
0.0
 11
3205.511599148632
 21
274.2865879704273
 31
0.0
  0
SOLID
  5
F20
330
D1D
100
AcDbEntity
  8
0
 62
     0
100
AcDbTrace
 10
3146.851599148633
 20
274.3165879704272
 30
0.0
 11
3146.851599148633
 21
274.2565879704273
 31
0.0
 12
3146.671599148633
 22
274.2865879704273
 32
0.0
 13
3146.671599148633
 23
274.2865879704273
 33
0.0
  0
SOLID
  5
F21
330
D1D
100
AcDbEntity
  8
0
 62
     0
100
AcDbTrace
 10
3221.491599148633
 20
274.3165879704272
 30
0.0
 11
3221.491599148633
 21
274.2565879704273
 31
0.0
 12
3221.671599148633
 22
274.2865879704273
 32
0.0
 13
3221.671599148633
 23
274.2865879704273
 33
0.0
  0
MTEXT
  5
F22
330
D1D
100
AcDbEntity
  8
0
 62
     0
100
AcDbMText
 10
3184.171599148633
 20
274.2865879704273
 30
0.0
 40
15.0
 41
0.0
 46
0.0
 71
     5
 72
     1
  1
\A1;75.0
 73
     1
 44
1.0
  0
POINT
  5
F23
330
D1D
100
AcDbEntity
  8
Defpoints
 62
     0
100
AcDbPoint
 10
3146.671599148633
 20
272.6587687444444
 30
0.0
  0
POINT
  5
F24
330
D1D
100
AcDbEntity
  8
Defpoints
 62
     0
100
AcDbPoint
 10
3221.671599148633
 20
272.6587687444444
 30
0.0
  0
POINT
  5
F25
330
D1D
100
AcDbEntity
  8
Defpoints
 62
     0
100
AcDbPoint
 10
3221.671599148633
 20
274.2865879704273
 30
0.0
  0
ENDBLK
  5
D29
330
D1D
100
AcDbEntity
  8
0
100
AcDbBlockEnd
  0
BLOCK
  5
D35
330
D2A
100
AcDbEntity
  8
0
100
AcDbBlockBegin
  2
*D63
 70
     1
 10
0.0
 20
0.0
 30
0.0
  3
*D63
  1

  0
LINE
  5
F12
330
D2A
100
AcDbEntity
  8
0
 62
     0
370
    -2
100
AcDbLine
 10
3145.671599148633
 20
453.5849033686209
 30
0.0
 11
3145.671599148633
 21
475.5698523178256
 31
0.0
  0
LINE
  5
F13
330
D2A
100
AcDbEntity
  8
0
 62
     0
370
    -2
100
AcDbLine
 10
3227.671599148633
 20
453.5849033686205
 30
0.0
 11
3227.671599148633
 21
475.5698523178256
 31
0.0
  0
LINE
  5
F14
330
D2A
100
AcDbEntity
  8
0
 62
     0
370
    -2
100
AcDbLine
 10
3145.851599148633
 20
475.3898523178256
 30
0.0
 11
3165.331599148633
 21
475.3898523178256
 31
0.0
  0
LINE
  5
F15
330
D2A
100
AcDbEntity
  8
0
 62
     0
370
    -2
100
AcDbLine
 10
3227.491599148633
 20
475.3898523178256
 30
0.0
 11
3208.011599148633
 21
475.3898523178256
 31
0.0
  0
SOLID
  5
F16
330
D2A
100
AcDbEntity
  8
0
 62
     0
100
AcDbTrace
 10
3145.851599148633
 20
475.4198523178256
 30
0.0
 11
3145.851599148633
 21
475.359852317826
 31
0.0
 12
3145.671599148633
 22
475.3898523178256
 32
0.0
 13
3145.671599148633
 23
475.3898523178256
 33
0.0
  0
SOLID
  5
F17
330
D2A
100
AcDbEntity
  8
0
 62
     0
100
AcDbTrace
 10
3227.491599148633
 20
475.4198523178256
 30
0.0
 11
3227.491599148633
 21
475.359852317826
 31
0.0
 12
3227.671599148633
 22
475.3898523178256
 32
0.0
 13
3227.671599148633
 23
475.3898523178256
 33
0.0
  0
MTEXT
  5
F18
330
D2A
100
AcDbEntity
  8
0
 62
     0
100
AcDbMText
 10
3186.671599148633
 20
475.3898523178256
 30
0.0
 40
15.0
 41
0.0
 46
0.0
 71
     5
 72
     1
  1
\A1;82.0
 73
     1
 44
1.0
  0
POINT
  5
F19
330
D2A
100
AcDbEntity
  8
Defpoints
 62
     0
100
AcDbPoint
 10
3145.671599148633
 20
453.5224033686209
 30
0.0
  0
POINT
  5
F1A
330
D2A
100
AcDbEntity
  8
Defpoints
 62
     0
100
AcDbPoint
 10
3227.671599148633
 20
453.5224033686205
 30
0.0
  0
POINT
  5
F1B
330
D2A
100
AcDbEntity
  8
Defpoints
 62
     0
100
AcDbPoint
 10
3227.671599148633
 20
475.3898523178256
 30
0.0
  0
ENDBLK
  5
D36
330
D2A
100
AcDbEntity
  8
0
100
AcDbBlockEnd
  0
BLOCK
  5
D42
330
D37
100
AcDbEntity
  8
0
100
AcDbBlockBegin
  2
*D64
 70
     1
 10
0.0
 20
0.0
 30
0.0
  3
*D64
  1

  0
LINE
  5
F9E
330
D37
100
AcDbEntity
  8
0
 62
     0
370
    -2
100
AcDbLine
 10
2841.671599148633
 20
706.2381236029935
 30
0.0
 11
2841.671599148633
 21
700.1969691744748
 31
0.0
  0
LINE
  5
F9F
330
D37
100
AcDbEntity
  8
0
 62
     0
370
    -2
100
AcDbLine
 10
2766.671599148633
 20
706.2381236029935
 30
0.0
 11
2766.671599148633
 21
700.1969691744748
 31
0.0
  0
LINE
  5
FA0
330
D37
100
AcDbEntity
  8
0
 62
     0
370
    -2
100
AcDbLine
 10
2841.491599148633
 20
700.3769691744746
 30
0.0
 11
2825.511599148633
 21
700.3769691744746
 31
0.0
  0
LINE
  5
FA1
330
D37
100
AcDbEntity
  8
0
 62
     0
370
    -2
100
AcDbLine
 10
2766.851599148632
 20
700.3769691744746
 30
0.0
 11
2782.831599148633
 21
700.3769691744746
 31
0.0
  0
SOLID
  5
FA2
330
D37
100
AcDbEntity
  8
0
 62
     0
100
AcDbTrace
 10
2841.491599148633
 20
700.4069691744746
 30
0.0
 11
2841.491599148633
 21
700.3469691744746
 31
0.0
 12
2841.671599148633
 22
700.3769691744746
 32
0.0
 13
2841.671599148633
 23
700.3769691744746
 33
0.0
  0
SOLID
  5
FA3
330
D37
100
AcDbEntity
  8
0
 62
     0
100
AcDbTrace
 10
2766.851599148632
 20
700.4069691744746
 30
0.0
 11
2766.851599148632
 21
700.3469691744746
 31
0.0
 12
2766.671599148633
 22
700.3769691744746
 32
0.0
 13
2766.671599148633
 23
700.3769691744746
 33
0.0
  0
MTEXT
  5
FA4
330
D37
100
AcDbEntity
  8
0
 62
     0
100
AcDbMText
 10
2804.171599148633
 20
700.3769691744746
 30
0.0
 40
15.0
 41
0.0
 46
0.0
 71
     5
 72
     1
  1
\A1;75.0
 73
     1
 44
1.0
  0
POINT
  5
FA5
330
D37
100
AcDbEntity
  8
Defpoints
 62
     0
100
AcDbPoint
 10
2841.671599148633
 20
706.3006236029933
 30
0.0
  0
POINT
  5
FA6
330
D37
100
AcDbEntity
  8
Defpoints
 62
     0
100
AcDbPoint
 10
2766.671599148633
 20
706.3006236029933
 30
0.0
  0
POINT
  5
FA7
330
D37
100
AcDbEntity
  8
Defpoints
 62
     0
100
AcDbPoint
 10
2766.671599148633
 20
700.3769691744746
 30
0.0
  0
ENDBLK
  5
D43
330
D37
100
AcDbEntity
  8
0
100
AcDbBlockEnd
  0
BLOCK
  5
D4F
330
D44
100
AcDbEntity
  8
0
100
AcDbBlockBegin
  2
*D65
 70
     1
 10
0.0
 20
0.0
 30
0.0
  3
*D65
  1

  0
LINE
  5
E9A
330
D44
100
AcDbEntity
  8
0
 62
     0
370
    -2
100
AcDbLine
 10
2841.671599148633
 20
272.7212687444444
 30
0.0
 11
2841.671599148633
 21
274.4665879704273
 31
0.0
  0
LINE
  5
E9B
330
D44
100
AcDbEntity
  8
0
 62
     0
370
    -2
100
AcDbLine
 10
2766.671599148633
 20
272.7212687444444
 30
0.0
 11
2766.671599148633
 21
274.4665879704273
 31
0.0
  0
LINE
  5
E9C
330
D44
100
AcDbEntity
  8
0
 62
     0
370
    -2
100
AcDbLine
 10
2841.491599148633
 20
274.2865879704273
 30
0.0
 11
2825.511599148633
 21
274.2865879704273
 31
0.0
  0
LINE
  5
E9D
330
D44
100
AcDbEntity
  8
0
 62
     0
370
    -2
100
AcDbLine
 10
2766.851599148632
 20
274.2865879704273
 30
0.0
 11
2782.831599148633
 21
274.2865879704273
 31
0.0
  0
SOLID
  5
E9E
330
D44
100
AcDbEntity
  8
0
 62
     0
100
AcDbTrace
 10
2841.491599148633
 20
274.3165879704272
 30
0.0
 11
2841.491599148633
 21
274.2565879704273
 31
0.0
 12
2841.671599148633
 22
274.2865879704273
 32
0.0
 13
2841.671599148633
 23
274.2865879704273
 33
0.0
  0
SOLID
  5
E9F
330
D44
100
AcDbEntity
  8
0
 62
     0
100
AcDbTrace
 10
2766.851599148632
 20
274.3165879704272
 30
0.0
 11
2766.851599148632
 21
274.2565879704273
 31
0.0
 12
2766.671599148633
 22
274.2865879704273
 32
0.0
 13
2766.671599148633
 23
274.2865879704273
 33
0.0
  0
MTEXT
  5
EA0
330
D44
100
AcDbEntity
  8
0
 62
     0
100
AcDbMText
 10
2804.171599148633
 20
274.2865879704273
 30
0.0
 40
15.0
 41
0.0
 46
0.0
 71
     5
 72
     1
  1
\A1;75.0
 73
     1
 44
1.0
  0
POINT
  5
EA1
330
D44
100
AcDbEntity
  8
Defpoints
 62
     0
100
AcDbPoint
 10
2841.671599148633
 20
272.6587687444444
 30
0.0
  0
POINT
  5
EA2
330
D44
100
AcDbEntity
  8
Defpoints
 62
     0
100
AcDbPoint
 10
2766.671599148633
 20
272.6587687444444
 30
0.0
  0
POINT
  5
EA3
330
D44
100
AcDbEntity
  8
Defpoints
 62
     0
100
AcDbPoint
 10
2766.671599148633
 20
274.2865879704273
 30
0.0
  0
ENDBLK
  5
D50
330
D44
100
AcDbEntity
  8
0
100
AcDbBlockEnd
  0
BLOCK
  5
D5C
330
D51
100
AcDbEntity
  8
0
100
AcDbBlockBegin
  2
*D66
 70
     1
 10
0.0
 20
0.0
 30
0.0
  3
*D66
  1

  0
LINE
  5
E04
330
D51
100
AcDbEntity
  8
0
 62
     0
370
    -2
100
AcDbLine
 10
2842.671599148633
 20
453.5849033686209
 30
0.0
 11
2842.671599148633
 21
475.5698523178256
 31
0.0
  0
LINE
  5
E05
330
D51
100
AcDbEntity
  8
0
 62
     0
370
    -2
100
AcDbLine
 10
2760.671599148633
 20
453.5849033686205
 30
0.0
 11
2760.671599148633
 21
475.5698523178256
 31
0.0
  0
LINE
  5
E06
330
D51
100
AcDbEntity
  8
0
 62
     0
370
    -2
100
AcDbLine
 10
2842.491599148633
 20
475.3898523178256
 30
0.0
 11
2823.011599148633
 21
475.3898523178256
 31
0.0
  0
LINE
  5
E07
330
D51
100
AcDbEntity
  8
0
 62
     0
370
    -2
100
AcDbLine
 10
2760.851599148633
 20
475.3898523178256
 30
0.0
 11
2780.331599148633
 21
475.3898523178256
 31
0.0
  0
SOLID
  5
E08
330
D51
100
AcDbEntity
  8
0
 62
     0
100
AcDbTrace
 10
2842.491599148633
 20
475.4198523178256
 30
0.0
 11
2842.491599148633
 21
475.359852317826
 31
0.0
 12
2842.671599148633
 22
475.3898523178256
 32
0.0
 13
2842.671599148633
 23
475.3898523178256
 33
0.0
  0
SOLID
  5
E09
330
D51
100
AcDbEntity
  8
0
 62
     0
100
AcDbTrace
 10
2760.851599148633
 20
475.4198523178256
 30
0.0
 11
2760.851599148633
 21
475.359852317826
 31
0.0
 12
2760.671599148633
 22
475.3898523178256
 32
0.0
 13
2760.671599148633
 23
475.3898523178256
 33
0.0
  0
MTEXT
  5
E0A
330
D51
100
AcDbEntity
  8
0
 62
     0
100
AcDbMText
 10
2801.671599148633
 20
475.3898523178256
 30
0.0
 40
15.0
 41
0.0
 46
0.0
 71
     5
 72
     1
  1
\A1;82.0
 73
     1
 44
1.0
  0
POINT
  5
E0B
330
D51
100
AcDbEntity
  8
Defpoints
 62
     0
100
AcDbPoint
 10
2842.671599148633
 20
453.5224033686209
 30
0.0
  0
POINT
  5
E0C
330
D51
100
AcDbEntity
  8
Defpoints
 62
     0
100
AcDbPoint
 10
2760.671599148633
 20
453.5224033686205
 30
0.0
  0
POINT
  5
E0D
330
D51
100
AcDbEntity
  8
Defpoints
 62
     0
100
AcDbPoint
 10
2760.671599148633
 20
475.3898523178256
 30
0.0
  0
ENDBLK
  5
D5D
330
D51
100
AcDbEntity
  8
0
100
AcDbBlockEnd
  0
BLOCK
  5
D69
330
D5E
100
AcDbEntity
  8
0
100
AcDbBlockBegin
  2
*D67
 70
     1
 10
0.0
 20
0.0
 30
0.0
  3
*D67
  1

  0
LINE
  5
F08
330
D5E
100
AcDbEntity
  8
0
 62
     0
370
    -2
100
AcDbLine
 10
2708.671599148633
 20
133.0017726939922
 30
0.0
 11
2708.671599148633
 21
47.73066759054609
 31
0.0
  0
LINE
  5
F09
330
D5E
100
AcDbEntity
  8
0
 62
     0
370
    -2
100
AcDbLine
 10
3279.671599148632
 20
133.0017726939922
 30
0.0
 11
3279.671599148632
 21
47.73066759054609
 31
0.0
  0
LINE
  5
F0A
330
D5E
100
AcDbEntity
  8
0
 62
     0
370
    -2
100
AcDbLine
 10
2708.851599148633
 20
47.9106675905461
 30
0.0
 11
2967.831599148633
 21
47.9106675905461
 31
0.0
  0
LINE
  5
F0B
330
D5E
100
AcDbEntity
  8
0
 62
     0
370
    -2
100
AcDbLine
 10
3279.491599148633
 20
47.9106675905461
 30
0.0
 11
3020.511599148633
 21
47.9106675905461
 31
0.0
  0
SOLID
  5
F0C
330
D5E
100
AcDbEntity
  8
0
 62
     0
100
AcDbTrace
 10
2708.851599148633
 20
47.94066759054611
 30
0.0
 11
2708.851599148633
 21
47.88066759054609
 31
0.0
 12
2708.671599148633
 22
47.9106675905461
 32
0.0
 13
2708.671599148633
 23
47.9106675905461
 33
0.0
  0
SOLID
  5
F0D
330
D5E
100
AcDbEntity
  8
0
 62
     0
100
AcDbTrace
 10
3279.491599148633
 20
47.94066759054611
 30
0.0
 11
3279.491599148633
 21
47.88066759054609
 31
0.0
 12
3279.671599148632
 22
47.9106675905461
 32
0.0
 13
3279.671599148632
 23
47.9106675905461
 33
0.0
  0
MTEXT
  5
F0E
330
D5E
100
AcDbEntity
  8
0
 62
     0
100
AcDbMText
 10
2994.171599148632
 20
47.9106675905461
 30
0.0
 40
15.0
 41
0.0
 46
0.0
 71
     5
 72
     1
  1
\A1;571.0
 73
     1
 44
1.0
  0
POINT
  5
F0F
330
D5E
100
AcDbEntity
  8
Defpoints
 62
     0
100
AcDbPoint
 10
2708.671599148633
 20
133.0642726939922
 30
0.0
  0
POINT
  5
F10
330
D5E
100
AcDbEntity
  8
Defpoints
 62
     0
100
AcDbPoint
 10
3279.671599148632
 20
133.0642726939922
 30
0.0
  0
POINT
  5
F11
330
D5E
100
AcDbEntity
  8
Defpoints
 62
     0
100
AcDbPoint
 10
3279.671599148632
 20
47.9106675905461
 30
0.0
  0
ENDBLK
  5
D6A
330
D5E
100
AcDbEntity
  8
0
100
AcDbBlockEnd
  0
BLOCK
  5
D76
330
D6B
100
AcDbEntity
  8
0
100
AcDbBlockBegin
  2
*D68
 70
     1
 10
0.0
 20
0.0
 30
0.0
  3
*D68
  1

  0
LINE
  5
F80
330
D6B
100
AcDbEntity
  8
0
 62
     0
370
    -2
100
AcDbLine
 10
3140.8398391196
 20
73.80062360299351
 30
0.0
 11
3368.714808533639
 21
73.80062360299344
 31
0.0
  0
LINE
  5
F81
330
D6B
100
AcDbEntity
  8
0
 62
     0
370
    -2
100
AcDbLine
 10
3145.734099148633
 20
1012.800623602993
 30
0.0
 11
3368.714808533639
 21
1012.800623602993
 31
0.0
  0
LINE
  5
F82
330
D6B
100
AcDbEntity
  8
0
 62
     0
370
    -2
100
AcDbLine
 10
3368.534808533639
 20
73.98062360299345
 30
0.0
 11
3368.534808533639
 21
535.7106236029933
 31
0.0
  0
LINE
  5
F83
330
D6B
100
AcDbEntity
  8
0
 62
     0
370
    -2
100
AcDbLine
 10
3368.534808533639
 20
1012.620623602993
 30
0.0
 11
3368.534808533639
 21
550.8906236029933
 31
0.0
  0
SOLID
  5
F84
330
D6B
100
AcDbEntity
  8
0
 62
     0
100
AcDbTrace
 10
3368.504808533639
 20
73.98062360299345
 30
0.0
 11
3368.564808533641
 21
73.98062360299345
 31
0.0
 12
3368.534808533639
 22
73.80062360299344
 32
0.0
 13
3368.534808533639
 23
73.80062360299344
 33
0.0
  0
SOLID
  5
F85
330
D6B
100
AcDbEntity
  8
0
 62
     0
100
AcDbTrace
 10
3368.504808533639
 20
1012.620623602993
 30
0.0
 11
3368.564808533641
 21
1012.620623602993
 31
0.0
 12
3368.534808533639
 22
1012.800623602993
 32
0.0
 13
3368.534808533639
 23
1012.800623602993
 33
0.0
  0
MTEXT
  5
F86
330
D6B
100
AcDbEntity
  8
0
 62
     0
100
AcDbMText
 10
3368.534808533639
 20
543.3006236029938
 30
0.0
 40
15.0
 41
0.0
 46
0.0
 71
     5
 72
     1
  1
\A1;939.0
 73
     1
 44
1.0
  0
POINT
  5
F87
330
D6B
100
AcDbEntity
  8
Defpoints
 62
     0
100
AcDbPoint
 10
3140.7773391196
 20
73.80062360299351
 30
0.0
  0
POINT
  5
F88
330
D6B
100
AcDbEntity
  8
Defpoints
 62
     0
100
AcDbPoint
 10
3145.671599148633
 20
1012.800623602993
 30
0.0
  0
POINT
  5
F89
330
D6B
100
AcDbEntity
  8
Defpoints
 62
     0
100
AcDbPoint
 10
3368.534808533639
 20
1012.800623602993
 30
0.0
  0
ENDBLK
  5
D77
330
D6B
100
AcDbEntity
  8
0
100
AcDbBlockEnd
  0
BLOCK
  5
1337
330
132C
100
AcDbEntity
  8
0
100
AcDbBlockBegin
  2
*D69
 70
     1
 10
0.0
 20
0.0
 30
0.0
  3
*D69
  1

  0
LINE
  5
15FD
330
132C
100
AcDbEntity
  8
0
 62
     0
370
    -2
100
AcDbLine
 10
1108.940206788738
 20
-325.8939535120362
 30
0.0
 11
1108.940206788738
 21
-376.8520372600028
 31
0.0
  0
LINE
  5
15FE
330
132C
100
AcDbEntity
  8
0
 62
     0
370
    -2
100
AcDbLine
 10
1308.940206788739
 20
-325.8939535120362
 30
0.0
 11
1308.940206788739
 21
-376.8520372600028
 31
0.0
  0
LINE
  5
15FF
330
132C
100
AcDbEntity
  8
0
 62
     0
370
    -2
100
AcDbLine
 10
1109.120206788738
 20
-376.6720372600028
 30
0.0
 11
1182.600206788738
 21
-376.6720372600028
 31
0.0
  0
LINE
  5
1600
330
132C
100
AcDbEntity
  8
0
 62
     0
370
    -2
100
AcDbLine
 10
1308.760206788739
 20
-376.6720372600028
 30
0.0
 11
1235.280206788738
 21
-376.6720372600028
 31
0.0
  0
SOLID
  5
1601
330
132C
100
AcDbEntity
  8
0
 62
     0
100
AcDbTrace
 10
1109.120206788738
 20
-376.6420372600028
 30
0.0
 11
1109.120206788738
 21
-376.7020372600029
 31
0.0
 12
1108.940206788738
 22
-376.6720372600028
 32
0.0
 13
1108.940206788738
 23
-376.6720372600028
 33
0.0
  0
SOLID
  5
1602
330
132C
100
AcDbEntity
  8
0
 62
     0
100
AcDbTrace
 10
1308.760206788739
 20
-376.6420372600028
 30
0.0
 11
1308.760206788739
 21
-376.7020372600029
 31
0.0
 12
1308.940206788739
 22
-376.6720372600028
 32
0.0
 13
1308.940206788739
 23
-376.6720372600028
 33
0.0
  0
MTEXT
  5
1603
330
132C
100
AcDbEntity
  8
0
 62
     0
100
AcDbMText
 10
1208.940206788738
 20
-376.6720372600028
 30
0.0
 40
15.0
 41
0.0
 46
0.0
 71
     5
 72
     1
  1
\A1;200.0
 73
     1
 44
1.0
  0
POINT
  5
1604
330
132C
100
AcDbEntity
  8
Defpoints
 62
     0
100
AcDbPoint
 10
1108.940206788738
 20
-325.8314535120362
 30
0.0
  0
POINT
  5
1605
330
132C
100
AcDbEntity
  8
Defpoints
 62
     0
100
AcDbPoint
 10
1308.940206788739
 20
-325.8314535120362
 30
0.0
  0
POINT
  5
1606
330
132C
100
AcDbEntity
  8
Defpoints
 62
     0
100
AcDbPoint
 10
1308.940206788739
 20
-376.6720372600028
 30
0.0
  0
ENDBLK
  5
1338
330
132C
100
AcDbEntity
  8
0
100
AcDbBlockEnd
  0
BLOCK
  5
1351
330
1346
100
AcDbEntity
  8
0
100
AcDbBlockBegin
  2
*D70
 70
     1
 10
0.0
 20
0.0
 30
0.0
  3
*D70
  1

  0
LINE
  5
15F3
330
1346
100
AcDbEntity
  8
0
 62
     0
370
    -2
100
AcDbLine
 10
1279.002706788739
 20
-355.8314535120358
 30
0.0
 11
1353.95628604466
 21
-355.8314535120358
 31
0.0
  0
LINE
  5
15F4
330
1346
100
AcDbEntity
  8
0
 62
     0
370
    -2
100
AcDbLine
 10
1279.002706788739
 20
-155.8314535120361
 30
0.0
 11
1353.95628604466
 21
-155.8314535120361
 31
0.0
  0
LINE
  5
15F5
330
1346
100
AcDbEntity
  8
0
 62
     0
370
    -2
100
AcDbLine
 10
1353.77628604466
 20
-355.6514535120358
 30
0.0
 11
1353.77628604466
 21
-263.421453512036
 31
0.0
  0
LINE
  5
15F6
330
1346
100
AcDbEntity
  8
0
 62
     0
370
    -2
100
AcDbLine
 10
1353.77628604466
 20
-156.0114535120361
 30
0.0
 11
1353.77628604466
 21
-248.241453512036
 31
0.0
  0
SOLID
  5
15F7
330
1346
100
AcDbEntity
  8
0
 62
     0
100
AcDbTrace
 10
1353.74628604466
 20
-355.6514535120358
 30
0.0
 11
1353.80628604466
 21
-355.6514535120358
 31
0.0
 12
1353.77628604466
 22
-355.8314535120358
 32
0.0
 13
1353.77628604466
 23
-355.8314535120358
 33
0.0
  0
SOLID
  5
15F8
330
1346
100
AcDbEntity
  8
0
 62
     0
100
AcDbTrace
 10
1353.74628604466
 20
-156.0114535120361
 30
0.0
 11
1353.80628604466
 21
-156.0114535120361
 31
0.0
 12
1353.77628604466
 22
-155.8314535120361
 32
0.0
 13
1353.77628604466
 23
-155.8314535120361
 33
0.0
  0
MTEXT
  5
15F9
330
1346
100
AcDbEntity
  8
0
 62
     0
100
AcDbMText
 10
1353.77628604466
 20
-255.8314535120358
 30
0.0
 40
15.0
 41
0.0
 46
0.0
 71
     5
 72
     1
  1
\A1;200.0
 73
     1
 44
1.0
  0
POINT
  5
15FA
330
1346
100
AcDbEntity
  8
Defpoints
 62
     0
100
AcDbPoint
 10
1278.940206788739
 20
-355.8314535120358
 30
0.0
  0
POINT
  5
15FB
330
1346
100
AcDbEntity
  8
Defpoints
 62
     0
100
AcDbPoint
 10
1278.940206788739
 20
-155.8314535120361
 30
0.0
  0
POINT
  5
15FC
330
1346
100
AcDbEntity
  8
Defpoints
 62
     0
100
AcDbPoint
 10
1353.77628604466
 20
-155.8314535120361
 30
0.0
  0
ENDBLK
  5
1352
330
1346
100
AcDbEntity
  8
0
100
AcDbBlockEnd
  0
BLOCK
  5
136B
330
1360
100
AcDbEntity
  8
0
100
AcDbBlockBegin
  2
*D71
 70
     1
 10
0.0
 20
0.0
 30
0.0
  3
*D71
  1

  0
LINE
  5
13C7
330
1360
100
AcDbEntity
  8
0
 62
     0
370
    -2
100
AcDbLine
 10
1967.602276814259
 20
-331.8972923835037
 30
0.0
 11
1967.602276814259
 21
-397.8456385483554
 31
0.0
  0
LINE
  5
13C8
330
1360
100
AcDbEntity
  8
0
 62
     0
370
    -2
100
AcDbLine
 10
2217.60227681426
 20
-331.8972923835037
 30
0.0
 11
2217.60227681426
 21
-397.8456385483554
 31
0.0
  0
LINE
  5
13C9
330
1360
100
AcDbEntity
  8
0
 62
     0
370
    -2
100
AcDbLine
 10
1967.78227681426
 20
-397.6656385483554
 30
0.0
 11
2065.01227681426
 21
-397.6656385483554
 31
0.0
  0
LINE
  5
13CA
330
1360
100
AcDbEntity
  8
0
 62
     0
370
    -2
100
AcDbLine
 10
2217.422276814261
 20
-397.6656385483554
 30
0.0
 11
2120.192276814261
 21
-397.6656385483554
 31
0.0
  0
SOLID
  5
13CB
330
1360
100
AcDbEntity
  8
0
 62
     0
100
AcDbTrace
 10
1967.78227681426
 20
-397.6356385483555
 30
0.0
 11
1967.78227681426
 21
-397.6956385483554
 31
0.0
 12
1967.602276814259
 22
-397.6656385483554
 32
0.0
 13
1967.602276814259
 23
-397.6656385483554
 33
0.0
  0
SOLID
  5
13CC
330
1360
100
AcDbEntity
  8
0
 62
     0
100
AcDbTrace
 10
2217.422276814261
 20
-397.6356385483555
 30
0.0
 11
2217.422276814261
 21
-397.6956385483554
 31
0.0
 12
2217.60227681426
 22
-397.6656385483554
 32
0.0
 13
2217.60227681426
 23
-397.6656385483554
 33
0.0
  0
MTEXT
  5
13CD
330
1360
100
AcDbEntity
  8
0
 62
     0
100
AcDbMText
 10
2092.60227681426
 20
-397.6656385483554
 30
0.0
 40
15.0
 41
0.0
 46
0.0
 71
     5
 72
     1
  1
\A1;250.0
 73
     1
 44
1.0
  0
POINT
  5
13CE
330
1360
100
AcDbEntity
  8
Defpoints
 62
     0
100
AcDbPoint
 10
1967.602276814259
 20
-331.8347923835037
 30
0.0
  0
POINT
  5
13CF
330
1360
100
AcDbEntity
  8
Defpoints
 62
     0
100
AcDbPoint
 10
2217.60227681426
 20
-331.8347923835037
 30
0.0
  0
POINT
  5
13D0
330
1360
100
AcDbEntity
  8
Defpoints
 62
     0
100
AcDbPoint
 10
2217.60227681426
 20
-397.6656385483554
 30
0.0
  0
ENDBLK
  5
136C
330
1360
100
AcDbEntity
  8
0
100
AcDbBlockEnd
  0
BLOCK
  5
1385
330
137A
100
AcDbEntity
  8
0
100
AcDbBlockBegin
  2
*D72
 70
     1
 10
0.0
 20
0.0
 30
0.0
  3
*D72
  1

  0
LINE
  5
13D1
330
137A
100
AcDbEntity
  8
0
 62
     0
370
    -2
100
AcDbLine
 10
2180.16477681426
 20
-369.3347923835033
 30
0.0
 11
2259.385957312506
 21
-369.3347923835033
 31
0.0
  0
LINE
  5
13D2
330
137A
100
AcDbEntity
  8
0
 62
     0
370
    -2
100
AcDbLine
 10
2180.16477681426
 20
-119.3347923835038
 30
0.0
 11
2259.385957312506
 21
-119.3347923835038
 31
0.0
  0
LINE
  5
13D3
330
137A
100
AcDbEntity
  8
0
 62
     0
370
    -2
100
AcDbLine
 10
2259.205957312506
 20
-369.1547923835033
 30
0.0
 11
2259.205957312506
 21
-251.9247923835036
 31
0.0
  0
LINE
  5
13D4
330
137A
100
AcDbEntity
  8
0
 62
     0
370
    -2
100
AcDbLine
 10
2259.205957312506
 20
-119.5147923835038
 30
0.0
 11
2259.205957312506
 21
-236.7447923835035
 31
0.0
  0
SOLID
  5
13D5
330
137A
100
AcDbEntity
  8
0
 62
     0
100
AcDbTrace
 10
2259.175957312506
 20
-369.1547923835033
 30
0.0
 11
2259.235957312506
 21
-369.1547923835033
 31
0.0
 12
2259.205957312506
 22
-369.3347923835033
 32
0.0
 13
2259.205957312506
 23
-369.3347923835033
 33
0.0
  0
SOLID
  5
13D6
330
137A
100
AcDbEntity
  8
0
 62
     0
100
AcDbTrace
 10
2259.175957312506
 20
-119.5147923835038
 30
0.0
 11
2259.235957312506
 21
-119.5147923835038
 31
0.0
 12
2259.205957312506
 22
-119.3347923835038
 32
0.0
 13
2259.205957312506
 23
-119.3347923835038
 33
0.0
  0
MTEXT
  5
13D7
330
137A
100
AcDbEntity
  8
0
 62
     0
100
AcDbMText
 10
2259.205957312506
 20
-244.3347923835032
 30
0.0
 40
15.0
 41
0.0
 46
0.0
 71
     5
 72
     1
  1
\A1;250.0
 73
     1
 44
1.0
  0
POINT
  5
13D8
330
137A
100
AcDbEntity
  8
Defpoints
 62
     0
100
AcDbPoint
 10
2180.10227681426
 20
-369.3347923835033
 30
0.0
  0
POINT
  5
13D9
330
137A
100
AcDbEntity
  8
Defpoints
 62
     0
100
AcDbPoint
 10
2180.10227681426
 20
-119.3347923835038
 30
0.0
  0
POINT
  5
13DA
330
137A
100
AcDbEntity
  8
Defpoints
 62
     0
100
AcDbPoint
 10
2259.205957312506
 20
-119.3347923835038
 30
0.0
  0
ENDBLK
  5
1386
330
137A
100
AcDbEntity
  8
0
100
AcDbBlockEnd
  0
BLOCK
  5
139F
330
1394
100
AcDbEntity
  8
0
100
AcDbBlockBegin
  2
*D73
 70
     1
 10
0.0
 20
0.0
 30
0.0
  3
*D73
  1

  0
LINE
  5
13A2
330
1394
100
AcDbEntity
  8
0
 62
     0
370
    -2
100
AcDbLine
 10
2808.405864224036
 20
-339.4811168370807
 30
0.0
 11
2808.405864224036
 21
-409.2369441655684
 31
0.0
  0
LINE
  5
13A3
330
1394
100
AcDbEntity
  8
0
 62
     0
370
    -2
100
AcDbLine
 10
3098.405864224037
 20
-339.4811168370807
 30
0.0
 11
3098.405864224037
 21
-409.2369441655684
 31
0.0
  0
LINE
  5
13A4
330
1394
100
AcDbEntity
  8
0
 62
     0
370
    -2
100
AcDbLine
 10
2808.585864224037
 20
-409.0569441655686
 30
0.0
 11
2925.815864224036
 21
-409.0569441655686
 31
0.0
  0
LINE
  5
13A5
330
1394
100
AcDbEntity
  8
0
 62
     0
370
    -2
100
AcDbLine
 10
3098.225864224037
 20
-409.0569441655686
 30
0.0
 11
2980.995864224037
 21
-409.0569441655686
 31
0.0
  0
SOLID
  5
13A6
330
1394
100
AcDbEntity
  8
0
 62
     0
100
AcDbTrace
 10
2808.585864224037
 20
-409.0269441655687
 30
0.0
 11
2808.585864224037
 21
-409.0869441655686
 31
0.0
 12
2808.405864224036
 22
-409.0569441655686
 32
0.0
 13
2808.405864224036
 23
-409.0569441655686
 33
0.0
  0
SOLID
  5
13A7
330
1394
100
AcDbEntity
  8
0
 62
     0
100
AcDbTrace
 10
3098.225864224037
 20
-409.0269441655687
 30
0.0
 11
3098.225864224037
 21
-409.0869441655686
 31
0.0
 12
3098.405864224037
 22
-409.0569441655686
 32
0.0
 13
3098.405864224037
 23
-409.0569441655686
 33
0.0
  0
MTEXT
  5
13A8
330
1394
100
AcDbEntity
  8
0
 62
     0
100
AcDbMText
 10
2953.405864224037
 20
-409.0569441655686
 30
0.0
 40
15.0
 41
0.0
 46
0.0
 71
     5
 72
     1
  1
\A1;290.0
 73
     1
 44
1.0
  0
POINT
  5
13A9
330
1394
100
AcDbEntity
  8
Defpoints
 62
     0
100
AcDbPoint
 10
2808.405864224036
 20
-339.4186168370806
 30
0.0
  0
POINT
  5
13AA
330
1394
100
AcDbEntity
  8
Defpoints
 62
     0
100
AcDbPoint
 10
3098.405864224037
 20
-339.4186168370806
 30
0.0
  0
POINT
  5
13AB
330
1394
100
AcDbEntity
  8
Defpoints
 62
     0
100
AcDbPoint
 10
3098.405864224037
 20
-409.0569441655686
 30
0.0
  0
ENDBLK
  5
13A0
330
1394
100
AcDbEntity
  8
0
100
AcDbBlockEnd
  0
BLOCK
  5
13B9
330
13AE
100
AcDbEntity
  8
0
100
AcDbBlockBegin
  2
*D74
 70
     1
 10
0.0
 20
0.0
 30
0.0
  3
*D74
  1

  0
LINE
  5
13BC
330
13AE
100
AcDbEntity
  8
0
 62
     0
370
    -2
100
AcDbLine
 10
3054.968364224036
 20
-382.9186168370802
 30
0.0
 11
3146.59988199208
 21
-382.9186168370802
 31
0.0
  0
LINE
  5
13BD
330
13AE
100
AcDbEntity
  8
0
 62
     0
370
    -2
100
AcDbLine
 10
3054.968364224036
 20
-92.91861683708082
 30
0.0
 11
3146.59988199208
 21
-92.91861683708084
 31
0.0
  0
LINE
  5
13BE
330
13AE
100
AcDbEntity
  8
0
 62
     0
370
    -2
100
AcDbLine
 10
3146.419881992081
 20
-382.7386168370802
 30
0.0
 11
3146.419881992081
 21
-245.5086168370805
 31
0.0
  0
LINE
  5
13BF
330
13AE
100
AcDbEntity
  8
0
 62
     0
370
    -2
100
AcDbLine
 10
3146.419881992081
 20
-93.09861683708083
 30
0.0
 11
3146.419881992081
 21
-230.3286168370805
 31
0.0
  0
SOLID
  5
13C0
330
13AE
100
AcDbEntity
  8
0
 62
     0
100
AcDbTrace
 10
3146.38988199208
 20
-382.7386168370802
 30
0.0
 11
3146.44988199208
 21
-382.7386168370802
 31
0.0
 12
3146.419881992081
 22
-382.9186168370802
 32
0.0
 13
3146.419881992081
 23
-382.9186168370802
 33
0.0
  0
SOLID
  5
13C1
330
13AE
100
AcDbEntity
  8
0
 62
     0
100
AcDbTrace
 10
3146.38988199208
 20
-93.09861683708083
 30
0.0
 11
3146.44988199208
 21
-93.09861683708083
 31
0.0
 12
3146.419881992081
 22
-92.91861683708084
 32
0.0
 13
3146.419881992081
 23
-92.91861683708084
 33
0.0
  0
MTEXT
  5
13C2
330
13AE
100
AcDbEntity
  8
0
 62
     0
100
AcDbMText
 10
3146.419881992081
 20
-237.91861683708
 30
0.0
 40
15.0
 41
0.0
 46
0.0
 71
     5
 72
     1
  1
\A1;290.0
 73
     1
 44
1.0
  0
POINT
  5
13C3
330
13AE
100
AcDbEntity
  8
Defpoints
 62
     0
100
AcDbPoint
 10
3054.905864224036
 20
-382.9186168370802
 30
0.0
  0
POINT
  5
13C4
330
13AE
100
AcDbEntity
  8
Defpoints
 62
     0
100
AcDbPoint
 10
3054.905864224036
 20
-92.91861683708082
 30
0.0
  0
POINT
  5
13C5
330
13AE
100
AcDbEntity
  8
Defpoints
 62
     0
100
AcDbPoint
 10
3146.419881992081
 20
-92.91861683708084
 30
0.0
  0
ENDBLK
  5
13BA
330
13AE
100
AcDbEntity
  8
0
100
AcDbBlockEnd
  0
BLOCK
  5
1820
330
181F
100
AcDbEntity
  8
0
100
AcDbBlockBegin
  2
*D75
 70
     1
 10
0.0
 20
0.0
 30
0.0
  3
*D75
  1

  0
LINE
  5
1821
330
181F
100
AcDbEntity
  8
0
 62
     0
370
    -2
100
AcDbLine
 10
1269.986007994086
 20
586.3631236029934
 30
0.0
 11
1269.986007994086
 21
586.4806236029934
 31
0.0
  0
LINE
  5
1822
330
181F
100
AcDbEntity
  8
0
 62
     0
370
    -2
100
AcDbLine
 10
1346.986007994086
 20
586.3631236029934
 30
0.0
 11
1346.986007994086
 21
586.4806236029934
 31
0.0
  0
LINE
  5
1823
330
181F
100
AcDbEntity
  8
0
 62
     0
370
    -2
100
AcDbLine
 10
1270.166007994086
 20
586.3006236029932
 30
0.0
 11
1287.146007994086
 21
586.3006236029932
 31
0.0
  0
LINE
  5
1824
330
181F
100
AcDbEntity
  8
0
 62
     0
370
    -2
100
AcDbLine
 10
1346.806007994086
 20
586.3006236029932
 30
0.0
 11
1329.826007994086
 21
586.3006236029932
 31
0.0
  0
SOLID
  5
1825
330
181F
100
AcDbEntity
  8
0
 62
     0
100
AcDbTrace
 10
1270.166007994086
 20
586.3306236029932
 30
0.0
 11
1270.166007994086
 21
586.2706236029935
 31
0.0
 12
1269.986007994086
 22
586.3006236029932
 32
0.0
 13
1269.986007994086
 23
586.3006236029932
 33
0.0
  0
SOLID
  5
1826
330
181F
100
AcDbEntity
  8
0
 62
     0
100
AcDbTrace
 10
1346.806007994086
 20
586.3306236029932
 30
0.0
 11
1346.806007994086
 21
586.2706236029935
 31
0.0
 12
1346.986007994086
 22
586.3006236029932
 32
0.0
 13
1346.986007994086
 23
586.3006236029932
 33
0.0
  0
MTEXT
  5
1827
330
181F
100
AcDbEntity
  8
0
 62
     0
100
AcDbMText
 10
1308.486007994086
 20
586.3006236029932
 30
0.0
 40
15.0
 41
0.0
 46
0.0
 71
     5
 72
     1
  1
\A1;77.0
 73
     1
 44
1.0
  0
POINT
  5
1828
330
181F
100
AcDbEntity
  8
Defpoints
 62
     0
100
AcDbPoint
 10
1269.986007994086
 20
586.3006236029932
 30
0.0
  0
POINT
  5
1829
330
181F
100
AcDbEntity
  8
Defpoints
 62
     0
100
AcDbPoint
 10
1346.986007994086
 20
586.3006236029932
 30
0.0
  0
POINT
  5
182A
330
181F
100
AcDbEntity
  8
Defpoints
 62
     0
100
AcDbPoint
 10
1346.986007994086
 20
586.3006236029932
 30
0.0
  0
ENDBLK
  5
182B
330
181F
100
AcDbEntity
  8
0
100
AcDbBlockEnd
  0
BLOCK
  5
182D
330
182C
100
AcDbEntity
  8
0
100
AcDbBlockBegin
  2
*D76
 70
     1
 10
0.0
 20
0.0
 30
0.0
  3
*D76
  1

  0
LINE
  5
182E
330
182C
100
AcDbEntity
  8
0
 62
     0
370
    -2
100
AcDbLine
 10
1269.986007994086
 20
221.3631236029935
 30
0.0
 11
1269.986007994086
 21
221.4806236029935
 31
0.0
  0
LINE
  5
182F
330
182C
100
AcDbEntity
  8
0
 62
     0
370
    -2
100
AcDbLine
 10
1346.986007994086
 20
221.3631236029935
 30
0.0
 11
1346.986007994086
 21
221.4806236029935
 31
0.0
  0
LINE
  5
1830
330
182C
100
AcDbEntity
  8
0
 62
     0
370
    -2
100
AcDbLine
 10
1270.166007994086
 20
221.3006236029935
 30
0.0
 11
1287.146007994086
 21
221.3006236029935
 31
0.0
  0
LINE
  5
1831
330
182C
100
AcDbEntity
  8
0
 62
     0
370
    -2
100
AcDbLine
 10
1346.806007994086
 20
221.3006236029935
 30
0.0
 11
1329.826007994086
 21
221.3006236029935
 31
0.0
  0
SOLID
  5
1832
330
182C
100
AcDbEntity
  8
0
 62
     0
100
AcDbTrace
 10
1270.166007994086
 20
221.3306236029935
 30
0.0
 11
1270.166007994086
 21
221.2706236029935
 31
0.0
 12
1269.986007994086
 22
221.3006236029935
 32
0.0
 13
1269.986007994086
 23
221.3006236029935
 33
0.0
  0
SOLID
  5
1833
330
182C
100
AcDbEntity
  8
0
 62
     0
100
AcDbTrace
 10
1346.806007994086
 20
221.3306236029935
 30
0.0
 11
1346.806007994086
 21
221.2706236029935
 31
0.0
 12
1346.986007994086
 22
221.3006236029935
 32
0.0
 13
1346.986007994086
 23
221.3006236029935
 33
0.0
  0
MTEXT
  5
1834
330
182C
100
AcDbEntity
  8
0
 62
     0
100
AcDbMText
 10
1308.486007994086
 20
221.3006236029935
 30
0.0
 40
15.0
 41
0.0
 46
0.0
 71
     5
 72
     1
  1
\A1;77.0
 73
     1
 44
1.0
  0
POINT
  5
1835
330
182C
100
AcDbEntity
  8
Defpoints
 62
     0
100
AcDbPoint
 10
1269.986007994086
 20
221.3006236029935
 30
0.0
  0
POINT
  5
1836
330
182C
100
AcDbEntity
  8
Defpoints
 62
     0
100
AcDbPoint
 10
1346.986007994086
 20
221.3006236029935
 30
0.0
  0
POINT
  5
1837
330
182C
100
AcDbEntity
  8
Defpoints
 62
     0
100
AcDbPoint
 10
1346.986007994086
 20
221.3006236029935
 30
0.0
  0
ENDBLK
  5
1838
330
182C
100
AcDbEntity
  8
0
100
AcDbBlockEnd
  0
BLOCK
  5
183A
330
1839
100
AcDbEntity
  8
0
100
AcDbBlockBegin
  2
*D77
 70
     1
 10
0.0
 20
0.0
 30
0.0
  3
*D77
  1

  0
LINE
  5
183B
330
1839
100
AcDbEntity
  8
0
 62
     0
370
    -2
100
AcDbLine
 10
1059.986007994085
 20
586.3631236029934
 30
0.0
 11
1059.986007994085
 21
586.4806236029934
 31
0.0
  0
LINE
  5
183C
330
1839
100
AcDbEntity
  8
0
 62
     0
370
    -2
100
AcDbLine
 10
982.9860079940846
 20
586.3631236029934
 30
0.0
 11
982.9860079940846
 21
586.4806236029934
 31
0.0
  0
LINE
  5
183D
330
1839
100
AcDbEntity
  8
0
 62
     0
370
    -2
100
AcDbLine
 10
1059.806007994084
 20
586.3006236029932
 30
0.0
 11
1042.826007994084
 21
586.3006236029932
 31
0.0
  0
LINE
  5
183E
330
1839
100
AcDbEntity
  8
0
 62
     0
370
    -2
100
AcDbLine
 10
983.1660079940846
 20
586.3006236029932
 30
0.0
 11
1000.146007994084
 21
586.3006236029932
 31
0.0
  0
SOLID
  5
183F
330
1839
100
AcDbEntity
  8
0
 62
     0
100
AcDbTrace
 10
1059.806007994084
 20
586.3306236029932
 30
0.0
 11
1059.806007994084
 21
586.2706236029935
 31
0.0
 12
1059.986007994085
 22
586.3006236029932
 32
0.0
 13
1059.986007994085
 23
586.3006236029932
 33
0.0
  0
SOLID
  5
1840
330
1839
100
AcDbEntity
  8
0
 62
     0
100
AcDbTrace
 10
983.1660079940846
 20
586.3306236029932
 30
0.0
 11
983.1660079940846
 21
586.2706236029935
 31
0.0
 12
982.9860079940846
 22
586.3006236029932
 32
0.0
 13
982.9860079940846
 23
586.3006236029932
 33
0.0
  0
MTEXT
  5
1841
330
1839
100
AcDbEntity
  8
0
 62
     0
100
AcDbMText
 10
1021.486007994084
 20
586.3006236029932
 30
0.0
 40
15.0
 41
0.0
 46
0.0
 71
     5
 72
     1
  1
\A1;77.0
 73
     1
 44
1.0
  0
POINT
  5
1842
330
1839
100
AcDbEntity
  8
Defpoints
 62
     0
100
AcDbPoint
 10
1059.986007994085
 20
586.3006236029932
 30
0.0
  0
POINT
  5
1843
330
1839
100
AcDbEntity
  8
Defpoints
 62
     0
100
AcDbPoint
 10
982.9860079940846
 20
586.3006236029932
 30
0.0
  0
POINT
  5
1844
330
1839
100
AcDbEntity
  8
Defpoints
 62
     0
100
AcDbPoint
 10
982.9860079940846
 20
586.3006236029932
 30
0.0
  0
ENDBLK
  5
1845
330
1839
100
AcDbEntity
  8
0
100
AcDbBlockEnd
  0
BLOCK
  5
1847
330
1846
100
AcDbEntity
  8
0
100
AcDbBlockBegin
  2
*D78
 70
     1
 10
0.0
 20
0.0
 30
0.0
  3
*D78
  1

  0
LINE
  5
1848
330
1846
100
AcDbEntity
  8
0
 62
     0
370
    -2
100
AcDbLine
 10
1059.986007994085
 20
221.3631236029935
 30
0.0
 11
1059.986007994085
 21
221.4806236029935
 31
0.0
  0
LINE
  5
1849
330
1846
100
AcDbEntity
  8
0
 62
     0
370
    -2
100
AcDbLine
 10
982.9860079940846
 20
221.3631236029935
 30
0.0
 11
982.9860079940846
 21
221.4806236029935
 31
0.0
  0
LINE
  5
184A
330
1846
100
AcDbEntity
  8
0
 62
     0
370
    -2
100
AcDbLine
 10
1059.806007994084
 20
221.3006236029935
 30
0.0
 11
1042.826007994084
 21
221.3006236029935
 31
0.0
  0
LINE
  5
184B
330
1846
100
AcDbEntity
  8
0
 62
     0
370
    -2
100
AcDbLine
 10
983.1660079940846
 20
221.3006236029935
 30
0.0
 11
1000.146007994084
 21
221.3006236029935
 31
0.0
  0
SOLID
  5
184C
330
1846
100
AcDbEntity
  8
0
 62
     0
100
AcDbTrace
 10
1059.806007994084
 20
221.3306236029935
 30
0.0
 11
1059.806007994084
 21
221.2706236029935
 31
0.0
 12
1059.986007994085
 22
221.3006236029935
 32
0.0
 13
1059.986007994085
 23
221.3006236029935
 33
0.0
  0
SOLID
  5
184D
330
1846
100
AcDbEntity
  8
0
 62
     0
100
AcDbTrace
 10
983.1660079940846
 20
221.3306236029935
 30
0.0
 11
983.1660079940846
 21
221.2706236029935
 31
0.0
 12
982.9860079940846
 22
221.3006236029935
 32
0.0
 13
982.9860079940846
 23
221.3006236029935
 33
0.0
  0
MTEXT
  5
184E
330
1846
100
AcDbEntity
  8
0
 62
     0
100
AcDbMText
 10
1021.486007994084
 20
221.3006236029935
 30
0.0
 40
15.0
 41
0.0
 46
0.0
 71
     5
 72
     1
  1
\A1;77.0
 73
     1
 44
1.0
  0
POINT
  5
184F
330
1846
100
AcDbEntity
  8
Defpoints
 62
     0
100
AcDbPoint
 10
1059.986007994085
 20
221.3006236029935
 30
0.0
  0
POINT
  5
1850
330
1846
100
AcDbEntity
  8
Defpoints
 62
     0
100
AcDbPoint
 10
982.9860079940846
 20
221.3006236029935
 30
0.0
  0
POINT
  5
1851
330
1846
100
AcDbEntity
  8
Defpoints
 62
     0
100
AcDbPoint
 10
982.9860079940846
 20
221.3006236029935
 30
0.0
  0
ENDBLK
  5
1852
330
1846
100
AcDbEntity
  8
0
100
AcDbBlockEnd
  0
BLOCK
  5
195C
330
1951
100
AcDbEntity
  8
0
100
AcDbBlockBegin
  2
*D79
 70
     1
 10
0.0
 20
0.0
 30
0.0
  3
*D79
  1

  0
LINE
  5
19E1
330
1951
100
AcDbEntity
  8
0
 62
     0
370
    -2
100
AcDbLine
 10
643.9120771315526
 20
593.2402945507185
 30
0.0
 11
643.9120771315526
 21
593.3577945507185
 31
0.0
  0
LINE
  5
19E2
330
1951
100
AcDbEntity
  8
0
 62
     0
370
    -2
100
AcDbLine
 10
720.9120771315524
 20
593.2402945507185
 30
0.0
 11
720.9120771315524
 21
593.3577945507185
 31
0.0
  0
LINE
  5
19E3
330
1951
100
AcDbEntity
  8
0
 62
     0
370
    -2
100
AcDbLine
 10
644.0920771315526
 20
593.1777945507185
 30
0.0
 11
661.0720771315526
 21
593.1777945507185
 31
0.0
  0
LINE
  5
19E4
330
1951
100
AcDbEntity
  8
0
 62
     0
370
    -2
100
AcDbLine
 10
720.7320771315527
 20
593.1777945507185
 30
0.0
 11
703.7520771315527
 21
593.1777945507185
 31
0.0
  0
SOLID
  5
19E5
330
1951
100
AcDbEntity
  8
0
 62
     0
100
AcDbTrace
 10
644.0920771315526
 20
593.2077945507185
 30
0.0
 11
644.0920771315526
 21
593.1477945507185
 31
0.0
 12
643.9120771315526
 22
593.1777945507185
 32
0.0
 13
643.9120771315526
 23
593.1777945507185
 33
0.0
  0
SOLID
  5
19E6
330
1951
100
AcDbEntity
  8
0
 62
     0
100
AcDbTrace
 10
720.7320771315527
 20
593.2077945507185
 30
0.0
 11
720.7320771315527
 21
593.1477945507185
 31
0.0
 12
720.9120771315524
 22
593.1777945507185
 32
0.0
 13
720.9120771315524
 23
593.1777945507185
 33
0.0
  0
MTEXT
  5
19E7
330
1951
100
AcDbEntity
  8
0
 62
     0
100
AcDbMText
 10
682.4120771315526
 20
593.1777945507185
 30
0.0
 40
15.0
 41
0.0
 46
0.0
 71
     5
 72
     1
  1
\A1;77.0
 73
     1
 44
1.0
  0
POINT
  5
19E8
330
1951
100
AcDbEntity
  8
Defpoints
 62
     0
100
AcDbPoint
 10
643.9120771315526
 20
593.1777945507185
 30
0.0
  0
POINT
  5
19E9
330
1951
100
AcDbEntity
  8
Defpoints
 62
     0
100
AcDbPoint
 10
720.9120771315524
 20
593.1777945507185
 30
0.0
  0
POINT
  5
19EA
330
1951
100
AcDbEntity
  8
Defpoints
 62
     0
100
AcDbPoint
 10
720.9120771315524
 20
593.1777945507185
 30
0.0
  0
ENDBLK
  5
195D
330
1951
100
AcDbEntity
  8
0
100
AcDbBlockEnd
  0
BLOCK
  5
1969
330
195E
100
AcDbEntity
  8
0
100
AcDbBlockBegin
  2
*D80
 70
     1
 10
0.0
 20
0.0
 30
0.0
  3
*D80
  1

  0
LINE
  5
195F
330
195E
100
AcDbEntity
  8
0
 62
     0
370
    -2
100
AcDbLine
 10
1923.431111309555
 20
228.2402945507186
 30
0.0
 11
1923.431111309555
 21
228.3577945507186
 31
0.0
  0
LINE
  5
1960
330
195E
100
AcDbEntity
  8
0
 62
     0
370
    -2
100
AcDbLine
 10
2000.431111309556
 20
228.2402945507186
 30
0.0
 11
2000.431111309556
 21
228.3577945507186
 31
0.0
  0
LINE
  5
1961
330
195E
100
AcDbEntity
  8
0
 62
     0
370
    -2
100
AcDbLine
 10
1923.611111309555
 20
228.1777945507186
 30
0.0
 11
1940.591111309555
 21
228.1777945507186
 31
0.0
  0
LINE
  5
1962
330
195E
100
AcDbEntity
  8
0
 62
     0
370
    -2
100
AcDbLine
 10
2000.251111309555
 20
228.1777945507186
 30
0.0
 11
1983.271111309555
 21
228.1777945507186
 31
0.0
  0
SOLID
  5
1963
330
195E
100
AcDbEntity
  8
0
 62
     0
100
AcDbTrace
 10
1923.611111309555
 20
228.2077945507186
 30
0.0
 11
1923.611111309555
 21
228.1477945507186
 31
0.0
 12
1923.431111309555
 22
228.1777945507186
 32
0.0
 13
1923.431111309555
 23
228.1777945507186
 33
0.0
  0
SOLID
  5
1964
330
195E
100
AcDbEntity
  8
0
 62
     0
100
AcDbTrace
 10
2000.251111309555
 20
228.2077945507186
 30
0.0
 11
2000.251111309555
 21
228.1477945507186
 31
0.0
 12
2000.431111309556
 22
228.1777945507186
 32
0.0
 13
2000.431111309556
 23
228.1777945507186
 33
0.0
  0
MTEXT
  5
1965
330
195E
100
AcDbEntity
  8
0
 62
     0
100
AcDbMText
 10
1961.931111309555
 20
228.1777945507186
 30
0.0
 40
15.0
 41
0.0
 46
0.0
 71
     5
 72
     1
  1
\A1;77.0
 73
     1
 44
1.0
  0
POINT
  5
1966
330
195E
100
AcDbEntity
  8
Defpoints
 62
     0
100
AcDbPoint
 10
1923.431111309555
 20
228.1777945507185
 30
0.0
  0
POINT
  5
1967
330
195E
100
AcDbEntity
  8
Defpoints
 62
     0
100
AcDbPoint
 10
2000.431111309556
 20
228.1777945507186
 30
0.0
  0
POINT
  5
1968
330
195E
100
AcDbEntity
  8
Defpoints
 62
     0
100
AcDbPoint
 10
2000.431111309556
 20
228.1777945507186
 30
0.0
  0
ENDBLK
  5
196A
330
195E
100
AcDbEntity
  8
0
100
AcDbBlockEnd
  0
BLOCK
  5
1976
330
196B
100
AcDbEntity
  8
0
100
AcDbBlockBegin
  2
*D81
 70
     1
 10
0.0
 20
0.0
 30
0.0
  3
*D81
  1

  0
LINE
  5
196C
330
196B
100
AcDbEntity
  8
0
 62
     0
370
    -2
100
AcDbLine
 10
1713.431111309554
 20
593.2402945507185
 30
0.0
 11
1713.431111309554
 21
593.3577945507185
 31
0.0
  0
LINE
  5
196D
330
196B
100
AcDbEntity
  8
0
 62
     0
370
    -2
100
AcDbLine
 10
1636.431111309554
 20
593.2402945507185
 30
0.0
 11
1636.431111309554
 21
593.3577945507185
 31
0.0
  0
LINE
  5
196E
330
196B
100
AcDbEntity
  8
0
 62
     0
370
    -2
100
AcDbLine
 10
1713.251111309554
 20
593.1777945507185
 30
0.0
 11
1696.271111309554
 21
593.1777945507185
 31
0.0
  0
LINE
  5
196F
330
196B
100
AcDbEntity
  8
0
 62
     0
370
    -2
100
AcDbLine
 10
1636.611111309554
 20
593.1777945507185
 30
0.0
 11
1653.591111309554
 21
593.1777945507185
 31
0.0
  0
SOLID
  5
1970
330
196B
100
AcDbEntity
  8
0
 62
     0
100
AcDbTrace
 10
1713.251111309554
 20
593.2077945507185
 30
0.0
 11
1713.251111309554
 21
593.1477945507185
 31
0.0
 12
1713.431111309554
 22
593.1777945507185
 32
0.0
 13
1713.431111309554
 23
593.1777945507185
 33
0.0
  0
SOLID
  5
1971
330
196B
100
AcDbEntity
  8
0
 62
     0
100
AcDbTrace
 10
1636.611111309554
 20
593.2077945507185
 30
0.0
 11
1636.611111309554
 21
593.1477945507185
 31
0.0
 12
1636.431111309554
 22
593.1777945507185
 32
0.0
 13
1636.431111309554
 23
593.1777945507185
 33
0.0
  0
MTEXT
  5
1972
330
196B
100
AcDbEntity
  8
0
 62
     0
100
AcDbMText
 10
1674.931111309554
 20
593.1777945507185
 30
0.0
 40
15.0
 41
0.0
 46
0.0
 71
     5
 72
     1
  1
\A1;77.0
 73
     1
 44
1.0
  0
POINT
  5
1973
330
196B
100
AcDbEntity
  8
Defpoints
 62
     0
100
AcDbPoint
 10
1713.431111309554
 20
593.1777945507185
 30
0.0
  0
POINT
  5
1974
330
196B
100
AcDbEntity
  8
Defpoints
 62
     0
100
AcDbPoint
 10
1636.431111309554
 20
593.1777945507185
 30
0.0
  0
POINT
  5
1975
330
196B
100
AcDbEntity
  8
Defpoints
 62
     0
100
AcDbPoint
 10
1636.431111309554
 20
593.1777945507185
 30
0.0
  0
ENDBLK
  5
1977
330
196B
100
AcDbEntity
  8
0
100
AcDbBlockEnd
  0
BLOCK
  5
1983
330
1978
100
AcDbEntity
  8
0
100
AcDbBlockBegin
  2
*D82
 70
     1
 10
0.0
 20
0.0
 30
0.0
  3
*D82
  1

  0
LINE
  5
1979
330
1978
100
AcDbEntity
  8
0
 62
     0
370
    -2
100
AcDbLine
 10
1713.431111309554
 20
228.2402945507186
 30
0.0
 11
1713.431111309554
 21
228.3577945507186
 31
0.0
  0
LINE
  5
197A
330
1978
100
AcDbEntity
  8
0
 62
     0
370
    -2
100
AcDbLine
 10
1636.431111309554
 20
228.2402945507186
 30
0.0
 11
1636.431111309554
 21
228.3577945507186
 31
0.0
  0
LINE
  5
197B
330
1978
100
AcDbEntity
  8
0
 62
     0
370
    -2
100
AcDbLine
 10
1713.251111309554
 20
228.1777945507186
 30
0.0
 11
1696.271111309554
 21
228.1777945507186
 31
0.0
  0
LINE
  5
197C
330
1978
100
AcDbEntity
  8
0
 62
     0
370
    -2
100
AcDbLine
 10
1636.611111309554
 20
228.1777945507186
 30
0.0
 11
1653.591111309554
 21
228.1777945507186
 31
0.0
  0
SOLID
  5
197D
330
1978
100
AcDbEntity
  8
0
 62
     0
100
AcDbTrace
 10
1713.251111309554
 20
228.2077945507186
 30
0.0
 11
1713.251111309554
 21
228.1477945507186
 31
0.0
 12
1713.431111309554
 22
228.1777945507186
 32
0.0
 13
1713.431111309554
 23
228.1777945507186
 33
0.0
  0
SOLID
  5
197E
330
1978
100
AcDbEntity
  8
0
 62
     0
100
AcDbTrace
 10
1636.611111309554
 20
228.2077945507186
 30
0.0
 11
1636.611111309554
 21
228.1477945507186
 31
0.0
 12
1636.431111309554
 22
228.1777945507186
 32
0.0
 13
1636.431111309554
 23
228.1777945507186
 33
0.0
  0
MTEXT
  5
197F
330
1978
100
AcDbEntity
  8
0
 62
     0
100
AcDbMText
 10
1674.931111309554
 20
228.1777945507186
 30
0.0
 40
15.0
 41
0.0
 46
0.0
 71
     5
 72
     1
  1
\A1;77.0
 73
     1
 44
1.0
  0
POINT
  5
1980
330
1978
100
AcDbEntity
  8
Defpoints
 62
     0
100
AcDbPoint
 10
1713.431111309554
 20
228.1777945507185
 30
0.0
  0
POINT
  5
1981
330
1978
100
AcDbEntity
  8
Defpoints
 62
     0
100
AcDbPoint
 10
1636.431111309554
 20
228.1777945507186
 30
0.0
  0
POINT
  5
1982
330
1978
100
AcDbEntity
  8
Defpoints
 62
     0
100
AcDbPoint
 10
1636.431111309554
 20
228.1777945507186
 30
0.0
  0
ENDBLK
  5
1984
330
1978
100
AcDbEntity
  8
0
100
AcDbBlockEnd
  0
BLOCK
  5
1991
330
1986
100
AcDbEntity
  8
0
100
AcDbBlockBegin
  2
*D83
 70
     1
 10
0.0
 20
0.0
 30
0.0
  3
*D83
  1

  0
LINE
  5
1994
330
1986
100
AcDbEntity
  8
0
 62
     0
370
    -2
100
AcDbLine
 10
1350.048507994086
 20
616.3006236029932
 30
0.0
 11
1407.707229284178
 21
616.3006236029932
 31
0.0
  0
LINE
  5
1995
330
1986
100
AcDbEntity
  8
0
 62
     0
370
    -2
100
AcDbLine
 10
1350.048507994086
 20
556.3006236029933
 30
0.0
 11
1407.707229284178
 21
556.3006236029933
 31
0.0
  0
LINE
  5
1996
330
1986
100
AcDbEntity
  8
0
 62
     0
370
    -2
100
AcDbLine
 10
1407.527229284178
 20
616.1206236029934
 30
0.0
 11
1407.527229284178
 21
593.8906236029934
 31
0.0
  0
LINE
  5
1997
330
1986
100
AcDbEntity
  8
0
 62
     0
370
    -2
100
AcDbLine
 10
1407.527229284178
 20
556.4806236029933
 30
0.0
 11
1407.527229284178
 21
578.7106236029932
 31
0.0
  0
SOLID
  5
1998
330
1986
100
AcDbEntity
  8
0
 62
     0
100
AcDbTrace
 10
1407.497229284178
 20
616.1206236029934
 30
0.0
 11
1407.557229284178
 21
616.1206236029934
 31
0.0
 12
1407.527229284178
 22
616.3006236029932
 32
0.0
 13
1407.527229284178
 23
616.3006236029932
 33
0.0
  0
SOLID
  5
1999
330
1986
100
AcDbEntity
  8
0
 62
     0
100
AcDbTrace
 10
1407.497229284178
 20
556.4806236029933
 30
0.0
 11
1407.557229284178
 21
556.4806236029933
 31
0.0
 12
1407.527229284178
 22
556.3006236029933
 32
0.0
 13
1407.527229284178
 23
556.3006236029933
 33
0.0
  0
MTEXT
  5
199A
330
1986
100
AcDbEntity
  8
0
 62
     0
100
AcDbMText
 10
1407.527229284177
 20
586.3006236029936
 30
0.0
 40
15.0
 41
0.0
 46
0.0
 71
     5
 72
     1
  1
\A1;60.0
 73
     1
 44
1.0
  0
POINT
  5
199B
330
1986
100
AcDbEntity
  8
Defpoints
 62
     0
100
AcDbPoint
 10
1349.986007994086
 20
616.3006236029932
 30
0.0
  0
POINT
  5
199C
330
1986
100
AcDbEntity
  8
Defpoints
 62
     0
100
AcDbPoint
 10
1349.986007994086
 20
556.3006236029933
 30
0.0
  0
POINT
  5
199D
330
1986
100
AcDbEntity
  8
Defpoints
 62
     0
100
AcDbPoint
 10
1407.527229284178
 20
556.3006236029933
 30
0.0
  0
ENDBLK
  5
1992
330
1986
100
AcDbEntity
  8
0
100
AcDbBlockEnd
  0
BLOCK
  5
19DF
330
19D4
100
AcDbEntity
  8
0
100
AcDbBlockBegin
  2
*D84
 70
     1
 10
0.0
 20
0.0
 30
0.0
  3
*D84
  1

  0
LINE
  5
19EB
330
19D4
100
AcDbEntity
  8
0
 62
     0
370
    -2
100
AcDbLine
 10
433.9120771315513
 20
593.2402945507185
 30
0.0
 11
433.9120771315513
 21
593.3577945507185
 31
0.0
  0
LINE
  5
19EC
330
19D4
100
AcDbEntity
  8
0
 62
     0
370
    -2
100
AcDbLine
 10
356.9120771315513
 20
593.2402945507185
 30
0.0
 11
356.9120771315513
 21
593.3577945507185
 31
0.0
  0
LINE
  5
19ED
330
19D4
100
AcDbEntity
  8
0
 62
     0
370
    -2
100
AcDbLine
 10
433.7320771315511
 20
593.1777945507185
 30
0.0
 11
416.7520771315513
 21
593.1777945507185
 31
0.0
  0
LINE
  5
19EE
330
19D4
100
AcDbEntity
  8
0
 62
     0
370
    -2
100
AcDbLine
 10
357.0920771315513
 20
593.1777945507185
 30
0.0
 11
374.0720771315513
 21
593.1777945507185
 31
0.0
  0
SOLID
  5
19EF
330
19D4
100
AcDbEntity
  8
0
 62
     0
100
AcDbTrace
 10
433.7320771315511
 20
593.2077945507185
 30
0.0
 11
433.7320771315511
 21
593.1477945507185
 31
0.0
 12
433.9120771315513
 22
593.1777945507185
 32
0.0
 13
433.9120771315513
 23
593.1777945507185
 33
0.0
  0
SOLID
  5
19F0
330
19D4
100
AcDbEntity
  8
0
 62
     0
100
AcDbTrace
 10
357.0920771315513
 20
593.2077945507185
 30
0.0
 11
357.0920771315513
 21
593.1477945507185
 31
0.0
 12
356.9120771315513
 22
593.1777945507185
 32
0.0
 13
356.9120771315513
 23
593.1777945507185
 33
0.0
  0
MTEXT
  5
19F1
330
19D4
100
AcDbEntity
  8
0
 62
     0
100
AcDbMText
 10
395.4120771315513
 20
593.1777945507185
 30
0.0
 40
15.0
 41
0.0
 46
0.0
 71
     5
 72
     1
  1
\A1;77.0
 73
     1
 44
1.0
  0
POINT
  5
19F2
330
19D4
100
AcDbEntity
  8
Defpoints
 62
     0
100
AcDbPoint
 10
433.9120771315513
 20
593.1777945507185
 30
0.0
  0
POINT
  5
19F3
330
19D4
100
AcDbEntity
  8
Defpoints
 62
     0
100
AcDbPoint
 10
356.9120771315513
 20
593.1777945507185
 30
0.0
  0
POINT
  5
19F4
330
19D4
100
AcDbEntity
  8
Defpoints
 62
     0
100
AcDbPoint
 10
356.9120771315513
 20
593.1777945507185
 30
0.0
  0
ENDBLK
  5
19E0
330
19D4
100
AcDbEntity
  8
0
100
AcDbBlockEnd
  0
BLOCK
  5
19FB
330
19FA
100
AcDbEntity
  8
0
100
AcDbBlockBegin
  2
*D85
 70
     1
 10
0.0
 20
0.0
 30
0.0
  3
*D85
  1

  0
LINE
  5
19FC
330
19FA
100
AcDbEntity
  8
0
 62
     0
370
    -2
100
AcDbLine
 10
1354.73142281146
 20
710.7605555436991
 30
0.0
 11
1354.73142281146
 21
714.2442178631869
 31
0.0
  0
LINE
  5
19FD
330
19FA
100
AcDbEntity
  8
0
 62
     0
370
    -2
100
AcDbLine
 10
1614.731422811459
 20
710.7605555436991
 30
0.0
 11
1614.731422811459
 21
714.2442178631869
 31
0.0
  0
LINE
  5
19FE
330
19FA
100
AcDbEntity
  8
0
 62
     0
370
    -2
100
AcDbLine
 10
1354.91142281146
 20
714.0642178631869
 30
0.0
 11
1457.14142281146
 21
714.0642178631869
 31
0.0
  0
LINE
  5
19FF
330
19FA
100
AcDbEntity
  8
0
 62
     0
370
    -2
100
AcDbLine
 10
1614.551422811459
 20
714.0642178631869
 30
0.0
 11
1512.321422811459
 21
714.0642178631869
 31
0.0
  0
SOLID
  5
1A00
330
19FA
100
AcDbEntity
  8
0
 62
     0
100
AcDbTrace
 10
1354.91142281146
 20
714.0942178631869
 30
0.0
 11
1354.91142281146
 21
714.0342178631869
 31
0.0
 12
1354.73142281146
 22
714.0642178631869
 32
0.0
 13
1354.73142281146
 23
714.0642178631869
 33
0.0
  0
SOLID
  5
1A01
330
19FA
100
AcDbEntity
  8
0
 62
     0
100
AcDbTrace
 10
1614.551422811459
 20
714.0942178631869
 30
0.0
 11
1614.551422811459
 21
714.0342178631869
 31
0.0
 12
1614.731422811459
 22
714.0642178631869
 32
0.0
 13
1614.731422811459
 23
714.0642178631869
 33
0.0
  0
MTEXT
  5
1A02
330
19FA
100
AcDbEntity
  8
0
 62
     0
100
AcDbMText
 10
1484.731422811459
 20
714.0642178631869
 30
0.0
 40
15.0
 41
0.0
 46
0.0
 71
     5
 72
     1
  1
\A1;260.0
 73
     1
 44
1.0
  0
POINT
  5
1A03
330
19FA
100
AcDbEntity
  8
Defpoints
 62
     0
100
AcDbPoint
 10
1354.73142281146
 20
710.6980555436991
 30
0.0
  0
POINT
  5
1A04
330
19FA
100
AcDbEntity
  8
Defpoints
 62
     0
100
AcDbPoint
 10
1614.731422811459
 20
710.6980555436991
 30
0.0
  0
POINT
  5
1A05
330
19FA
100
AcDbEntity
  8
Defpoints
 62
     0
100
AcDbPoint
 10
1614.731422811459
 20
714.0642178631869
 30
0.0
  0
ENDBLK
  5
1A06
330
19FA
100
AcDbEntity
  8
0
100
AcDbBlockEnd
  0
BLOCK
  5
1A08
330
1A07
100
AcDbEntity
  8
0
100
AcDbBlockBegin
  2
*D86
 70
     1
 10
0.0
 20
0.0
 30
0.0
  3
*D86
  1

  0
LINE
  5
1A09
330
1A07
100
AcDbEntity
  8
0
 62
     0
370
    -2
100
AcDbLine
 10
1577.800804013592
 20
897.122674377092
 30
0.0
 11
1577.683304013592
 21
897.122674377092
 31
0.0
  0
LINE
  5
1A0A
330
1A07
100
AcDbEntity
  8
0
 62
     0
370
    -2
100
AcDbLine
 10
1577.800804013592
 20
637.1226743770919
 30
0.0
 11
1577.683304013592
 21
637.1226743770919
 31
0.0
  0
LINE
  5
1A0B
330
1A07
100
AcDbEntity
  8
0
 62
     0
370
    -2
100
AcDbLine
 10
1577.863304013592
 20
896.942674377092
 30
0.0
 11
1577.863304013592
 21
774.712674377092
 31
0.0
  0
LINE
  5
1A0C
330
1A07
100
AcDbEntity
  8
0
 62
     0
370
    -2
100
AcDbLine
 10
1577.863304013592
 20
637.3026743770918
 30
0.0
 11
1577.863304013592
 21
759.5326743770916
 31
0.0
  0
SOLID
  5
1A0D
330
1A07
100
AcDbEntity
  8
0
 62
     0
100
AcDbTrace
 10
1577.833304013593
 20
896.942674377092
 30
0.0
 11
1577.893304013592
 21
896.942674377092
 31
0.0
 12
1577.863304013592
 22
897.122674377092
 32
0.0
 13
1577.863304013592
 23
897.122674377092
 33
0.0
  0
SOLID
  5
1A0E
330
1A07
100
AcDbEntity
  8
0
 62
     0
100
AcDbTrace
 10
1577.833304013593
 20
637.3026743770918
 30
0.0
 11
1577.893304013592
 21
637.3026743770918
 31
0.0
 12
1577.863304013592
 22
637.1226743770919
 32
0.0
 13
1577.863304013592
 23
637.1226743770919
 33
0.0
  0
MTEXT
  5
1A0F
330
1A07
100
AcDbEntity
  8
0
 62
     0
100
AcDbMText
 10
1577.863304013592
 20
767.1226743770922
 30
0.0
 40
15.0
 41
0.0
 46
0.0
 71
     5
 72
     1
  1
\A1;260.0
 73
     1
 44
1.0
  0
POINT
  5
1A10
330
1A07
100
AcDbEntity
  8
Defpoints
 62
     0
100
AcDbPoint
 10
1577.863304013592
 20
897.122674377092
 30
0.0
  0
POINT
  5
1A11
330
1A07
100
AcDbEntity
  8
Defpoints
 62
     0
100
AcDbPoint
 10
1577.863304013592
 20
637.1226743770919
 30
0.0
  0
POINT
  5
1A12
330
1A07
100
AcDbEntity
  8
Defpoints
 62
     0
100
AcDbPoint
 10
1577.863304013592
 20
637.1226743770919
 30
0.0
  0
ENDBLK
  5
1A13
330
1A07
100
AcDbEntity
  8
0
100
AcDbBlockEnd
  0
BLOCK
  5
1A15
330
1A14
100
AcDbEntity
  8
0
100
AcDbBlockBegin
  2
*D87
 70
     1
 10
0.0
 20
0.0
 30
0.0
  3
*D87
  1

  0
LINE
  5
1A16
330
1A14
100
AcDbEntity
  8
0
 62
     0
370
    -2
100
AcDbLine
 10
1484.66892281146
 20
1052.122674377092
 30
0.0
 11
1470.688964670427
 21
1052.122674377092
 31
0.0
  0
LINE
  5
1A17
330
1A14
100
AcDbEntity
  8
0
 62
     0
370
    -2
100
AcDbLine
 10
1484.66892281146
 20
897.122674377092
 30
0.0
 11
1470.688964670427
 21
897.122674377092
 31
0.0
  0
LINE
  5
1A18
330
1A14
100
AcDbEntity
  8
0
 62
     0
370
    -2
100
AcDbLine
 10
1470.868964670428
 20
1051.942674377092
 30
0.0
 11
1470.868964670428
 21
982.2126743770919
 31
0.0
  0
LINE
  5
1A19
330
1A14
100
AcDbEntity
  8
0
 62
     0
370
    -2
100
AcDbLine
 10
1470.868964670428
 20
897.3026743770919
 30
0.0
 11
1470.868964670428
 21
967.0326743770916
 31
0.0
  0
SOLID
  5
1A1A
330
1A14
100
AcDbEntity
  8
0
 62
     0
100
AcDbTrace
 10
1470.838964670427
 20
1051.942674377092
 30
0.0
 11
1470.898964670428
 21
1051.942674377092
 31
0.0
 12
1470.868964670428
 22
1052.122674377092
 32
0.0
 13
1470.868964670428
 23
1052.122674377092
 33
0.0
  0
SOLID
  5
1A1B
330
1A14
100
AcDbEntity
  8
0
 62
     0
100
AcDbTrace
 10
1470.838964670427
 20
897.3026743770919
 30
0.0
 11
1470.898964670428
 21
897.3026743770919
 31
0.0
 12
1470.868964670428
 22
897.122674377092
 32
0.0
 13
1470.868964670428
 23
897.122674377092
 33
0.0
  0
MTEXT
  5
1A1C
330
1A14
100
AcDbEntity
  8
0
 62
     0
100
AcDbMText
 10
1470.868964670427
 20
974.6226743770916
 30
0.0
 40
15.0
 41
0.0
 46
0.0
 71
     5
 72
     1
  1
\A1;155.0
 73
     1
 44
1.0
  0
POINT
  5
1A1D
330
1A14
100
AcDbEntity
  8
Defpoints
 62
     0
100
AcDbPoint
 10
1484.73142281146
 20
1052.122674377092
 30
0.0
  0
POINT
  5
1A1E
330
1A14
100
AcDbEntity
  8
Defpoints
 62
     0
100
AcDbPoint
 10
1484.73142281146
 20
897.122674377092
 30
0.0
  0
POINT
  5
1A1F
330
1A14
100
AcDbEntity
  8
Defpoints
 62
     0
100
AcDbPoint
 10
1470.868964670428
 20
897.122674377092
 30
0.0
  0
ENDBLK
  5
1A20
330
1A14
100
AcDbEntity
  8
0
100
AcDbBlockEnd
  0
BLOCK
  5
1A22
330
1A21
100
AcDbEntity
  8
0
100
AcDbBlockBegin
  2
*D88
 70
     1
 10
0.0
 20
0.0
 30
0.0
  3
*D88
  1

  0
LINE
  5
1A23
330
1A21
100
AcDbEntity
  8
0
 62
     0
370
    -2
100
AcDbLine
 10
1613.73142281146
 20
951.9069541427194
 30
0.0
 11
1613.73142281146
 21
973.8919030919245
 31
0.0
  0
LINE
  5
1A24
330
1A21
100
AcDbEntity
  8
0
 62
     0
370
    -2
100
AcDbLine
 10
1695.73142281146
 20
951.9069541427192
 30
0.0
 11
1695.73142281146
 21
973.8919030919245
 31
0.0
  0
LINE
  5
1A25
330
1A21
100
AcDbEntity
  8
0
 62
     0
370
    -2
100
AcDbLine
 10
1613.911422811459
 20
973.7119030919243
 30
0.0
 11
1633.39142281146
 21
973.7119030919243
 31
0.0
  0
LINE
  5
1A26
330
1A21
100
AcDbEntity
  8
0
 62
     0
370
    -2
100
AcDbLine
 10
1695.551422811459
 20
973.7119030919243
 30
0.0
 11
1676.07142281146
 21
973.7119030919243
 31
0.0
  0
SOLID
  5
1A27
330
1A21
100
AcDbEntity
  8
0
 62
     0
100
AcDbTrace
 10
1613.911422811459
 20
973.7419030919244
 30
0.0
 11
1613.911422811459
 21
973.6819030919244
 31
0.0
 12
1613.73142281146
 22
973.7119030919243
 32
0.0
 13
1613.73142281146
 23
973.7119030919243
 33
0.0
  0
SOLID
  5
1A28
330
1A21
100
AcDbEntity
  8
0
 62
     0
100
AcDbTrace
 10
1695.551422811459
 20
973.7419030919244
 30
0.0
 11
1695.551422811459
 21
973.6819030919244
 31
0.0
 12
1695.73142281146
 22
973.7119030919243
 32
0.0
 13
1695.73142281146
 23
973.7119030919243
 33
0.0
  0
MTEXT
  5
1A29
330
1A21
100
AcDbEntity
  8
0
 62
     0
100
AcDbMText
 10
1654.73142281146
 20
973.7119030919243
 30
0.0
 40
15.0
 41
0.0
 46
0.0
 71
     5
 72
     1
  1
\A1;82.0
 73
     1
 44
1.0
  0
POINT
  5
1A2A
330
1A21
100
AcDbEntity
  8
Defpoints
 62
     0
100
AcDbPoint
 10
1613.73142281146
 20
951.8444541427195
 30
0.0
  0
POINT
  5
1A2B
330
1A21
100
AcDbEntity
  8
Defpoints
 62
     0
100
AcDbPoint
 10
1695.73142281146
 20
951.8444541427193
 30
0.0
  0
POINT
  5
1A2C
330
1A21
100
AcDbEntity
  8
Defpoints
 62
     0
100
AcDbPoint
 10
1695.73142281146
 20
973.7119030919243
 30
0.0
  0
ENDBLK
  5
1A2D
330
1A21
100
AcDbEntity
  8
0
100
AcDbBlockEnd
  0
BLOCK
  5
1A2F
330
1A2E
100
AcDbEntity
  8
0
100
AcDbBlockBegin
  2
*D89
 70
     1
 10
0.0
 20
0.0
 30
0.0
  3
*D89
  1

  0
LINE
  5
1A30
330
1A2E
100
AcDbEntity
  8
0
 62
     0
370
    -2
100
AcDbLine
 10
1221.73142281146
 20
672.0877510340585
 30
0.0
 11
1221.73142281146
 21
586.8166459306122
 31
0.0
  0
LINE
  5
1A31
330
1A2E
100
AcDbEntity
  8
0
 62
     0
370
    -2
100
AcDbLine
 10
1749.731422811459
 20
672.0877510340585
 30
0.0
 11
1749.731422811459
 21
586.8166459306122
 31
0.0
  0
LINE
  5
1A32
330
1A2E
100
AcDbEntity
  8
0
 62
     0
370
    -2
100
AcDbLine
 10
1221.91142281146
 20
586.9966459306124
 30
0.0
 11
1456.891422811459
 21
586.9966459306124
 31
0.0
  0
LINE
  5
1A33
330
1A2E
100
AcDbEntity
  8
0
 62
     0
370
    -2
100
AcDbLine
 10
1749.551422811459
 20
586.9966459306124
 30
0.0
 11
1514.571422811459
 21
586.9966459306124
 31
0.0
  0
SOLID
  5
1A34
330
1A2E
100
AcDbEntity
  8
0
 62
     0
100
AcDbTrace
 10
1221.91142281146
 20
587.0266459306122
 30
0.0
 11
1221.91142281146
 21
586.9666459306124
 31
0.0
 12
1221.73142281146
 22
586.9966459306124
 32
0.0
 13
1221.73142281146
 23
586.9966459306124
 33
0.0
  0
SOLID
  5
1A35
330
1A2E
100
AcDbEntity
  8
0
 62
     0
100
AcDbTrace
 10
1749.551422811459
 20
587.0266459306122
 30
0.0
 11
1749.551422811459
 21
586.9666459306124
 31
0.0
 12
1749.731422811459
 22
586.9966459306124
 32
0.0
 13
1749.731422811459
 23
586.9966459306124
 33
0.0
  0
MTEXT
  5
1A36
330
1A2E
100
AcDbEntity
  8
0
 62
     0
100
AcDbMText
 10
1485.731422811459
 20
586.9966459306124
 30
0.0
 40
15.0
 41
0.0
 46
0.0
 71
     5
 72
     1
  1
\A1;528.0
 73
     1
 44
1.0
  0
POINT
  5
1A37
330
1A2E
100
AcDbEntity
  8
Defpoints
 62
     0
100
AcDbPoint
 10
1221.73142281146
 20
672.1502510340585
 30
0.0
  0
POINT
  5
1A38
330
1A2E
100
AcDbEntity
  8
Defpoints
 62
     0
100
AcDbPoint
 10
1749.731422811459
 20
672.1502510340585
 30
0.0
  0
POINT
  5
1A39
330
1A2E
100
AcDbEntity
  8
Defpoints
 62
     0
100
AcDbPoint
 10
1749.731422811459
 20
586.9966459306124
 30
0.0
  0
ENDBLK
  5
1A3A
330
1A2E
100
AcDbEntity
  8
0
100
AcDbBlockEnd
  0
BLOCK
  5
1A3C
330
1A3B
100
AcDbEntity
  8
0
100
AcDbBlockBegin
  2
*D90
 70
     1
 10
0.0
 20
0.0
 30
0.0
  3
*D90
  1

  0
LINE
  5
1A3D
330
1A3B
100
AcDbEntity
  8
0
 62
     0
370
    -2
100
AcDbLine
 10
1614.731422811459
 20
1182.747674377092
 30
0.0
 11
1614.731422811459
 21
1183.372674377092
 31
0.0
  0
LINE
  5
1A3E
330
1A3B
100
AcDbEntity
  8
0
 62
     0
370
    -2
100
AcDbLine
 10
1691.731422811459
 20
1182.747674377092
 30
0.0
 11
1691.731422811459
 21
1183.372674377092
 31
0.0
  0
LINE
  5
1A3F
330
1A3B
100
AcDbEntity
  8
0
 62
     0
370
    -2
100
AcDbLine
 10
1617.231422811459
 20
1182.122674377092
 30
0.0
 11
1689.231422811459
 21
1182.122674377092
 31
0.0
  0
SOLID
  5
1A40
330
1A3B
100
AcDbEntity
  8
0
 62
     0
100
AcDbTrace
 10
1617.231422811459
 20
1182.539341043758
 30
0.0
 11
1617.231422811459
 21
1181.706007710425
 31
0.0
 12
1614.731422811459
 22
1182.122674377092
 32
0.0
 13
1614.731422811459
 23
1182.122674377092
 33
0.0
  0
SOLID
  5
1A41
330
1A3B
100
AcDbEntity
  8
0
 62
     0
100
AcDbTrace
 10
1689.231422811459
 20
1182.539341043758
 30
0.0
 11
1689.231422811459
 21
1181.706007710425
 31
0.0
 12
1691.731422811459
 22
1182.122674377092
 32
0.0
 13
1691.731422811459
 23
1182.122674377092
 33
0.0
  0
MTEXT
  5
1A42
330
1A3B
100
AcDbEntity
  8
0
 62
     0
100
AcDbMText
 10
1653.231422811459
 20
1183.997674377092
 30
0.0
 40
2.5
 41
0.0
 46
0.0
 71
     5
 72
     1
  1
77
 73
     1
 44
1.0
  0
POINT
  5
1A43
330
1A3B
100
AcDbEntity
  8
Defpoints
 62
     0
100
AcDbPoint
 10
1614.731422811459
 20
1182.122674377092
 30
0.0
  0
POINT
  5
1A44
330
1A3B
100
AcDbEntity
  8
Defpoints
 62
     0
100
AcDbPoint
 10
1691.731422811459
 20
1182.122674377092
 30
0.0
  0
POINT
  5
1A45
330
1A3B
100
AcDbEntity
  8
Defpoints
 62
     0
100
AcDbPoint
 10
1691.731422811459
 20
1182.122674377092
 30
0.0
  0
ENDBLK
  5
1A46
330
1A3B
100
AcDbEntity
  8
0
100
AcDbBlockEnd
  0
BLOCK
  5
1A48
330
1A47
100
AcDbEntity
  8
0
100
AcDbBlockBegin
  2
*D91
 70
     1
 10
0.0
 20
0.0
 30
0.0
  3
*D91
  1

  0
LINE
  5
1A49
330
1A47
100
AcDbEntity
  8
0
 62
     0
370
    -2
100
AcDbLine
 10
1614.731422811459
 20
766.4976743770917
 30
0.0
 11
1614.731422811459
 21
765.8726743770917
 31
0.0
  0
LINE
  5
1A4A
330
1A47
100
AcDbEntity
  8
0
 62
     0
370
    -2
100
AcDbLine
 10
1691.731422811459
 20
766.4976743770917
 30
0.0
 11
1691.731422811459
 21
765.8726743770917
 31
0.0
  0
LINE
  5
1A4B
330
1A47
100
AcDbEntity
  8
0
 62
     0
370
    -2
100
AcDbLine
 10
1617.231422811459
 20
767.1226743770916
 30
0.0
 11
1689.231422811459
 21
767.1226743770916
 31
0.0
  0
SOLID
  5
1A4C
330
1A47
100
AcDbEntity
  8
0
 62
     0
100
AcDbTrace
 10
1617.231422811459
 20
767.5393410437584
 30
0.0
 11
1617.231422811459
 21
766.7060077104252
 31
0.0
 12
1614.731422811459
 22
767.1226743770916
 32
0.0
 13
1614.731422811459
 23
767.1226743770916
 33
0.0
  0
SOLID
  5
1A4D
330
1A47
100
AcDbEntity
  8
0
 62
     0
100
AcDbTrace
 10
1689.231422811459
 20
767.5393410437584
 30
0.0
 11
1689.231422811459
 21
766.7060077104252
 31
0.0
 12
1691.731422811459
 22
767.1226743770916
 32
0.0
 13
1691.731422811459
 23
767.1226743770916
 33
0.0
  0
MTEXT
  5
1A4E
330
1A47
100
AcDbEntity
  8
0
 62
     0
100
AcDbMText
 10
1653.231422811459
 20
768.9976743770917
 30
0.0
 40
2.5
 41
0.0
 46
0.0
 71
     5
 72
     1
  1
77
 73
     1
 44
1.0
  0
POINT
  5
1A4F
330
1A47
100
AcDbEntity
  8
Defpoints
 62
     0
100
AcDbPoint
 10
1614.731422811459
 20
767.1226743770916
 30
0.0
  0
POINT
  5
1A50
330
1A47
100
AcDbEntity
  8
Defpoints
 62
     0
100
AcDbPoint
 10
1691.731422811459
 20
767.1226743770916
 30
0.0
  0
POINT
  5
1A51
330
1A47
100
AcDbEntity
  8
Defpoints
 62
     0
100
AcDbPoint
 10
1691.731422811459
 20
767.1226743770916
 30
0.0
  0
ENDBLK
  5
1A52
330
1A47
100
AcDbEntity
  8
0
100
AcDbBlockEnd
  0
BLOCK
  5
1A54
330
1A53
100
AcDbEntity
  8
0
100
AcDbBlockBegin
  2
*D92
 70
     1
 10
0.0
 20
0.0
 30
0.0
  3
*D92
  1

  0
LINE
  5
1A55
330
1A53
100
AcDbEntity
  8
0
 62
     0
370
    -2
100
AcDbLine
 10
1355.69614663105
 20
951.9069541427194
 30
0.0
 11
1355.69614663105
 21
973.8919030919245
 31
0.0
  0
LINE
  5
1A56
330
1A53
100
AcDbEntity
  8
0
 62
     0
370
    -2
100
AcDbLine
 10
1273.69614663105
 20
951.9069541427192
 30
0.0
 11
1273.69614663105
 21
973.8919030919245
 31
0.0
  0
LINE
  5
1A57
330
1A53
100
AcDbEntity
  8
0
 62
     0
370
    -2
100
AcDbLine
 10
1355.51614663105
 20
973.7119030919243
 30
0.0
 11
1336.03614663105
 21
973.7119030919243
 31
0.0
  0
LINE
  5
1A58
330
1A53
100
AcDbEntity
  8
0
 62
     0
370
    -2
100
AcDbLine
 10
1273.87614663105
 20
973.7119030919243
 30
0.0
 11
1293.35614663105
 21
973.7119030919243
 31
0.0
  0
SOLID
  5
1A59
330
1A53
100
AcDbEntity
  8
0
 62
     0
100
AcDbTrace
 10
1355.51614663105
 20
973.7419030919244
 30
0.0
 11
1355.51614663105
 21
973.6819030919244
 31
0.0
 12
1355.69614663105
 22
973.7119030919243
 32
0.0
 13
1355.69614663105
 23
973.7119030919243
 33
0.0
  0
SOLID
  5
1A5A
330
1A53
100
AcDbEntity
  8
0
 62
     0
100
AcDbTrace
 10
1273.87614663105
 20
973.7419030919244
 30
0.0
 11
1273.87614663105
 21
973.6819030919244
 31
0.0
 12
1273.69614663105
 22
973.7119030919243
 32
0.0
 13
1273.69614663105
 23
973.7119030919243
 33
0.0
  0
MTEXT
  5
1A5B
330
1A53
100
AcDbEntity
  8
0
 62
     0
100
AcDbMText
 10
1314.69614663105
 20
973.7119030919243
 30
0.0
 40
15.0
 41
0.0
 46
0.0
 71
     5
 72
     1
  1
\A1;82.0
 73
     1
 44
1.0
  0
POINT
  5
1A5C
330
1A53
100
AcDbEntity
  8
Defpoints
 62
     0
100
AcDbPoint
 10
1355.69614663105
 20
951.8444541427195
 30
0.0
  0
POINT
  5
1A5D
330
1A53
100
AcDbEntity
  8
Defpoints
 62
     0
100
AcDbPoint
 10
1273.69614663105
 20
951.8444541427193
 30
0.0
  0
POINT
  5
1A5E
330
1A53
100
AcDbEntity
  8
Defpoints
 62
     0
100
AcDbPoint
 10
1273.69614663105
 20
973.7119030919243
 30
0.0
  0
ENDBLK
  5
1A5F
330
1A53
100
AcDbEntity
  8
0
100
AcDbBlockEnd
  0
BLOCK
  5
1A61
330
1A60
100
AcDbEntity
  8
0
100
AcDbBlockBegin
  2
*D93
 70
     1
 10
0.0
 20
0.0
 30
0.0
  3
*D93
  1

  0
LINE
  5
1A62
330
1A60
100
AcDbEntity
  8
0
 62
     0
370
    -2
100
AcDbLine
 10
1354.696146631051
 20
1182.747674377092
 30
0.0
 11
1354.696146631051
 21
1183.372674377092
 31
0.0
  0
LINE
  5
1A63
330
1A60
100
AcDbEntity
  8
0
 62
     0
370
    -2
100
AcDbLine
 10
1277.696146631051
 20
1182.747674377092
 30
0.0
 11
1277.696146631051
 21
1183.372674377092
 31
0.0
  0
LINE
  5
1A64
330
1A60
100
AcDbEntity
  8
0
 62
     0
370
    -2
100
AcDbLine
 10
1352.196146631051
 20
1182.122674377092
 30
0.0
 11
1280.19614663105
 21
1182.122674377092
 31
0.0
  0
SOLID
  5
1A65
330
1A60
100
AcDbEntity
  8
0
 62
     0
100
AcDbTrace
 10
1352.196146631051
 20
1182.539341043758
 30
0.0
 11
1352.196146631051
 21
1181.706007710425
 31
0.0
 12
1354.696146631051
 22
1182.122674377092
 32
0.0
 13
1354.696146631051
 23
1182.122674377092
 33
0.0
  0
SOLID
  5
1A66
330
1A60
100
AcDbEntity
  8
0
 62
     0
100
AcDbTrace
 10
1280.19614663105
 20
1182.539341043758
 30
0.0
 11
1280.19614663105
 21
1181.706007710425
 31
0.0
 12
1277.696146631051
 22
1182.122674377092
 32
0.0
 13
1277.696146631051
 23
1182.122674377092
 33
0.0
  0
MTEXT
  5
1A67
330
1A60
100
AcDbEntity
  8
0
 62
     0
100
AcDbMText
 10
1316.196146631051
 20
1183.997674377092
 30
0.0
 40
2.5
 41
0.0
 46
0.0
 71
     5
 72
     1
  1
77
 73
     1
 44
1.0
  0
POINT
  5
1A68
330
1A60
100
AcDbEntity
  8
Defpoints
 62
     0
100
AcDbPoint
 10
1354.696146631051
 20
1182.122674377092
 30
0.0
  0
POINT
  5
1A69
330
1A60
100
AcDbEntity
  8
Defpoints
 62
     0
100
AcDbPoint
 10
1277.696146631051
 20
1182.122674377092
 30
0.0
  0
POINT
  5
1A6A
330
1A60
100
AcDbEntity
  8
Defpoints
 62
     0
100
AcDbPoint
 10
1277.696146631051
 20
1182.122674377092
 30
0.0
  0
ENDBLK
  5
1A6B
330
1A60
100
AcDbEntity
  8
0
100
AcDbBlockEnd
  0
BLOCK
  5
1A6D
330
1A6C
100
AcDbEntity
  8
0
100
AcDbBlockBegin
  2
*D94
 70
     1
 10
0.0
 20
0.0
 30
0.0
  3
*D94
  1

  0
LINE
  5
1A6E
330
1A6C
100
AcDbEntity
  8
0
 62
     0
370
    -2
100
AcDbLine
 10
1354.696146631051
 20
766.4976743770917
 30
0.0
 11
1354.696146631051
 21
765.8726743770917
 31
0.0
  0
LINE
  5
1A6F
330
1A6C
100
AcDbEntity
  8
0
 62
     0
370
    -2
100
AcDbLine
 10
1277.696146631051
 20
766.4976743770917
 30
0.0
 11
1277.696146631051
 21
765.8726743770917
 31
0.0
  0
LINE
  5
1A70
330
1A6C
100
AcDbEntity
  8
0
 62
     0
370
    -2
100
AcDbLine
 10
1352.196146631051
 20
767.1226743770916
 30
0.0
 11
1280.196146631051
 21
767.1226743770916
 31
0.0
  0
SOLID
  5
1A71
330
1A6C
100
AcDbEntity
  8
0
 62
     0
100
AcDbTrace
 10
1352.196146631051
 20
767.5393410437584
 30
0.0
 11
1352.196146631051
 21
766.7060077104252
 31
0.0
 12
1354.696146631051
 22
767.1226743770916
 32
0.0
 13
1354.696146631051
 23
767.1226743770916
 33
0.0
  0
SOLID
  5
1A72
330
1A6C
100
AcDbEntity
  8
0
 62
     0
100
AcDbTrace
 10
1280.196146631051
 20
767.5393410437584
 30
0.0
 11
1280.196146631051
 21
766.7060077104252
 31
0.0
 12
1277.696146631051
 22
767.1226743770916
 32
0.0
 13
1277.696146631051
 23
767.1226743770916
 33
0.0
  0
MTEXT
  5
1A73
330
1A6C
100
AcDbEntity
  8
0
 62
     0
100
AcDbMText
 10
1316.196146631051
 20
768.9976743770917
 30
0.0
 40
2.5
 41
0.0
 46
0.0
 71
     5
 72
     1
  1
77
 73
     1
 44
1.0
  0
POINT
  5
1A74
330
1A6C
100
AcDbEntity
  8
Defpoints
 62
     0
100
AcDbPoint
 10
1354.696146631051
 20
767.1226743770916
 30
0.0
  0
POINT
  5
1A75
330
1A6C
100
AcDbEntity
  8
Defpoints
 62
     0
100
AcDbPoint
 10
1277.696146631051
 20
767.1226743770916
 30
0.0
  0
POINT
  5
1A76
330
1A6C
100
AcDbEntity
  8
Defpoints
 62
     0
100
AcDbPoint
 10
1277.696146631051
 20
767.1226743770916
 30
0.0
  0
ENDBLK
  5
1A77
330
1A6C
100
AcDbEntity
  8
0
100
AcDbBlockEnd
  0
BLOCK
  5
1BCF
330
1BC4
100
AcDbEntity
  8
0
100
AcDbBlockBegin
  2
*D95
 70
     1
 10
0.0
 20
0.0
 30
0.0
  3
*D95
  1

  0
LINE
  5
1C1B
330
1BC4
100
AcDbEntity
  8
0
 62
     0
370
    -2
100
AcDbLine
 10
1041.77279368561
 20
204.4282684358296
 30
0.0
 11
1041.77279368561
 21
207.9119307553173
 31
0.0
  0
LINE
  5
1C1C
330
1BC4
100
AcDbEntity
  8
0
 62
     0
370
    -2
100
AcDbLine
 10
1301.772793685609
 20
204.4282684358296
 30
0.0
 11
1301.772793685609
 21
207.9119307553173
 31
0.0
  0
LINE
  5
1C1D
330
1BC4
100
AcDbEntity
  8
0
 62
     0
370
    -2
100
AcDbLine
 10
1041.952793685609
 20
207.7319307553173
 30
0.0
 11
1144.182793685609
 21
207.7319307553173
 31
0.0
  0
LINE
  5
1C1E
330
1BC4
100
AcDbEntity
  8
0
 62
     0
370
    -2
100
AcDbLine
 10
1301.592793685609
 20
207.7319307553173
 30
0.0
 11
1199.362793685609
 21
207.7319307553173
 31
0.0
  0
SOLID
  5
1C1F
330
1BC4
100
AcDbEntity
  8
0
 62
     0
100
AcDbTrace
 10
1041.952793685609
 20
207.7619307553173
 30
0.0
 11
1041.952793685609
 21
207.7019307553173
 31
0.0
 12
1041.77279368561
 22
207.7319307553173
 32
0.0
 13
1041.77279368561
 23
207.7319307553173
 33
0.0
  0
SOLID
  5
1C20
330
1BC4
100
AcDbEntity
  8
0
 62
     0
100
AcDbTrace
 10
1301.592793685609
 20
207.7619307553173
 30
0.0
 11
1301.592793685609
 21
207.7019307553173
 31
0.0
 12
1301.772793685609
 22
207.7319307553173
 32
0.0
 13
1301.772793685609
 23
207.7319307553173
 33
0.0
  0
MTEXT
  5
1C21
330
1BC4
100
AcDbEntity
  8
0
 62
     0
100
AcDbMText
 10
1171.772793685609
 20
207.7319307553173
 30
0.0
 40
15.0
 41
0.0
 46
0.0
 71
     5
 72
     1
  1
\A1;260.0
 73
     1
 44
1.0
  0
POINT
  5
1C22
330
1BC4
100
AcDbEntity
  8
Defpoints
 62
     0
100
AcDbPoint
 10
1041.77279368561
 20
204.3657684358295
 30
0.0
  0
POINT
  5
1C23
330
1BC4
100
AcDbEntity
  8
Defpoints
 62
     0
100
AcDbPoint
 10
1301.772793685609
 20
204.3657684358295
 30
0.0
  0
POINT
  5
1C24
330
1BC4
100
AcDbEntity
  8
Defpoints
 62
     0
100
AcDbPoint
 10
1301.772793685609
 20
207.7319307553173
 30
0.0
  0
ENDBLK
  5
1BD0
330
1BC4
100
AcDbEntity
  8
0
100
AcDbBlockEnd
  0
BLOCK
  5
1BDC
330
1BD1
100
AcDbEntity
  8
0
100
AcDbBlockBegin
  2
*D96
 70
     1
 10
0.0
 20
0.0
 30
0.0
  3
*D96
  1

  0
LINE
  5
1C4C
330
1BD1
100
AcDbEntity
  8
0
 62
     0
370
    -2
100
AcDbLine
 10
908.7727936856095
 20
165.7554639261889
 30
0.0
 11
908.7727936856095
 21
80.48435882274279
 31
0.0
  0
LINE
  5
1C4D
330
1BD1
100
AcDbEntity
  8
0
 62
     0
370
    -2
100
AcDbLine
 10
1436.772793685609
 20
165.7554639261889
 30
0.0
 11
1436.772793685609
 21
80.48435882274279
 31
0.0
  0
LINE
  5
1C4E
330
1BD1
100
AcDbEntity
  8
0
 62
     0
370
    -2
100
AcDbLine
 10
908.9527936856095
 20
80.6643588227428
 30
0.0
 11
1143.932793685609
 21
80.6643588227428
 31
0.0
  0
LINE
  5
1C4F
330
1BD1
100
AcDbEntity
  8
0
 62
     0
370
    -2
100
AcDbLine
 10
1436.592793685609
 20
80.6643588227428
 30
0.0
 11
1201.612793685609
 21
80.6643588227428
 31
0.0
  0
SOLID
  5
1C50
330
1BD1
100
AcDbEntity
  8
0
 62
     0
100
AcDbTrace
 10
908.9527936856095
 20
80.6943588227428
 30
0.0
 11
908.9527936856095
 21
80.6343588227428
 31
0.0
 12
908.7727936856095
 22
80.6643588227428
 32
0.0
 13
908.7727936856095
 23
80.6643588227428
 33
0.0
  0
SOLID
  5
1C51
330
1BD1
100
AcDbEntity
  8
0
 62
     0
100
AcDbTrace
 10
1436.592793685609
 20
80.6943588227428
 30
0.0
 11
1436.592793685609
 21
80.6343588227428
 31
0.0
 12
1436.772793685609
 22
80.6643588227428
 32
0.0
 13
1436.772793685609
 23
80.6643588227428
 33
0.0
  0
MTEXT
  5
1C52
330
1BD1
100
AcDbEntity
  8
0
 62
     0
100
AcDbMText
 10
1172.772793685609
 20
80.6643588227428
 30
0.0
 40
15.0
 41
0.0
 46
0.0
 71
     5
 72
     1
  1
\A1;528.0
 73
     1
 44
1.0
  0
POINT
  5
1C53
330
1BD1
100
AcDbEntity
  8
Defpoints
 62
     0
100
AcDbPoint
 10
908.7727936856095
 20
165.8179639261889
 30
0.0
  0
POINT
  5
1C54
330
1BD1
100
AcDbEntity
  8
Defpoints
 62
     0
100
AcDbPoint
 10
1436.772793685609
 20
165.8179639261889
 30
0.0
  0
POINT
  5
1C55
330
1BD1
100
AcDbEntity
  8
Defpoints
 62
     0
100
AcDbPoint
 10
1436.772793685609
 20
80.6643588227428
 30
0.0
  0
ENDBLK
  5
1BDD
330
1BD1
100
AcDbEntity
  8
0
100
AcDbBlockEnd
  0
BLOCK
  5
1BE8
330
1BDE
100
AcDbEntity
  8
0
100
AcDbBlockBegin
  2
*D97
 70
     1
 10
0.0
 20
0.0
 30
0.0
  3
*D97
  1

  0
LINE
  5
1BDF
330
1BDE
100
AcDbEntity
  8
0
 62
     0
370
    -2
100
AcDbLine
 10
1301.772793685609
 20
676.4153872692222
 30
0.0
 11
1301.772793685609
 21
677.0403872692222
 31
0.0
  0
LINE
  5
1BE0
330
1BDE
100
AcDbEntity
  8
0
 62
     0
370
    -2
100
AcDbLine
 10
1378.772793685609
 20
676.4153872692222
 30
0.0
 11
1378.772793685609
 21
677.0403872692222
 31
0.0
  0
LINE
  5
1BE1
330
1BDE
100
AcDbEntity
  8
0
 62
     0
370
    -2
100
AcDbLine
 10
1304.272793685609
 20
675.7903872692223
 30
0.0
 11
1376.272793685609
 21
675.7903872692223
 31
0.0
  0
SOLID
  5
1BE2
330
1BDE
100
AcDbEntity
  8
0
 62
     0
100
AcDbTrace
 10
1304.272793685609
 20
676.2070539358887
 30
0.0
 11
1304.272793685609
 21
675.3737206025556
 31
0.0
 12
1301.772793685609
 22
675.7903872692223
 32
0.0
 13
1301.772793685609
 23
675.7903872692223
 33
0.0
  0
SOLID
  5
1BE3
330
1BDE
100
AcDbEntity
  8
0
 62
     0
100
AcDbTrace
 10
1376.272793685609
 20
676.2070539358887
 30
0.0
 11
1376.272793685609
 21
675.3737206025556
 31
0.0
 12
1378.772793685609
 22
675.7903872692223
 32
0.0
 13
1378.772793685609
 23
675.7903872692223
 33
0.0
  0
MTEXT
  5
1BE4
330
1BDE
100
AcDbEntity
  8
0
 62
     0
100
AcDbMText
 10
1340.272793685609
 20
677.6653872692222
 30
0.0
 40
2.5
 41
0.0
 46
0.0
 71
     5
 72
     1
  1
77
 73
     1
 44
1.0
  0
POINT
  5
1BE5
330
1BDE
100
AcDbEntity
  8
Defpoints
 62
     0
100
AcDbPoint
 10
1301.772793685609
 20
675.7903872692223
 30
0.0
  0
POINT
  5
1BE6
330
1BDE
100
AcDbEntity
  8
Defpoints
 62
     0
100
AcDbPoint
 10
1378.772793685609
 20
675.7903872692223
 30
0.0
  0
POINT
  5
1BE7
330
1BDE
100
AcDbEntity
  8
Defpoints
 62
     0
100
AcDbPoint
 10
1378.772793685609
 20
675.7903872692223
 30
0.0
  0
ENDBLK
  5
1BE9
330
1BDE
100
AcDbEntity
  8
0
100
AcDbBlockEnd
  0
BLOCK
  5
1BF4
330
1BEA
100
AcDbEntity
  8
0
100
AcDbBlockBegin
  2
*D98
 70
     1
 10
0.0
 20
0.0
 30
0.0
  3
*D98
  1

  0
LINE
  5
1C56
330
1BEA
100
AcDbEntity
  8
0
 62
     0
370
    -2
100
AcDbLine
 10
1301.772793685609
 20
260.1653872692223
 30
0.0
 11
1301.772793685609
 21
259.5403872692222
 31
0.0
  0
LINE
  5
1C57
330
1BEA
100
AcDbEntity
  8
0
 62
     0
370
    -2
100
AcDbLine
 10
1378.772793685609
 20
260.1653872692223
 30
0.0
 11
1378.772793685609
 21
259.5403872692222
 31
0.0
  0
LINE
  5
1C58
330
1BEA
100
AcDbEntity
  8
0
 62
     0
370
    -2
100
AcDbLine
 10
1304.272793685609
 20
260.7903872692221
 30
0.0
 11
1376.272793685609
 21
260.7903872692221
 31
0.0
  0
SOLID
  5
1C59
330
1BEA
100
AcDbEntity
  8
0
 62
     0
100
AcDbTrace
 10
1304.272793685609
 20
261.2070539358888
 30
0.0
 11
1304.272793685609
 21
260.3737206025555
 31
0.0
 12
1301.772793685609
 22
260.7903872692221
 32
0.0
 13
1301.772793685609
 23
260.7903872692221
 33
0.0
  0
SOLID
  5
1C5A
330
1BEA
100
AcDbEntity
  8
0
 62
     0
100
AcDbTrace
 10
1376.272793685609
 20
261.2070539358888
 30
0.0
 11
1376.272793685609
 21
260.3737206025555
 31
0.0
 12
1378.772793685609
 22
260.7903872692221
 32
0.0
 13
1378.772793685609
 23
260.7903872692221
 33
0.0
  0
MTEXT
  5
1C5B
330
1BEA
100
AcDbEntity
  8
0
 62
     0
100
AcDbMText
 10
1340.272793685609
 20
262.6653872692222
 30
0.0
 40
2.5
 41
0.0
 46
0.0
 71
     5
 72
     1
  1
77
 73
     1
 44
1.0
  0
POINT
  5
1C5C
330
1BEA
100
AcDbEntity
  8
Defpoints
 62
     0
100
AcDbPoint
 10
1301.772793685609
 20
260.7903872692223
 30
0.0
  0
POINT
  5
1C5D
330
1BEA
100
AcDbEntity
  8
Defpoints
 62
     0
100
AcDbPoint
 10
1378.772793685609
 20
260.7903872692223
 30
0.0
  0
POINT
  5
1C5E
330
1BEA
100
AcDbEntity
  8
Defpoints
 62
     0
100
AcDbPoint
 10
1378.772793685609
 20
260.7903872692221
 30
0.0
  0
ENDBLK
  5
1BF5
330
1BEA
100
AcDbEntity
  8
0
100
AcDbBlockEnd
  0
BLOCK
  5
1C01
330
1BF6
100
AcDbEntity
  8
0
100
AcDbBlockBegin
  2
*D99
 70
     1
 10
0.0
 20
0.0
 30
0.0
  3
*D99
  1

  0
LINE
  5
1C68
330
1BF6
100
AcDbEntity
  8
0
 62
     0
370
    -2
100
AcDbLine
 10
1042.7375175052
 20
445.5746670348497
 30
0.0
 11
1042.7375175052
 21
467.5596159840546
 31
0.0
  0
LINE
  5
1C69
330
1BF6
100
AcDbEntity
  8
0
 62
     0
370
    -2
100
AcDbLine
 10
960.7375175051995
 20
445.5746670348495
 30
0.0
 11
960.7375175051995
 21
467.5596159840546
 31
0.0
  0
LINE
  5
1C6A
330
1BF6
100
AcDbEntity
  8
0
 62
     0
370
    -2
100
AcDbLine
 10
1042.557517505199
 20
467.3796159840546
 30
0.0
 11
1023.0775175052
 21
467.3796159840546
 31
0.0
  0
LINE
  5
1C6B
330
1BF6
100
AcDbEntity
  8
0
 62
     0
370
    -2
100
AcDbLine
 10
960.9175175051998
 20
467.3796159840546
 30
0.0
 11
980.3975175051997
 21
467.3796159840546
 31
0.0
  0
SOLID
  5
1C6C
330
1BF6
100
AcDbEntity
  8
0
 62
     0
100
AcDbTrace
 10
1042.557517505199
 20
467.4096159840543
 30
0.0
 11
1042.557517505199
 21
467.3496159840546
 31
0.0
 12
1042.7375175052
 22
467.3796159840546
 32
0.0
 13
1042.7375175052
 23
467.3796159840546
 33
0.0
  0
SOLID
  5
1C6D
330
1BF6
100
AcDbEntity
  8
0
 62
     0
100
AcDbTrace
 10
960.9175175051998
 20
467.4096159840543
 30
0.0
 11
960.9175175051998
 21
467.3496159840546
 31
0.0
 12
960.7375175051995
 22
467.3796159840546
 32
0.0
 13
960.7375175051995
 23
467.3796159840546
 33
0.0
  0
MTEXT
  5
1C6E
330
1BF6
100
AcDbEntity
  8
0
 62
     0
100
AcDbMText
 10
1001.737517505199
 20
467.3796159840546
 30
0.0
 40
15.0
 41
0.0
 46
0.0
 71
     5
 72
     1
  1
\A1;82.0
 73
     1
 44
1.0
  0
POINT
  5
1C6F
330
1BF6
100
AcDbEntity
  8
Defpoints
 62
     0
100
AcDbPoint
 10
1042.7375175052
 20
445.5121670348495
 30
0.0
  0
POINT
  5
1C70
330
1BF6
100
AcDbEntity
  8
Defpoints
 62
     0
100
AcDbPoint
 10
960.7375175051995
 20
445.5121670348495
 30
0.0
  0
POINT
  5
1C71
330
1BF6
100
AcDbEntity
  8
Defpoints
 62
     0
100
AcDbPoint
 10
960.7375175051995
 20
467.3796159840546
 30
0.0
  0
ENDBLK
  5
1C02
330
1BF6
100
AcDbEntity
  8
0
100
AcDbBlockEnd
  0
BLOCK
  5
1C0D
330
1C03
100
AcDbEntity
  8
0
100
AcDbBlockBegin
  2
*D100
 70
     1
 10
0.0
 20
0.0
 30
0.0
  3
*D100
  1

  0
LINE
  5
1C04
330
1C03
100
AcDbEntity
  8
0
 62
     0
370
    -2
100
AcDbLine
 10
1041.737517505201
 20
676.4153872692222
 30
0.0
 11
1041.737517505201
 21
677.0403872692222
 31
0.0
  0
LINE
  5
1C05
330
1C03
100
AcDbEntity
  8
0
 62
     0
370
    -2
100
AcDbLine
 10
964.7375175052008
 20
676.4153872692222
 30
0.0
 11
964.7375175052008
 21
677.0403872692222
 31
0.0
  0
LINE
  5
1C06
330
1C03
100
AcDbEntity
  8
0
 62
     0
370
    -2
100
AcDbLine
 10
1039.237517505201
 20
675.7903872692223
 30
0.0
 11
967.2375175052009
 21
675.7903872692223
 31
0.0
  0
SOLID
  5
1C07
330
1C03
100
AcDbEntity
  8
0
 62
     0
100
AcDbTrace
 10
1039.237517505201
 20
676.2070539358887
 30
0.0
 11
1039.237517505201
 21
675.3737206025556
 31
0.0
 12
1041.737517505201
 22
675.7903872692223
 32
0.0
 13
1041.737517505201
 23
675.7903872692223
 33
0.0
  0
SOLID
  5
1C08
330
1C03
100
AcDbEntity
  8
0
 62
     0
100
AcDbTrace
 10
967.2375175052009
 20
676.2070539358887
 30
0.0
 11
967.2375175052009
 21
675.3737206025556
 31
0.0
 12
964.7375175052008
 22
675.7903872692223
 32
0.0
 13
964.7375175052008
 23
675.7903872692223
 33
0.0
  0
MTEXT
  5
1C09
330
1C03
100
AcDbEntity
  8
0
 62
     0
100
AcDbMText
 10
1003.237517505201
 20
677.6653872692222
 30
0.0
 40
2.5
 41
0.0
 46
0.0
 71
     5
 72
     1
  1
77
 73
     1
 44
1.0
  0
POINT
  5
1C0A
330
1C03
100
AcDbEntity
  8
Defpoints
 62
     0
100
AcDbPoint
 10
1041.737517505201
 20
675.7903872692223
 30
0.0
  0
POINT
  5
1C0B
330
1C03
100
AcDbEntity
  8
Defpoints
 62
     0
100
AcDbPoint
 10
964.7375175052008
 20
675.7903872692223
 30
0.0
  0
POINT
  5
1C0C
330
1C03
100
AcDbEntity
  8
Defpoints
 62
     0
100
AcDbPoint
 10
964.7375175052008
 20
675.7903872692223
 30
0.0
  0
ENDBLK
  5
1C0E
330
1C03
100
AcDbEntity
  8
0
100
AcDbBlockEnd
  0
BLOCK
  5
1C19
330
1C0F
100
AcDbEntity
  8
0
100
AcDbBlockBegin
  2
*D101
 70
     1
 10
0.0
 20
0.0
 30
0.0
  3
*D101
  1

  0
LINE
  5
1C5F
330
1C0F
100
AcDbEntity
  8
0
 62
     0
370
    -2
100
AcDbLine
 10
1041.737517505201
 20
260.1653872692223
 30
0.0
 11
1041.737517505201
 21
259.5403872692222
 31
0.0
  0
LINE
  5
1C60
330
1C0F
100
AcDbEntity
  8
0
 62
     0
370
    -2
100
AcDbLine
 10
964.7375175052008
 20
260.1653872692223
 30
0.0
 11
964.7375175052008
 21
259.5403872692222
 31
0.0
  0
LINE
  5
1C61
330
1C0F
100
AcDbEntity
  8
0
 62
     0
370
    -2
100
AcDbLine
 10
1039.237517505201
 20
260.7903872692221
 30
0.0
 11
967.2375175052009
 21
260.7903872692221
 31
0.0
  0
SOLID
  5
1C62
330
1C0F
100
AcDbEntity
  8
0
 62
     0
100
AcDbTrace
 10
1039.237517505201
 20
261.2070539358888
 30
0.0
 11
1039.237517505201
 21
260.3737206025555
 31
0.0
 12
1041.737517505201
 22
260.7903872692221
 32
0.0
 13
1041.737517505201
 23
260.7903872692221
 33
0.0
  0
SOLID
  5
1C63
330
1C0F
100
AcDbEntity
  8
0
 62
     0
100
AcDbTrace
 10
967.2375175052009
 20
261.2070539358888
 30
0.0
 11
967.2375175052009
 21
260.3737206025555
 31
0.0
 12
964.7375175052008
 22
260.7903872692221
 32
0.0
 13
964.7375175052008
 23
260.7903872692221
 33
0.0
  0
MTEXT
  5
1C64
330
1C0F
100
AcDbEntity
  8
0
 62
     0
100
AcDbMText
 10
1003.237517505201
 20
262.6653872692222
 30
0.0
 40
2.5
 41
0.0
 46
0.0
 71
     5
 72
     1
  1
77
 73
     1
 44
1.0
  0
POINT
  5
1C65
330
1C0F
100
AcDbEntity
  8
Defpoints
 62
     0
100
AcDbPoint
 10
1041.737517505201
 20
260.7903872692223
 30
0.0
  0
POINT
  5
1C66
330
1C0F
100
AcDbEntity
  8
Defpoints
 62
     0
100
AcDbPoint
 10
964.7375175052008
 20
260.7903872692223
 30
0.0
  0
POINT
  5
1C67
330
1C0F
100
AcDbEntity
  8
Defpoints
 62
     0
100
AcDbPoint
 10
964.7375175052008
 20
260.7903872692221
 30
0.0
  0
ENDBLK
  5
1C1A
330
1C0F
100
AcDbEntity
  8
0
100
AcDbBlockEnd
  0
BLOCK
  5
1C30
330
1C25
100
AcDbEntity
  8
0
100
AcDbBlockBegin
  2
*D102
 70
     1
 10
0.0
 20
0.0
 30
0.0
  3
*D102
  1

  0
LINE
  5
1C72
330
1C25
100
AcDbEntity
  8
0
 62
     0
370
    -2
100
AcDbLine
 10
1264.842174887742
 20
390.7903872692223
 30
0.0
 11
1264.724674887742
 21
390.7903872692223
 31
0.0
  0
LINE
  5
1C73
330
1C25
100
AcDbEntity
  8
0
 62
     0
370
    -2
100
AcDbLine
 10
1264.842174887742
 20
130.7903872692223
 30
0.0
 11
1264.724674887742
 21
130.7903872692223
 31
0.0
  0
LINE
  5
1C74
330
1C25
100
AcDbEntity
  8
0
 62
     0
370
    -2
100
AcDbLine
 10
1264.904674887742
 20
390.6103872692223
 30
0.0
 11
1264.904674887742
 21
268.3803872692223
 31
0.0
  0
LINE
  5
1C75
330
1C25
100
AcDbEntity
  8
0
 62
     0
370
    -2
100
AcDbLine
 10
1264.904674887742
 20
130.9703872692223
 30
0.0
 11
1264.904674887742
 21
253.2003872692222
 31
0.0
  0
SOLID
  5
1C76
330
1C25
100
AcDbEntity
  8
0
 62
     0
100
AcDbTrace
 10
1264.874674887743
 20
390.6103872692223
 30
0.0
 11
1264.934674887743
 21
390.6103872692223
 31
0.0
 12
1264.904674887742
 22
390.7903872692223
 32
0.0
 13
1264.904674887742
 23
390.7903872692223
 33
0.0
  0
SOLID
  5
1C77
330
1C25
100
AcDbEntity
  8
0
 62
     0
100
AcDbTrace
 10
1264.874674887743
 20
130.9703872692223
 30
0.0
 11
1264.934674887743
 21
130.9703872692223
 31
0.0
 12
1264.904674887742
 22
130.7903872692223
 32
0.0
 13
1264.904674887742
 23
130.7903872692223
 33
0.0
  0
MTEXT
  5
1C78
330
1C25
100
AcDbEntity
  8
0
 62
     0
100
AcDbMText
 10
1264.904674887742
 20
260.7903872692225
 30
0.0
 40
15.0
 41
0.0
 46
0.0
 71
     5
 72
     1
  1
\A1;260.0
 73
     1
 44
1.0
  0
POINT
  5
1C79
330
1C25
100
AcDbEntity
  8
Defpoints
 62
     0
100
AcDbPoint
 10
1264.904674887742
 20
390.7903872692223
 30
0.0
  0
POINT
  5
1C7A
330
1C25
100
AcDbEntity
  8
Defpoints
 62
     0
100
AcDbPoint
 10
1264.904674887742
 20
130.7903872692223
 30
0.0
  0
POINT
  5
1C7B
330
1C25
100
AcDbEntity
  8
Defpoints
 62
     0
100
AcDbPoint
 10
1264.904674887742
 20
130.7903872692223
 30
0.0
  0
ENDBLK
  5
1C31
330
1C25
100
AcDbEntity
  8
0
100
AcDbBlockEnd
  0
BLOCK
  5
1C3D
330
1C32
100
AcDbEntity
  8
0
100
AcDbBlockBegin
  2
*D103
 70
     1
 10
0.0
 20
0.0
 30
0.0
  3
*D103
  1

  0
LINE
  5
1C33
330
1C32
100
AcDbEntity
  8
0
 62
     0
370
    -2
100
AcDbLine
 10
1171.71029368561
 20
545.7903872692221
 30
0.0
 11
1157.730335544578
 21
545.7903872692221
 31
0.0
  0
LINE
  5
1C34
330
1C32
100
AcDbEntity
  8
0
 62
     0
370
    -2
100
AcDbLine
 10
1171.71029368561
 20
390.7903872692223
 30
0.0
 11
1157.730335544577
 21
390.7903872692223
 31
0.0
  0
LINE
  5
1C35
330
1C32
100
AcDbEntity
  8
0
 62
     0
370
    -2
100
AcDbLine
 10
1157.910335544578
 20
545.6103872692223
 30
0.0
 11
1157.910335544578
 21
475.8803872692221
 31
0.0
  0
LINE
  5
1C36
330
1C32
100
AcDbEntity
  8
0
 62
     0
370
    -2
100
AcDbLine
 10
1157.910335544578
 20
390.9703872692223
 30
0.0
 11
1157.910335544578
 21
460.7003872692224
 31
0.0
  0
SOLID
  5
1C37
330
1C32
100
AcDbEntity
  8
0
 62
     0
100
AcDbTrace
 10
1157.880335544578
 20
545.6103872692223
 30
0.0
 11
1157.940335544578
 21
545.6103872692223
 31
0.0
 12
1157.910335544578
 22
545.7903872692221
 32
0.0
 13
1157.910335544578
 23
545.7903872692221
 33
0.0
  0
SOLID
  5
1C38
330
1C32
100
AcDbEntity
  8
0
 62
     0
100
AcDbTrace
 10
1157.880335544578
 20
390.9703872692223
 30
0.0
 11
1157.940335544577
 21
390.9703872692223
 31
0.0
 12
1157.910335544578
 22
390.7903872692223
 32
0.0
 13
1157.910335544578
 23
390.7903872692223
 33
0.0
  0
MTEXT
  5
1C39
330
1C32
100
AcDbEntity
  8
0
 62
     0
100
AcDbMText
 10
1157.910335544578
 20
468.2903872692224
 30
0.0
 40
15.0
 41
0.0
 46
0.0
 71
     5
 72
     1
  1
\A1;155.0
 73
     1
 44
1.0
  0
POINT
  5
1C3A
330
1C32
100
AcDbEntity
  8
Defpoints
 62
     0
100
AcDbPoint
 10
1171.772793685609
 20
545.7903872692221
 30
0.0
  0
POINT
  5
1C3B
330
1C32
100
AcDbEntity
  8
Defpoints
 62
     0
100
AcDbPoint
 10
1171.772793685609
 20
390.7903872692223
 30
0.0
  0
POINT
  5
1C3C
330
1C32
100
AcDbEntity
  8
Defpoints
 62
     0
100
AcDbPoint
 10
1157.910335544578
 20
390.7903872692223
 30
0.0
  0
ENDBLK
  5
1C3E
330
1C32
100
AcDbEntity
  8
0
100
AcDbBlockEnd
  0
BLOCK
  5
1C4A
330
1C3F
100
AcDbEntity
  8
0
100
AcDbBlockBegin
  2
*D104
 70
     1
 10
0.0
 20
0.0
 30
0.0
  3
*D104
  1

  0
LINE
  5
1C7C
330
1C3F
100
AcDbEntity
  8
0
 62
     0
370
    -2
100
AcDbLine
 10
1300.77279368561
 20
445.5746670348497
 30
0.0
 11
1300.77279368561
 21
467.5596159840546
 31
0.0
  0
LINE
  5
1C7D
330
1C3F
100
AcDbEntity
  8
0
 62
     0
370
    -2
100
AcDbLine
 10
1382.77279368561
 20
445.5746670348495
 30
0.0
 11
1382.77279368561
 21
467.5596159840546
 31
0.0
  0
LINE
  5
1C7E
330
1C3F
100
AcDbEntity
  8
0
 62
     0
370
    -2
100
AcDbLine
 10
1300.95279368561
 20
467.3796159840546
 30
0.0
 11
1320.43279368561
 21
467.3796159840546
 31
0.0
  0
LINE
  5
1C7F
330
1C3F
100
AcDbEntity
  8
0
 62
     0
370
    -2
100
AcDbLine
 10
1382.592793685609
 20
467.3796159840546
 30
0.0
 11
1363.11279368561
 21
467.3796159840546
 31
0.0
  0
SOLID
  5
1C80
330
1C3F
100
AcDbEntity
  8
0
 62
     0
100
AcDbTrace
 10
1300.95279368561
 20
467.4096159840543
 30
0.0
 11
1300.95279368561
 21
467.3496159840546
 31
0.0
 12
1300.77279368561
 22
467.3796159840546
 32
0.0
 13
1300.77279368561
 23
467.3796159840546
 33
0.0
  0
SOLID
  5
1C81
330
1C3F
100
AcDbEntity
  8
0
 62
     0
100
AcDbTrace
 10
1382.592793685609
 20
467.4096159840543
 30
0.0
 11
1382.592793685609
 21
467.3496159840546
 31
0.0
 12
1382.77279368561
 22
467.3796159840546
 32
0.0
 13
1382.77279368561
 23
467.3796159840546
 33
0.0
  0
MTEXT
  5
1C82
330
1C3F
100
AcDbEntity
  8
0
 62
     0
100
AcDbMText
 10
1341.77279368561
 20
467.3796159840546
 30
0.0
 40
15.0
 41
0.0
 46
0.0
 71
     5
 72
     1
  1
\A1;82.0
 73
     1
 44
1.0
  0
POINT
  5
1C83
330
1C3F
100
AcDbEntity
  8
Defpoints
 62
     0
100
AcDbPoint
 10
1300.77279368561
 20
445.5121670348495
 30
0.0
  0
POINT
  5
1C84
330
1C3F
100
AcDbEntity
  8
Defpoints
 62
     0
100
AcDbPoint
 10
1382.77279368561
 20
445.5121670348495
 30
0.0
  0
POINT
  5
1C85
330
1C3F
100
AcDbEntity
  8
Defpoints
 62
     0
100
AcDbPoint
 10
1382.77279368561
 20
467.3796159840546
 30
0.0
  0
ENDBLK
  5
1C4B
330
1C3F
100
AcDbEntity
  8
0
100
AcDbBlockEnd
  0
BLOCK
  5
1CB9
330
1CAE
100
AcDbEntity
  8
0
100
AcDbBlockBegin
  2
*D105
 70
     1
 10
0.0
 20
0.0
 30
0.0
  3
*D105
  1

  0
LINE
  5
1CBC
330
1CAE
100
AcDbEntity
  8
0
 62
     0
370
    -2
100
AcDbLine
 10
433.9120771315512
 20
275.3979059989501
 30
0.0
 11
433.9120771315512
 21
275.5154059989501
 31
0.0
  0
LINE
  5
1CBD
330
1CAE
100
AcDbEntity
  8
0
 62
     0
370
    -2
100
AcDbLine
 10
643.9120771315526
 20
275.3979059989501
 30
0.0
 11
643.9120771315526
 21
275.5154059989501
 31
0.0
  0
LINE
  5
1CBE
330
1CAE
100
AcDbEntity
  8
0
 62
     0
370
    -2
100
AcDbLine
 10
434.0920771315512
 20
275.3354059989501
 30
0.0
 11
513.8220771315518
 21
275.3354059989501
 31
0.0
  0
LINE
  5
1CBF
330
1CAE
100
AcDbEntity
  8
0
 62
     0
370
    -2
100
AcDbLine
 10
643.7320771315527
 20
275.3354059989501
 30
0.0
 11
564.002077131552
 21
275.3354059989501
 31
0.0
  0
SOLID
  5
1CC0
330
1CAE
100
AcDbEntity
  8
0
 62
     0
100
AcDbTrace
 10
434.0920771315512
 20
275.3654059989501
 30
0.0
 11
434.0920771315512
 21
275.3054059989501
 31
0.0
 12
433.9120771315512
 22
275.3354059989501
 32
0.0
 13
433.9120771315512
 23
275.3354059989501
 33
0.0
  0
SOLID
  5
1CC1
330
1CAE
100
AcDbEntity
  8
0
 62
     0
100
AcDbTrace
 10
643.7320771315527
 20
275.3654059989501
 30
0.0
 11
643.7320771315527
 21
275.3054059989501
 31
0.0
 12
643.9120771315526
 22
275.3354059989501
 32
0.0
 13
643.9120771315526
 23
275.3354059989501
 33
0.0
  0
MTEXT
  5
1CC2
330
1CAE
100
AcDbEntity
  8
0
 62
     0
100
AcDbMText
 10
538.912077131552
 20
275.3354059989501
 30
0.0
 40
15.0
 41
0.0
 46
0.0
 71
     5
 72
     1
  1
\A1;210.0
 73
     1
 44
1.0
  0
POINT
  5
1CC3
330
1CAE
100
AcDbEntity
  8
Defpoints
 62
     0
100
AcDbPoint
 10
433.9120771315512
 20
275.3354059989501
 30
0.0
  0
POINT
  5
1CC4
330
1CAE
100
AcDbEntity
  8
Defpoints
 62
     0
100
AcDbPoint
 10
643.9120771315526
 20
275.3354059989501
 30
0.0
  0
POINT
  5
1CC5
330
1CAE
100
AcDbEntity
  8
Defpoints
 62
     0
100
AcDbPoint
 10
643.9120771315526
 20
275.3354059989501
 30
0.0
  0
ENDBLK
  5
1CBA
330
1CAE
100
AcDbEntity
  8
0
100
AcDbBlockEnd
  0
BLOCK
  5
1CD3
330
1CC8
100
AcDbEntity
  8
0
100
AcDbBlockBegin
  2
*D106
 70
     1
 10
0.0
 20
0.0
 30
0.0
  3
*D106
  1

  0
LINE
  5
1CD6
330
1CC8
100
AcDbEntity
  8
0
 62
     0
370
    -2
100
AcDbLine
 10
608.3454438421997
 20
333.1777945507186
 30
0.0
 11
608.4629438421998
 21
333.1777945507186
 31
0.0
  0
LINE
  5
1CD7
330
1CC8
100
AcDbEntity
  8
0
 62
     0
370
    -2
100
AcDbLine
 10
608.2204438421999
 20
123.1777945507186
 30
0.0
 11
608.1029438421998
 21
123.1777945507186
 31
0.0
  0
LINE
  5
1CD8
330
1CC8
100
AcDbEntity
  8
0
 62
     0
370
    -2
100
AcDbLine
 10
608.2829438422
 20
332.9977945507186
 30
0.0
 11
608.2829438421997
 21
235.7677945507186
 31
0.0
  0
LINE
  5
1CD9
330
1CC8
100
AcDbEntity
  8
0
 62
     0
370
    -2
100
AcDbLine
 10
608.2829438421997
 20
123.3577945507186
 30
0.0
 11
608.2829438421997
 21
220.5877945507186
 31
0.0
  0
SOLID
  5
1CDA
330
1CC8
100
AcDbEntity
  8
0
 62
     0
100
AcDbTrace
 10
608.2529438422
 20
332.9977945507186
 30
0.0
 11
608.3129438421998
 21
332.9977945507186
 31
0.0
 12
608.2829438422
 22
333.1777945507186
 32
0.0
 13
608.2829438422
 23
333.1777945507186
 33
0.0
  0
SOLID
  5
1CDB
330
1CC8
100
AcDbEntity
  8
0
 62
     0
100
AcDbTrace
 10
608.2529438421999
 20
123.3577945507186
 30
0.0
 11
608.3129438421997
 21
123.3577945507186
 31
0.0
 12
608.2829438421997
 22
123.1777945507186
 32
0.0
 13
608.2829438421997
 23
123.1777945507186
 33
0.0
  0
MTEXT
  5
1CDC
330
1CC8
100
AcDbEntity
  8
0
 62
     0
100
AcDbMText
 10
608.2829438421997
 20
228.1777945507187
 30
0.0
 40
15.0
 41
0.0
 46
0.0
 71
     5
 72
     1
  1
\A1;210.0
 73
     1
 44
1.0
  0
POINT
  5
1CDD
330
1CC8
100
AcDbEntity
  8
Defpoints
 62
     0
100
AcDbPoint
 10
608.2829438421997
 20
333.1777945507186
 30
0.0
  0
POINT
  5
1CDE
330
1CC8
100
AcDbEntity
  8
Defpoints
 62
     0
100
AcDbPoint
 10
608.2829438421997
 20
123.1777945507186
 30
0.0
  0
POINT
  5
1CDF
330
1CC8
100
AcDbEntity
  8
Defpoints
 62
     0
100
AcDbPoint
 10
608.2829438421997
 20
123.1777945507186
 30
0.0
  0
ENDBLK
  5
1CD4
330
1CC8
100
AcDbEntity
  8
0
100
AcDbBlockEnd
  0
BLOCK
  5
1CED
330
1CE2
100
AcDbEntity
  8
0
100
AcDbBlockBegin
  2
*D107
 70
     1
 10
0.0
 20
0.0
 30
0.0
  3
*D107
  1

  0
LINE
  5
1CF0
330
1CE2
100
AcDbEntity
  8
0
 62
     0
370
    -2
100
AcDbLine
 10
530.1687159345415
 20
333.1777945507186
 30
0.0
 11
530.0512159345414
 21
333.1777945507186
 31
0.0
  0
LINE
  5
1CF1
330
1CE2
100
AcDbEntity
  8
0
 62
     0
370
    -2
100
AcDbLine
 10
530.1687159345415
 20
488.1777945507183
 30
0.0
 11
530.0512159345414
 21
488.1777945507183
 31
0.0
  0
LINE
  5
1CF2
330
1CE2
100
AcDbEntity
  8
0
 62
     0
370
    -2
100
AcDbLine
 10
530.2312159345415
 20
333.3577945507187
 30
0.0
 11
530.2312159345415
 21
403.0877945507183
 31
0.0
  0
LINE
  5
1CF3
330
1CE2
100
AcDbEntity
  8
0
 62
     0
370
    -2
100
AcDbLine
 10
530.2312159345415
 20
487.9977945507183
 30
0.0
 11
530.2312159345415
 21
418.2677945507184
 31
0.0
  0
SOLID
  5
1CF4
330
1CE2
100
AcDbEntity
  8
0
 62
     0
100
AcDbTrace
 10
530.2012159345414
 20
333.3577945507187
 30
0.0
 11
530.2612159345414
 21
333.3577945507187
 31
0.0
 12
530.2312159345415
 22
333.1777945507186
 32
0.0
 13
530.2312159345415
 23
333.1777945507186
 33
0.0
  0
SOLID
  5
1CF5
330
1CE2
100
AcDbEntity
  8
0
 62
     0
100
AcDbTrace
 10
530.2012159345414
 20
487.9977945507183
 30
0.0
 11
530.2612159345414
 21
487.9977945507183
 31
0.0
 12
530.2312159345415
 22
488.1777945507183
 32
0.0
 13
530.2312159345415
 23
488.1777945507183
 33
0.0
  0
MTEXT
  5
1CF6
330
1CE2
100
AcDbEntity
  8
0
 62
     0
100
AcDbMText
 10
530.2312159345413
 20
410.6777945507185
 30
0.0
 40
15.0
 41
0.0
 46
0.0
 71
     5
 72
     1
  1
\A1;155.0
 73
     1
 44
1.0
  0
POINT
  5
1CF7
330
1CE2
100
AcDbEntity
  8
Defpoints
 62
     0
100
AcDbPoint
 10
530.2312159345415
 20
333.1777945507186
 30
0.0
  0
POINT
  5
1CF8
330
1CE2
100
AcDbEntity
  8
Defpoints
 62
     0
100
AcDbPoint
 10
530.2312159345415
 20
488.1777945507183
 30
0.0
  0
POINT
  5
1CF9
330
1CE2
100
AcDbEntity
  8
Defpoints
 62
     0
100
AcDbPoint
 10
530.2312159345415
 20
488.1777945507183
 30
0.0
  0
ENDBLK
  5
1CEE
330
1CE2
100
AcDbEntity
  8
0
100
AcDbBlockEnd
  0
BLOCK
  5
1D58
330
1D4D
100
AcDbEntity
  8
0
100
AcDbBlockBegin
  2
*D108
 70
     1
 10
0.0
 20
0.0
 30
0.0
  3
*D108
  1

  0
LINE
  5
1D5B
330
1D4D
100
AcDbEntity
  8
0
 62
     0
370
    -2
100
AcDbLine
 10
505.1153260049218
 20
103.1777945507186
 30
0.0
 11
916.8300031263324
 21
103.1777945507184
 31
0.0
  0
LINE
  5
1D5C
330
1D4D
100
AcDbEntity
  8
0
 62
     0
370
    -2
100
AcDbLine
 10
505.1153260049218
 20
852.1777945507185
 30
0.0
 11
916.8300031263326
 21
852.1777945507183
 31
0.0
  0
LINE
  5
1D5D
330
1D4D
100
AcDbEntity
  8
0
 62
     0
370
    -2
100
AcDbLine
 10
916.6500031263325
 20
103.3577945507184
 30
0.0
 11
916.6500031263327
 21
470.0877945507185
 31
0.0
  0
LINE
  5
1D5E
330
1D4D
100
AcDbEntity
  8
0
 62
     0
370
    -2
100
AcDbLine
 10
916.6500031263327
 20
851.9977945507184
 30
0.0
 11
916.6500031263327
 21
485.2677945507184
 31
0.0
  0
SOLID
  5
1D5F
330
1D4D
100
AcDbEntity
  8
0
 62
     0
100
AcDbTrace
 10
916.6200031263326
 20
103.3577945507184
 30
0.0
 11
916.6800031263324
 21
103.3577945507184
 31
0.0
 12
916.6500031263325
 22
103.1777945507184
 32
0.0
 13
916.6500031263325
 23
103.1777945507184
 33
0.0
  0
SOLID
  5
1D60
330
1D4D
100
AcDbEntity
  8
0
 62
     0
100
AcDbTrace
 10
916.6200031263327
 20
851.9977945507184
 30
0.0
 11
916.6800031263328
 21
851.9977945507184
 31
0.0
 12
916.6500031263327
 22
852.1777945507183
 32
0.0
 13
916.6500031263327
 23
852.1777945507183
 33
0.0
  0
MTEXT
  5
1D61
330
1D4D
100
AcDbEntity
  8
0
 62
     0
100
AcDbMText
 10
916.6500031263325
 20
477.6777945507186
 30
0.0
 40
15.0
 41
0.0
 46
0.0
 71
     5
 72
     1
  1
\A1;749.0
 73
     1
 44
1.0
  0
POINT
  5
1D62
330
1D4D
100
AcDbEntity
  8
Defpoints
 62
     0
100
AcDbPoint
 10
505.0528260049218
 20
103.1777945507186
 30
0.0
  0
POINT
  5
1D63
330
1D4D
100
AcDbEntity
  8
Defpoints
 62
     0
100
AcDbPoint
 10
505.0528260049218
 20
852.1777945507185
 30
0.0
  0
POINT
  5
1D64
330
1D4D
100
AcDbEntity
  8
Defpoints
 62
     0
100
AcDbPoint
 10
916.6500031263327
 20
852.1777945507183
 30
0.0
  0
ENDBLK
  5
1D59
330
1D4D
100
AcDbEntity
  8
0
100
AcDbBlockEnd
  0
BLOCK
  5
1D72
330
1D67
100
AcDbEntity
  8
0
100
AcDbBlockBegin
  2
*D109
 70
     1
 10
0.0
 20
0.0
 30
0.0
  3
*D109
  1

  0
LINE
  5
1D75
330
1D67
100
AcDbEntity
  8
0
 62
     0
370
    -2
100
AcDbLine
 10
298.9120771315512
 20
228.1152945507184
 30
0.0
 11
298.9120771315512
 21
0.2557411506880669
 31
0.0
  0
LINE
  5
1D76
330
1D67
100
AcDbEntity
  8
0
 62
     0
370
    -2
100
AcDbLine
 10
778.9120771315526
 20
228.1152945507173
 30
0.0
 11
778.9120771315526
 21
0.2557411506880669
 31
0.0
  0
LINE
  5
1D77
330
1D67
100
AcDbEntity
  8
0
 62
     0
370
    -2
100
AcDbLine
 10
299.0920771315512
 20
0.4357411506880738
 30
0.0
 11
511.3220771315519
 21
0.4357411506880738
 31
0.0
  0
LINE
  5
1D78
330
1D67
100
AcDbEntity
  8
0
 62
     0
370
    -2
100
AcDbLine
 10
778.7320771315527
 20
0.4357411506880738
 30
0.0
 11
566.502077131552
 21
0.4357411506880738
 31
0.0
  0
SOLID
  5
1D79
330
1D67
100
AcDbEntity
  8
0
 62
     0
100
AcDbTrace
 10
299.0920771315512
 20
0.4657411506880738
 30
0.0
 11
299.0920771315512
 21
0.4057411506880737
 31
0.0
 12
298.9120771315512
 22
0.4357411506880738
 32
0.0
 13
298.9120771315512
 23
0.4357411506880738
 33
0.0
  0
SOLID
  5
1D7A
330
1D67
100
AcDbEntity
  8
0
 62
     0
100
AcDbTrace
 10
778.7320771315527
 20
0.4657411506880738
 30
0.0
 11
778.7320771315527
 21
0.4057411506880737
 31
0.0
 12
778.9120771315526
 22
0.4357411506880738
 32
0.0
 13
778.9120771315526
 23
0.4357411506880738
 33
0.0
  0
MTEXT
  5
1D7B
330
1D67
100
AcDbEntity
  8
0
 62
     0
100
AcDbMText
 10
538.912077131552
 20
0.4357411506880738
 30
0.0
 40
15.0
 41
0.0
 46
0.0
 71
     5
 72
     1
  1
\A1;480.0
 73
     1
 44
1.0
  0
POINT
  5
1D7C
330
1D67
100
AcDbEntity
  8
Defpoints
 62
     0
100
AcDbPoint
 10
298.9120771315512
 20
228.1777945507184
 30
0.0
  0
POINT
  5
1D7D
330
1D67
100
AcDbEntity
  8
Defpoints
 62
     0
100
AcDbPoint
 10
778.9120771315526
 20
228.1777945507172
 30
0.0
  0
POINT
  5
1D7E
330
1D67
100
AcDbEntity
  8
Defpoints
 62
     0
100
AcDbPoint
 10
778.9120771315526
 20
0.4357411506880738
 30
0.0
  0
ENDBLK
  5
1D73
330
1D67
100
AcDbEntity
  8
0
100
AcDbBlockEnd
  0
ENDSEC
  0
SECTION
  2
ENTITIES
  0
LINE
  5
18D5
102
{ACAD_REACTORS
330
1CE0
102
}
330
1F
100
AcDbEntity
  8
Defpoints
100
AcDbLine
 10
434.9120771315527
 20
123.1777945507186
 30
0.0
 11
642.8831887629026
 21
123.1777945507186
 31
0.0
  0
LINE
  5
18D6
102
{ACAD_REACTORS
330
1CC6
102
}
330
1F
100
AcDbEntity
  8
Defpoints
100
AcDbLine
 10
643.9120771315526
 20
124.1777945507186
 30
0.0
 11
643.9120771315526
 21
332.1777945507185
 31
0.0
  0
LINE
  5
18D8
102
{ACAD_REACTORS
330
1CE0
330
1CFA
102
}
330
1F
100
AcDbEntity
  8
Defpoints
100
AcDbLine
 10
642.9120771315527
 20
333.1777945507186
 30
0.0
 11
434.9120771315527
 21
333.1777945507186
 31
0.0
  0
LINE
  5
18D9
102
{ACAD_REACTORS
330
1CFA
102
}
330
1F
100
AcDbEntity
  8
Defpoints
100
AcDbLine
 10
642.9120771315527
 20
488.1777945507183
 30
0.0
 11
434.9120771315527
 21
488.1777945507183
 31
0.0
  0
LINE
  5
18DA
330
1F
100
AcDbEntity
  8
Defpoints
100
AcDbLine
 10
642.9120771315527
 20
698.1777945507184
 30
0.0
 11
434.9120771315527
 21
698.1777945507185
 31
0.0
  0
LINE
  5
18DB
330
1F
100
AcDbEntity
  8
Defpoints
100
AcDbLine
 10
642.9120771315527
 20
333.1777945507186
 30
0.0
 11
642.9120771315527
 21
488.1777945507183
 31
0.0
  0
LINE
  5
18DC
330
1F
100
AcDbEntity
  8
Defpoints
100
AcDbLine
 10
643.9120771315526
 20
489.1777945507181
 30
0.0
 11
643.9120771315526
 21
697.1777945507189
 31
0.0
  0
LINE
  5
18DD
330
1F
100
AcDbEntity
  8
Defpoints
100
AcDbLine
 10
642.9120771315527
 20
698.1777945507185
 30
0.0
 11
642.9120771315527
 21
852.1777945507182
 31
0.0
  0
LINE
  5
18DE
330
1F
100
AcDbEntity
  8
Defpoints
100
AcDbLine
 10
720.9120771315524
 20
551.1777945507184
 30
0.0
 11
720.9120771315524
 21
635.1777945507185
 31
0.0
  0
LINE
  5
19A7
102
{ACAD_REACTORS
330
1CC6
102
}
330
1F
100
AcDbEntity
  8
Defpoints
100
AcDbLine
 10
433.9120771315513
 20
124.1777945507186
 30
0.0
 11
433.9120771315513
 21
332.1777945507185
 31
0.0
  0
LINE
  5
19A9
330
1F
100
AcDbEntity
  8
Defpoints
100
AcDbLine
 10
434.9120771315512
 20
333.1777945507186
 30
0.0
 11
434.9120771315512
 21
488.1777945507183
 31
0.0
  0
LINE
  5
19AA
330
1F
100
AcDbEntity
  8
Defpoints
100
AcDbLine
 10
433.9120771315513
 20
489.1777945507181
 30
0.0
 11
433.9120771315513
 21
697.1777945507189
 31
0.0
  0
LINE
  5
19AB
330
1F
100
AcDbEntity
  8
Defpoints
100
AcDbLine
 10
434.9120771315512
 20
698.1777945507185
 30
0.0
 11
434.9120771315512
 21
852.1777945507182
 31
0.0
  0
LINE
  5
19AC
330
1F
100
AcDbEntity
  8
Defpoints
100
AcDbLine
 10
356.9120771315513
 20
551.1777945507184
 30
0.0
 11
356.9120771315513
 21
635.1777945507185
 31
0.0
  0
ARC
  5
1C8E
330
1F
100
AcDbEntity
  8
_U+56FE_U+5C42 1
100
AcDbCircle
 10
538.9349025349456
 20
596.4249038567393
 30
0.0
 40
70.13945843144774
100
AcDbArc
 50
9.571684463158112
 51
170.4283155368419
  0
ARC
  5
1C8F
330
1F
100
AcDbEntity
  8
_U+56FE_U+5C42 1
100
AcDbCircle
 10
538.9416905846472
 20
598.330387141457
 30
0.0
 40
45.25740740926077
100
AcDbArc
 50
19.91376736419288
 51
160.0862326358116
  0
ARC
  5
1C90
330
1F
100
AcDbEntity
  8
_U+56FE_U+5C42 1
100
AcDbCircle
 10
538.9416905846474
 20
645.5277945507187
 30
0.0
 40
11.99999999999999
100
AcDbArc
 50
196.5869282834776
 51
343.4130717165224
  0
LINE
  5
1C91
330
1F
100
AcDbEntity
  8
Defpoints
100
AcDbLine
 10
469.8580777742263
 20
608.5877945507177
 30
0.0
 11
499.3136966322174
 21
608.5877945507177
 31
0.0
  0
LINE
  5
1C92
330
1F
100
AcDbEntity
  8
_U+56FE_U+5C42 1
100
AcDbLine
 10
501.2681610638964
 20
608.7178394684477
 30
0.0
 11
501.2681610638964
 21
613.1899754234467
 31
0.0
  0
ARC
  5
1C93
330
1F
100
AcDbEntity
  8
_U+56FE_U+5C42 1
100
AcDbCircle
 10
501.2681610638964
 20
613.1899754234467
 30
0.0
 40
5.0
100
AcDbArc
 50
182.4048052292469
 51
263.6206297915455
  0
ARC
  5
1C94
330
1F
100
AcDbEntity
  8
_U+56FE_U+5C42 1
100
AcDbCircle
 10
498.2708031201067
 20
613.0640970821831
 30
0.0
 40
2.0
100
AcDbArc
 50
160.0862326358116
 51
182.4048052292469
  0
ARC
  5
1C95
330
1F
100
AcDbEntity
  8
_U+56FE_U+5C42 1
100
AcDbCircle
 10
500.7681610638964
 20
608.7178394684477
 30
0.0
 40
0.5
100
AcDbArc
 50
263.6206297915455
 51
0.0
  0
LINE
  5
1C96
330
1F
100
AcDbEntity
  8
Defpoints
100
AcDbLine
 10
608.0117272956647
 20
608.5877945507187
 30
0.0
 11
578.5696845370737
 21
608.5877945507177
 31
0.0
  0
LINE
  5
1C97
330
1F
100
AcDbEntity
  8
_U+56FE_U+5C42 1
100
AcDbLine
 10
576.6152201053953
 20
608.7178394684477
 30
0.0
 11
576.6152201053953
 21
613.1899754234467
 31
0.0
  0
ARC
  5
1C98
330
1F
100
AcDbEntity
  8
_U+56FE_U+5C42 1
100
AcDbCircle
 10
576.6152201053953
 20
613.1899754234467
 30
0.0
 40
5.0
100
AcDbArc
 50
276.3793702084545
 51
357.5951947708574
  0
ARC
  5
1C99
330
1F
100
AcDbEntity
  8
_U+56FE_U+5C42 1
100
AcDbCircle
 10
579.6125780491856
 20
613.0640970821886
 30
0.0
 40
2.0
100
AcDbArc
 50
357.5951947708574
 51
19.91376736419288
  0
ARC
  5
1C9A
330
1F
100
AcDbEntity
  8
_U+56FE_U+5C42 1
100
AcDbCircle
 10
577.1152201053953
 20
608.7178394684477
 30
0.0
 40
0.5
100
AcDbArc
 50
180.0
 51
276.3793702084545
  0
ARC
  5
1C9B
330
1F
100
AcDbEntity
  8
_U+56FE_U+5C42 1
100
AcDbCircle
 10
538.9349025349456
 20
589.9306852446978
 30
0.0
 40
70.13945843144774
100
AcDbArc
 50
189.5716844631581
 51
350.4283155368419
  0
ARC
  5
1C9C
330
1F
100
AcDbEntity
  8
_U+56FE_U+5C42 1
100
AcDbCircle
 10
538.9416905846472
 20
588.0252019599801
 30
0.0
 40
45.25740740926077
100
AcDbArc
 50
199.9137673641883
 51
340.0862326358071
  0
ARC
  5
1C9D
330
1F
100
AcDbEntity
  8
_U+56FE_U+5C42 1
100
AcDbCircle
 10
579.6125780491856
 20
573.2914920192487
 30
0.0
 40
2.0
100
AcDbArc
 50
340.0862326358071
 51
2.404805229142563
  0
ARC
  5
1C9E
330
1F
100
AcDbEntity
  8
_U+56FE_U+5C42 1
100
AcDbCircle
 10
498.2708031201067
 20
573.2914920192541
 30
0.0
 40
2.0
100
AcDbArc
 50
177.595194770753
 51
199.9137673641883
  0
ARC
  5
1C9F
330
1F
100
AcDbEntity
  8
_U+56FE_U+5C42 1
100
AcDbCircle
 10
538.9416905846474
 20
540.8277945507185
 30
0.0
 40
11.99999999999999
100
AcDbArc
 50
16.58692828346326
 51
163.4130717165367
  0
LINE
  5
1CA0
330
1F
100
AcDbEntity
  8
Defpoints
100
AcDbLine
 10
469.8580777742263
 20
577.7677945507194
 30
0.0
 11
499.3136966322174
 21
577.7677945507194
 31
0.0
  0
LINE
  5
1CA1
330
1F
100
AcDbEntity
  8
_U+56FE_U+5C42 1
100
AcDbLine
 10
501.2681610638964
 20
577.6377496329895
 30
0.0
 11
501.2681610638964
 21
573.1656136779903
 31
0.0
  0
ARC
  5
1CA2
330
1F
100
AcDbEntity
  8
_U+56FE_U+5C42 1
100
AcDbCircle
 10
501.2681610638964
 20
573.1656136779903
 30
0.0
 40
5.0
100
AcDbArc
 50
96.37937020845448
 51
177.595194770753
  0
ARC
  5
1CA3
330
1F
100
AcDbEntity
  8
_U+56FE_U+5C42 1
100
AcDbCircle
 10
500.7681610638964
 20
577.6377496329895
 30
0.0
 40
0.5
100
AcDbArc
 50
0.0
 51
96.37937020845448
  0
LINE
  5
1CA4
330
1F
100
AcDbEntity
  8
Defpoints
100
AcDbLine
 10
608.0117272956647
 20
577.7677945507186
 30
0.0
 11
578.5696845370737
 21
577.7677945507194
 31
0.0
  0
LINE
  5
1CA5
330
1F
100
AcDbEntity
  8
_U+56FE_U+5C42 1
100
AcDbLine
 10
576.6152201053953
 20
577.6377496329895
 30
0.0
 11
576.6152201053953
 21
573.1656136779903
 31
0.0
  0
ARC
  5
1CA6
330
1F
100
AcDbEntity
  8
_U+56FE_U+5C42 1
100
AcDbCircle
 10
576.6152201053953
 20
573.1656136779903
 30
0.0
 40
5.0
100
AcDbArc
 50
2.404805229142563
 51
83.62062979154551
  0
ARC
  5
1CA7
330
1F
100
AcDbEntity
  8
_U+56FE_U+5C42 1
100
AcDbCircle
 10
577.1152201053953
 20
577.6377496329895
 30
0.0
 40
0.5
100
AcDbArc
 50
83.62062979154551
 51
180.0
  0
DIMENSION
  5
1CAD
102
{ACAD_XDICTIONARY
360
1CBB
102
}
102
{ACAD_REACTORS
330
1CC6
102
}
330
1F
100
AcDbEntity
  8
0
100
AcDbDimension
  2
*D105
 10
643.9120771315526
 20
275.3354059989501
 30
0.0
 11
538.912077131552
 21
275.3354059989501
 31
0.0
 70
    32
 71
     5
 42
210.0000000000015
 73
     0
 74
     0
 75
     0
  3
Standard
100
AcDbAlignedDimension
 13
433.9120771315512
 23
275.3354059989501
 33
0.0
 14
643.9120771315526
 24
275.3354059989501
 34
0.0
100
AcDbRotatedDimension
  0
DIMENSION
  5
1CC7
102
{ACAD_XDICTIONARY
360
1CD5
102
}
102
{ACAD_REACTORS
330
1CE0
102
}
330
1F
100
AcDbEntity
  8
0
100
AcDbDimension
  2
*D106
 10
608.2829438421997
 20
123.1777945507186
 30
0.0
 11
608.2829438421997
 21
228.1777945507187
 31
0.0
 70
    32
 71
     5
 42
210.0
 73
     0
 74
     0
 75
     0
  3
Standard
100
AcDbAlignedDimension
 13
608.2829438421997
 23
333.1777945507186
 33
0.0
 14
608.2829438421997
 24
123.1777945507186
 34
0.0
 50
90.0
100
AcDbRotatedDimension
  0
DIMENSION
  5
1CE1
102
{ACAD_XDICTIONARY
360
1CEF
102
}
102
{ACAD_REACTORS
330
1CFA
102
}
330
1F
100
AcDbEntity
  8
0
100
AcDbDimension
  2
*D107
 10
530.2312159345415
 20
488.1777945507183
 30
0.0
 11
530.2312159345413
 21
410.6777945507185
 31
0.0
 70
    32
 71
     5
 42
154.9999999999996
 73
     0
 74
     0
 75
     0
  3
Standard
100
AcDbAlignedDimension
 13
530.2312159345415
 23
333.1777945507186
 33
0.0
 14
530.2312159345415
 24
488.1777945507183
 34
0.0
 50
90.0
100
AcDbRotatedDimension
  0
LWPOLYLINE
  5
1D00
102
{ACAD_REACTORS
330
1D65
330
1D7F
102
}
330
1F
100
AcDbEntity
  8
_U+56FE_U+5C42 1
100
AcDbPolyline
 90
       70
 70
     1
 43
0.0
 10
414.9120771315526
 20
852.1777945507185
 10
662.9120771315527
 20
852.1777945507185
 10
718.3012625528867
 20
842.4111867214733
 42
-0.3639702342662302
 10
724.9120771315524
 20
834.5327246973756
 10
724.9120771315526
 20
716.8228644040611
 42
-0.3639702342662343
 10
718.3012625528874
 20
708.9444023799635
 10
662.9120771315527
 20
699.1777945507184
 10
643.9120771315524
 20
699.1777945507184
 42
1.000000000000227
 10
643.9120771315526
 20
697.1777945507184
 10
688.9120771315527
 20
697.1777945507185
 42
-0.4142135623730951
 10
720.9120771315524
 20
665.1777945507185
 10
720.9120771315524
 20
635.1777945507185
 10
736.9120771315524
 20
635.1777945507182
 42
-0.4142135623730951
 10
746.9120771315527
 20
625.1777945507182
 10
746.9120771315525
 20
561.1777945507185
 42
-0.4142135623730951
 10
736.9120771315524
 20
551.1777945507184
 10
720.9120771315524
 20
551.1777945507184
 10
720.9120771315526
 20
521.1777945507183
 42
-0.4142135623730951
 10
688.9120771315527
 20
489.1777945507181
 10
643.9120771315524
 20
489.1777945507179
 42
1.000000000000227
 10
643.9120771315526
 20
487.1777945507183
 10
662.9120771315527
 20
487.1777945507183
 10
718.3012625528867
 20
477.4111867214732
 42
-0.3639702342662342
 10
724.9120771315524
 20
469.5327246973753
 10
724.9120771315525
 20
351.8228644040615
 42
-0.3639702342662303
 10
718.3012625528874
 20
343.9444023799639
 10
662.9120771315527
 20
334.1777945507185
 10
643.9120771315524
 20
334.1777945507185
 42
1.000000000000227
 10
643.9120771315526
 20
332.1777945507187
 10
766.9120771315524
 20
332.1777945507184
 42
-0.4142135623730951
 10
778.9120771315529
 20
320.1777945507184
 10
778.9120771315524
 20
136.1777945507185
 42
-0.4142135623730951
 10
766.9120771315524
 20
124.1777945507186
 10
643.9120771315526
 20
124.1777945507185
 42
0.3394542588633778
 10
642.9461513052634
 20
123.436613595821
 10
638.0178171025195
 20
103.1777945507186
 10
439.8063371605844
 20
103.1777945507186
 10
434.8780029578403
 20
123.436613595821
 42
0.3394542588633796
 10
433.9120771315513
 20
124.1777945507186
 10
310.9120771315513
 20
124.1777945507185
 42
-0.4142135623730951
 10
298.9120771315512
 20
136.1777945507185
 10
298.9120771315513
 20
320.1777945507184
 42
-0.4142135623730951
 10
310.9120771315513
 20
332.1777945507184
 10
433.9120771315515
 20
332.1777945507187
 42
1.000000000000227
 10
433.9120771315513
 20
334.1777945507184
 10
414.9120771315511
 20
334.1777945507185
 10
359.5228917102154
 20
343.9444023799642
 42
-0.363970234266165
 10
352.9120771315513
 20
351.8228644040614
 10
352.9120771315513
 20
469.5327246973753
 42
-0.3639702342661693
 10
359.5228917102165
 20
477.411186721473
 10
414.9120771315511
 20
487.1777945507183
 10
433.9120771315515
 20
487.1777945507183
 42
1.000000000000227
 10
433.9120771315513
 20
489.1777945507181
 10
388.9120771315516
 20
489.1777945507181
 42
-0.4142135623730951
 10
356.9120771315513
 20
521.1777945507184
 10
356.9120771315513
 20
551.1777945507184
 10
340.9120771315513
 20
551.1777945507184
 42
-0.4142135623730951
 10
330.9120771315513
 20
561.1777945507185
 10
330.9120771315513
 20
625.1777945507182
 42
-0.4142135623730951
 10
340.9120771315513
 20
635.1777945507182
 10
356.9120771315515
 20
635.1777945507186
 10
356.9120771315512
 20
665.1777945507185
 42
-0.4142135623730951
 10
388.9120771315512
 20
697.1777945507184
 10
433.9120771315515
 20
697.1777945507184
 42
1.000000000000227
 10
433.9120771315513
 20
699.1777945507184
 10
414.9120771315511
 20
699.1777945507184
 10
359.5228917102153
 20
708.9444023799636
 42
-0.3639702342661691
 10
352.9120771315513
 20
716.8228644040612
 10
352.9120771315513
 20
834.5327246973756
 42
-0.3639702342661644
 10
359.5228917102165
 20
842.411186721473
  0
LWPOLYLINE
  5
1D46
330
1F
100
AcDbEntity
  8
_U+56FE_U+5C42 1
100
AcDbPolyline
 90
        4
 70
     0
 43
0.0
 10
740.9120771315524
 20
185.6777945507185
 10
720.9120771315524
 20
185.6777945507185
 10
720.9120771315524
 20
270.6777945507186
 10
740.9120771315524
 20
270.6777945507186
  0
LWPOLYLINE
  5
1D49
330
1F
100
AcDbEntity
  8
_U+56FE_U+5C42 1
100
AcDbPolyline
 90
        4
 70
     0
 43
0.0
 10
336.9120771315513
 20
185.6777945507185
 10
356.9120771315515
 20
185.6777945507185
 10
356.9120771315513
 20
270.6777945507186
 10
336.9120771315513
 20
270.6777945507186
  0
DIMENSION
  5
1D4C
102
{ACAD_XDICTIONARY
360
1D5A
102
}
102
{ACAD_REACTORS
330
1D65
102
}
330
1F
100
AcDbEntity
  8
0
100
AcDbDimension
  2
*D108
 10
916.6500031263327
 20
852.1777945507183
 30
0.0
 11
916.6500031263325
 21
477.6777945507186
 31
0.0
 70
    32
 71
     5
 42
749.0
 73
     0
 74
     0
 75
     0
  3
Standard
100
AcDbAlignedDimension
 13
505.0528260049218
 23
103.1777945507186
 33
0.0
 14
505.0528260049218
 24
852.1777945507185
 34
0.0
 50
90.0
100
AcDbRotatedDimension
  0
DIMENSION
  5
1D66
102
{ACAD_XDICTIONARY
360
1D74
102
}
102
{ACAD_REACTORS
330
1D7F
102
}
330
1F
100
AcDbEntity
  8
0
100
AcDbDimension
  2
*D109
 10
778.9120771315526
 20
0.4357411506880738
 30
0.0
 11
538.912077131552
 21
0.4357411506880738
 31
0.0
 70
    32
 71
     5
 42
480.0000000000014
 73
     0
 74
     0
 75
     0
  3
Standard
100
AcDbAlignedDimension
 13
298.9120771315512
 23
228.1777945507184
 33
0.0
 14
778.9120771315526
 24
228.1777945507172
 34
0.0
100
AcDbRotatedDimension
  0
ENDSEC
  0
SECTION
  2
OBJECTS
  0
DICTIONARY
  5
C
330
0
100
AcDbDictionary
281
     1
  3
ACAD_COLOR
350
D3
  3
ACAD_GROUP
350
D
  3
ACAD_LAYOUT
350
1A
  3
ACAD_MATERIAL
350
3B
  3
ACAD_MLEADERSTYLE
350
D1
  3
ACAD_MLINESTYLE
350
17
  3
ACAD_PLOTSETTINGS
350
19
  3
ACAD_PLOTSTYLENAME
350
E
  3
ACAD_TABLESTYLE
350
D0
  3
ACAD_VISUALSTYLE
350
2A
  3
AcDbVariableDictionary
350
D8
  0
SUN
  5
3F
330
29
100
AcDbSun
 90
        1
290
     1
 63
     7
421
 16777215
 40
1.0
291
     1
 91
  2455826
 92
 54000000
292
     0
 70
     0
 71
   256
280
     1
  0
DICTIONARY
  5
153
330
2
100
AcDbDictionary
280
     1
281
     1
  3
ACAD_LAYERFILTERS
360
155
  3
ACLYDICTIONARY
360
154
  0
DICTIONARY
  5
114
330
1F
100
AcDbDictionary
280
     1
281
     1
  3
ACAD_SORTENTS
360
115
  0
DICTIONARY
  5
908
330
861
100
AcDbDictionary
280
     1
281
     1
  3
ACAD_SORTENTS
360
909
  0
DICTIONARY
  5
8B6
330
8B5
100
AcDbDictionary
280
     1
281
     1
  3
ACAD_DIMASSOC
360
8B7
  0
DICTIONARY
  5
8B9
330
8B8
100
AcDbDictionary
280
     1
281
     1
  3
ACAD_DIMASSOC
360
8BA
  0
DICTIONARY
  5
8BC
330
8BB
100
AcDbDictionary
280
     1
281
     1
  3
ACAD_DIMASSOC
360
8BD
  0
DICTIONARY
  5
8BF
330
8BE
100
AcDbDictionary
280
     1
281
     1
  3
ACAD_DIMASSOC
360
8C0
  0
DICTIONARY
  5
8C2
330
8C1
100
AcDbDictionary
280
     1
281
     1
  3
ACAD_DIMASSOC
360
8C3
  0
DICTIONARY
  5
8FA
330
8F9
100
AcDbDictionary
280
     1
281
     1
  3
ACAD_DIMASSOC
360
8FB
  0
DICTIONARY
  5
8FD
330
8FC
100
AcDbDictionary
280
     1
281
     1
  3
ACAD_DIMASSOC
360
8FE
  0
DICTIONARY
  5
900
330
8FF
100
AcDbDictionary
280
     1
281
     1
  3
ACAD_DIMASSOC
360
901
  0
DICTIONARY
  5
903
330
902
100
AcDbDictionary
280
     1
281
     1
  3
ACAD_DIMASSOC
360
904
  0
DICTIONARY
  5
906
330
905
100
AcDbDictionary
280
     1
281
     1
  3
ACAD_DIMASSOC
360
907
  0
DICTIONARY
  5
1CBB
330
1CAD
100
AcDbDictionary
280
     1
281
     1
  3
ACAD_DIMASSOC
360
1CC6
  0
DICTIONARY
  5
1CD5
330
1CC7
100
AcDbDictionary
280
     1
281
     1
  3
ACAD_DIMASSOC
360
1CE0
  0
DICTIONARY
  5
1CEF
330
1CE1
100
AcDbDictionary
280
     1
281
     1
  3
ACAD_DIMASSOC
360
1CFA
  0
DICTIONARY
  5
1D5A
330
1D4C
100
AcDbDictionary
280
     1
281
     1
  3
ACAD_DIMASSOC
360
1D65
  0
DICTIONARY
  5
1D74
330
1D66
100
AcDbDictionary
280
     1
281
     1
  3
ACAD_DIMASSOC
360
1D7F
  0
DICTIONARY
  5
D3
102
{ACAD_REACTORS
330
C
102
}
330
C
100
AcDbDictionary
281
     1
  0
DICTIONARY
  5
D
102
{ACAD_REACTORS
330
C
102
}
330
C
100
AcDbDictionary
281
     1
  0
DICTIONARY
  5
1A
102
{ACAD_REACTORS
330
C
102
}
330
C
100
AcDbDictionary
281
     1
  3
Layout1
350
1E
  3
Layout2
350
26
  3
Model
350
22
  0
DICTIONARY
  5
3B
102
{ACAD_REACTORS
330
C
102
}
330
C
100
AcDbDictionary
281
     1
  3
ByBlock
350
3D
  3
ByLayer
350
3C
  3
Global
350
3E
  0
DICTIONARY
  5
D1
102
{ACAD_REACTORS
330
C
102
}
330
C
100
AcDbDictionary
281
     1
  0
DICTIONARY
  5
17
102
{ACAD_REACTORS
330
C
102
}
330
C
100
AcDbDictionary
281
     1
  3
Standard
350
18
  0
DICTIONARY
  5
19
102
{ACAD_REACTORS
330
C
102
}
330
C
100
AcDbDictionary
281
     1
  0
ACDBDICTIONARYWDFLT
  5
E
102
{ACAD_REACTORS
330
C
102
}
330
C
100
AcDbDictionary
281
     1
  3
Normal
350
F
100
AcDbDictionaryWithDefault
340
F
  0
DICTIONARY
  5
D0
102
{ACAD_REACTORS
330
C
102
}
330
C
100
AcDbDictionary
281
     1
  3
Standard
350
D4
  0
DICTIONARY
  5
2A
102
{ACAD_REACTORS
330
C
102
}
330
C
100
AcDbDictionary
281
     1
  3
2dWireframe
350
2F
  3
3D Hidden
350
31
  3
3dWireframe
350
30
  3
Basic
350
32
  3
Brighten
350
36
  3
ColorChange
350
3A
  3
Conceptual
350
34
  3
Dim
350
35
  3
Facepattern
350
39
  3
Flat
350
2B
  3
FlatWithEdges
350
2C
  3
Gouraud
350
2D
  3
GouraudWithEdges
350
2E
  3
Linepattern
350
38
  3
Realistic
350
33
  3
Thicken
350
37
  0
DICTIONARY
  5
D8
102
{ACAD_REACTORS
330
C
102
}
330
C
100
AcDbDictionary
281
     1
  3
CTABLESTYLE
350
D9
  0
DICTIONARY
  5
155
102
{ACAD_REACTORS
330
153
102
}
330
153
100
AcDbDictionary
281
     1
  0
DICTIONARY
  5
154
102
{ACAD_REACTORS
330
153
102
}
330
153
100
AcDbDictionary
281
     1
1001
ACAD
1000
<All
  0
SORTENTSTABLE
  5
115
102
{ACAD_REACTORS
330
114
102
}
330
114
100
AcDbSortentsTable
330
1F
331
1C9F
  5
1D40
331
1CE1
  5
1D4B
331
1C91
  5
1D32
331
1D49
  5
1D2E
331
18DB
  5
18DC
331
1C9D
  5
1D3E
331
1CC7
  5
1D4A
331
1C8F
  5
1D30
331
18D9
  5
18DA
331
1C9B
  5
1D3C
331
1C99
  5
1D3A
331
18D5
  5
18D5
331
1CA6
  5
1D47
331
1CAD
  5
1D49
331
1CA4
  5
1D45
331
19AB
  5
1D28
331
1C96
  5
1D37
331
1CA2
  5
1D43
331
19A9
  5
1D24
331
1C94
  5
1D35
331
18DE
  5
19CB
331
1CA0
  5
1D41
331
1C92
  5
1D33
331
18DC
  5
18DD
331
19A7
  5
1C8E
331
1C9E
  5
1D3F
331
1C90
  5
1D31
331
18DA
  5
18DB
331
1C9C
  5
1D3D
331
1C8E
  5
1D2F
331
1D46
  5
19CF
331
18D8
  5
18D9
331
1C9A
  5
1D3B
331
1D00
  5
1D2C
331
18D6
  5
18D6
331
1C98
  5
1D39
331
1CA7
  5
1D48
331
1CA5
  5
1D46
331
19AC
  5
1D29
331
1C97
  5
1D38
331
1CA3
  5
1D44
331
19AA
  5
1D27
331
1C95
  5
1D36
331
1CA1
  5
1D42
331
1C93
  5
1D34
331
18DD
  5
18DE
  0
SORTENTSTABLE
  5
909
102
{ACAD_REACTORS
330
908
102
}
330
908
100
AcDbSortentsTable
330
861
  0
DIMASSOC
  5
8B7
102
{ACAD_REACTORS
330
8B6
102
}
330
8B6
100
AcDbDimAssoc
330
8B5
 90
        3
 70
     0
 71
     0
  1
AcDbOsnapPointRef
 72
    10
331
869
 73
     2
 91
        0
 40
0.1390237162708026
 10
0.0
 20
0.0
 30
0.0
 75
     0
  1
AcDbOsnapPointRef
 72
     8
331
862
 73
     2
 91
        0
 40
0.8611297047737537
 10
0.0
 20
0.0
 30
0.0
 75
     1
  1
AcDbOsnapPointRef
 72
    10
331
869
 73
     2
 91
        0
 40
0.1390237162708026
 10
0.0
 20
0.0
 30
0.0
 75
     0
  0
DIMASSOC
  5
8BA
102
{ACAD_REACTORS
330
8B9
102
}
330
8B9
100
AcDbDimAssoc
330
8B8
 90
        3
 70
     0
 71
     0
  1
AcDbOsnapPointRef
 72
     2
331
86A
 73
     2
 91
        0
 40
0.5000000000000006
 10
0.0
 20
0.0
 30
0.0
 75
     0
  1
AcDbOsnapPointRef
 72
     2
331
869
 73
     2
 91
        0
 40
0.5000000000000006
 10
0.0
 20
0.0
 30
0.0
 75
     0
  0
DIMASSOC
  5
8BD
102
{ACAD_REACTORS
330
8BC
102
}
330
8BC
100
AcDbDimAssoc
330
8BB
 90
        3
 70
     0
 71
     0
  1
AcDbOsnapPointRef
 72
     2
331
870
 73
     2
 91
        0
 40
0.5000000000000002
 10
0.0
 20
0.0
 30
0.0
 75
     0
  1
AcDbOsnapPointRef
 72
     2
331
88E
 73
     2
 91
        0
 40
0.5
 10
0.0
 20
0.0
 30
0.0
 75
     0
  0
DIMASSOC
  5
8C0
102
{ACAD_REACTORS
330
8BF
102
}
330
8BF
100
AcDbDimAssoc
330
8BE
 90
        3
 70
     0
 71
     0
  1
AcDbOsnapPointRef
 72
    10
331
864
 73
     2
 91
        0
 40
0.5869905780245907
 10
0.0
 20
0.0
 30
0.0
 75
     0
  1
AcDbOsnapPointRef
 72
     8
331
865
 73
     2
 91
        0
 40
0.7870689074811481
 10
0.0
 20
0.0
 30
0.0
 75
     1
  1
AcDbOsnapPointRef
 72
    10
331
864
 73
     2
 91
        0
 40
0.5869905780245907
 10
0.0
 20
0.0
 30
0.0
 75
     0
  0
DIMASSOC
  5
8C3
102
{ACAD_REACTORS
330
8C2
102
}
330
8C2
100
AcDbDimAssoc
330
8C1
 90
        3
 70
     0
 71
     0
  1
AcDbOsnapPointRef
 72
    10
331
86D
 73
     2
 91
        0
 40
0.3530437404234029
 10
0.0
 20
0.0
 30
0.0
 75
     0
  1
AcDbOsnapPointRef
 72
     8
331
86E
 73
     2
 91
        0
 40
0.3044231544682563
 10
0.0
 20
0.0
 30
0.0
 75
     1
  1
AcDbOsnapPointRef
 72
    10
331
86D
 73
     2
 91
        0
 40
0.3530437404234029
 10
0.0
 20
0.0
 30
0.0
 75
     0
  0
DIMASSOC
  5
8FB
102
{ACAD_REACTORS
330
8FA
102
}
330
8FA
100
AcDbDimAssoc
330
8F9
 90
        3
 70
     0
 71
     0
  1
AcDbOsnapPointRef
 72
     2
331
8CC
 73
     2
 91
        0
 40
0.5000000000000002
 10
0.0
 20
0.0
 30
0.0
 75
     0
  1
AcDbOsnapPointRef
 72
     2
331
8EA
 73
     2
 91
        0
 40
0.5
 10
0.0
 20
0.0
 30
0.0
 75
     0
  0
DIMASSOC
  5
8FE
102
{ACAD_REACTORS
330
8FD
102
}
330
8FD
100
AcDbDimAssoc
330
8FC
 90
        3
 70
     0
 71
     0
  1
AcDbOsnapPointRef
 72
    10
331
8C4
 73
     2
 91
        0
 40
0.5869905780245907
 10
0.0
 20
0.0
 30
0.0
 75
     0
  1
AcDbOsnapPointRef
 72
     8
331
8C5
 73
     2
 91
        0
 40
0.7870689074811481
 10
0.0
 20
0.0
 30
0.0
 75
     1
  1
AcDbOsnapPointRef
 72
    10
331
8C4
 73
     2
 91
        0
 40
0.5869905780245907
 10
0.0
 20
0.0
 30
0.0
 75
     0
  0
DIMASSOC
  5
901
102
{ACAD_REACTORS
330
900
102
}
330
900
100
AcDbDimAssoc
330
8FF
 90
        3
 70
     0
 71
     0
  1
AcDbOsnapPointRef
 72
    10
331
8C9
 73
     2
 91
        0
 40
0.3530437404234029
 10
0.0
 20
0.0
 30
0.0
 75
     0
  1
AcDbOsnapPointRef
 72
     8
331
8CA
 73
     2
 91
        0
 40
0.3044231544682563
 10
0.0
 20
0.0
 30
0.0
 75
     1
  1
AcDbOsnapPointRef
 72
    10
331
8C9
 73
     2
 91
        0
 40
0.3530437404234029
 10
0.0
 20
0.0
 30
0.0
 75
     0
  0
DIMASSOC
  5
904
102
{ACAD_REACTORS
330
903
102
}
330
903
100
AcDbDimAssoc
330
902
 90
        3
 70
     0
 71
     0
  1
AcDbOsnapPointRef
 72
    10
331
8C7
 73
     2
 91
        0
 40
0.09413494297849
 10
0.0
 20
0.0
 30
0.0
 75
     0
  1
AcDbOsnapPointRef
 72
     8
331
867
 73
     2
 91
        0
 40
0.09413494297849
 10
0.0
 20
0.0
 30
0.0
 75
     1
  1
AcDbOsnapPointRef
 72
    10
331
8C7
 73
     2
 91
        0
 40
0.09413494297849
 10
0.0
 20
0.0
 30
0.0
 75
     0
  0
DIMASSOC
  5
907
102
{ACAD_REACTORS
330
906
102
}
330
906
100
AcDbDimAssoc
330
905
 90
        3
 70
     0
 71
     0
  1
AcDbOsnapPointRef
 72
     1
331
873
 73
     2
 91
        0
 40
1.0
 10
0.0
 20
0.0
 30
2.000000000000000E+50
 75
     0
  1
AcDbOsnapPointRef
 72
    13
331
891
 73
     2
 91
        0
 40
0.0
 10
0.0
 20
0.0
 30
2.000000000000000E+50
 75
     0
  0
DIMASSOC
  5
1CC6
102
{ACAD_REACTORS
330
1CBB
102
}
330
1CBB
100
AcDbDimAssoc
330
1CAD
 90
        3
 70
     0
 71
     0
  1
AcDbOsnapPointRef
 72
    10
331
19A7
 73
     2
 91
        0
 40
0.7267192858088059
 10
0.0
 20
0.0
 30
0.0
 75
     0
  1
AcDbOsnapPointRef
 72
     8
331
18D6
 73
     2
 91
        0
 40
0.7267192858088059
 10
0.0
 20
0.0
 30
0.0
 75
     1
  1
AcDbOsnapPointRef
 72
    10
331
19A7
 73
     2
 91
        0
 40
0.7267192858088059
 10
0.0
 20
0.0
 30
0.0
 75
     0
  0
DIMASSOC
  5
1CE0
102
{ACAD_REACTORS
330
1CD5
102
}
330
1CD5
100
AcDbDimAssoc
330
1CC7
 90
        3
 70
     0
 71
     0
  1
AcDbOsnapPointRef
 72
    10
331
18D8
 73
     2
 91
        0
 40
0.1664862177372731
 10
0.0
 20
0.0
 30
0.0
 75
     0
  1
AcDbOsnapPointRef
 72
     8
331
18D5
 73
     2
 91
        0
 40
0.8336295620613155
 10
0.0
 20
0.0
 30
0.0
 75
     1
  1
AcDbOsnapPointRef
 72
    10
331
18D8
 73
     2
 91
        0
 40
0.1664862177372731
 10
0.0
 20
0.0
 30
0.0
 75
     0
  0
DIMASSOC
  5
1CFA
102
{ACAD_REACTORS
330
1CEF
102
}
330
1CEF
100
AcDbDimAssoc
330
1CE1
 90
        3
 70
     0
 71
     0
  1
AcDbOsnapPointRef
 72
    10
331
18D8
 73
     2
 91
        0
 40
0.5417349096010151
 10
0.0
 20
0.0
 30
0.0
 75
     0
  1
AcDbOsnapPointRef
 72
     8
331
18D9
 73
     2
 91
        0
 40
0.5417349096010151
 10
0.0
 20
0.0
 30
0.0
 75
     1
  1
AcDbOsnapPointRef
 72
    10
331
18D8
 73
     2
 91
        0
 40
0.5417349096010151
 10
0.0
 20
0.0
 30
0.0
 75
     0
  0
DIMASSOC
  5
1D65
102
{ACAD_REACTORS
330
1D5A
102
}
330
1D5A
100
AcDbDimAssoc
330
1D4C
 90
        3
 70
     0
 71
     0
  1
AcDbOsnapPointRef
 72
    10
331
1D00
 73
     2
 91
       36
 40
0.6708238651794991
 10
0.0
 20
0.0
 30
0.0
 75
     0
  1
AcDbOsnapPointRef
 72
     8
331
1D00
 73
     2
 91
        1
 40
0.3634707615861661
 10
0.0
 20
0.0
 30
0.0
 75
     1
  1
AcDbOsnapPointRef
 72
    10
331
1D00
 73
     2
 91
       36
 40
0.6708238651794991
 10
0.0
 20
0.0
 30
0.0
 75
     0
  0
DIMASSOC
  5
1D7F
102
{ACAD_REACTORS
330
1D74
102
}
330
1D74
100
AcDbDimAssoc
330
1D66
 90
        3
 70
     0
 71
     0
  1
AcDbOsnapPointRef
 72
     2
331
1D00
 73
     2
 91
       41
 40
0.5
 10
0.0
 20
0.0
 30
0.0
 75
     0
  1
AcDbOsnapPointRef
 72
     8
331
1D00
 73
     2
 91
       31
 40
0.5000000000000066
 10
0.0
 20
0.0
 30
0.0
 75
     1
  1
AcDbOsnapPointRef
 72
     2
331
1D00
 73
     2
 91
       41
 40
0.5
 10
0.0
 20
0.0
 30
0.0
 75
     0
  0
LAYOUT
  5
1E
102
{ACAD_REACTORS
330
1A
102
}
330
1A
100
AcDbPlotSettings
  1

  2
none_device
  4

  6

 40
0.0
 41
0.0
 42
0.0
 43
0.0
 44
0.0
 45
0.0
 46
0.0
 47
0.0
 48
0.0
 49
0.0
140
0.0
141
0.0
142
1.0
143
1.0
 70
   688
 72
     0
 73
     0
 74
     5
  7

 75
    16
147
1.0
 76
     0
 77
     2
 78
   300
148
0.0
149
0.0
100
AcDbLayout
  1
Layout1
 70
     1
 71
     1
 10
0.0
 20
0.0
 11
12.0
 21
9.0
 12
0.0
 22
0.0
 32
0.0
 14
1.000000000000000E+20
 24
1.000000000000000E+20
 34
1.000000000000000E+20
 15
-1.000000000000000E+20
 25
-1.000000000000000E+20
 35
-1.000000000000000E+20
146
0.0
 13
0.0
 23
0.0
 33
0.0
 16
1.0
 26
0.0
 36
0.0
 17
0.0
 27
1.0
 37
0.0
 76
     0
330
1B
  0
LAYOUT
  5
26
102
{ACAD_REACTORS
330
1A
102
}
330
1A
100
AcDbPlotSettings
  1

  2
none_device
  4

  6

 40
0.0
 41
0.0
 42
0.0
 43
0.0
 44
0.0
 45
0.0
 46
0.0
 47
0.0
 48
0.0
 49
0.0
140
0.0
141
0.0
142
1.0
143
1.0
 70
   688
 72
     0
 73
     0
 74
     5
  7

 75
    16
147
1.0
 76
     0
 77
     2
 78
   300
148
0.0
149
0.0
100
AcDbLayout
  1
Layout2
 70
     1
 71
     2
 10
0.0
 20
0.0
 11
0.0
 21
0.0
 12
0.0
 22
0.0
 32
0.0
 14
0.0
 24
0.0
 34
0.0
 15
0.0
 25
0.0
 35
0.0
146
0.0
 13
0.0
 23
0.0
 33
0.0
 16
1.0
 26
0.0
 36
0.0
 17
0.0
 27
1.0
 37
0.0
 76
     0
330
23
  0
LAYOUT
  5
22
102
{ACAD_REACTORS
330
1A
102
}
330
1A
100
AcDbPlotSettings
  1

  2
none_device
  4

  6

 40
0.0
 41
0.0
 42
0.0
 43
0.0
 44
0.0
 45
0.0
 46
0.0
 47
0.0
 48
0.0
 49
0.0
140
0.0
141
0.0
142
1.0
143
1.0
 70
  1712
 72
     0
 73
     0
 74
     0
  7

 75
     0
147
1.0
 76
     0
 77
     2
 78
   300
148
0.0
149
0.0
100
AcDbLayout
  1
Model
 70
     1
 71
     0
 10
0.0
 20
0.0
 11
12.0
 21
9.0
 12
0.0
 22
0.0
 32
0.0
 14
1.000000000000000E+20
 24
1.000000000000000E+20
 34
1.000000000000000E+20
 15
-1.000000000000000E+20
 25
-1.000000000000000E+20
 35
-1.000000000000000E+20
146
0.0
 13
0.0
 23
0.0
 33
0.0
 16
1.0
 26
0.0
 36
0.0
 17
0.0
 27
1.0
 37
0.0
 76
     0
330
1F
331
29
  0
MATERIAL
  5
3D
102
{ACAD_REACTORS
330
3B
102
}
330
3B
100
AcDbMaterial
  1
ByBlock
 94
      127
  0
MATERIAL
  5
3C
102
{ACAD_REACTORS
330
3B
102
}
330
3B
100
AcDbMaterial
  1
ByLayer
 94
      127
  0
MATERIAL
  5
3E
102
{ACAD_REACTORS
330
3B
102
}
330
3B
100
AcDbMaterial
  1
Global
 94
      127
  0
MLINESTYLE
  5
18
102
{ACAD_REACTORS
330
17
102
}
330
17
100
AcDbMlineStyle
  2
STANDARD
 70
     0
  3

 62
   256
 51
90.0
 52
90.0
 71
     2
 49
0.5
 62
   256
  6
BYLAYER
 49
-0.5
 62
   256
  6
BYLAYER
  0
ACDBPLACEHOLDER
  5
F
102
{ACAD_REACTORS
330
E
102
}
330
E
  0
TABLESTYLE
  5
D4
102
{ACAD_REACTORS
330
D0
102
}
330
D0
100
AcDbTableStyle
  3
Standard
 70
     0
 71
     0
 40
0.06
 41
0.06
280
     0
281
     0
  7
Standard
140
0.18
170
     2
 62
     0
 63
     7
283
     0
 90
      512
 91
        0
  1

274
    -2
284
     1
 64
     0
275
    -2
285
     1
 65
     0
276
    -2
286
     1
 66
     0
277
    -2
287
     1
 67
     0
278
    -2
288
     1
 68
     0
279
    -2
289
     1
 69
     0
  7
Standard
140
0.25
170
     5
 62
     0
 63
     7
283
     0
 90
      512
 91
        0
  1

274
    -2
284
     1
 64
     0
275
    -2
285
     1
 65
     0
276
    -2
286
     1
 66
     0
277
    -2
287
     1
 67
     0
278
    -2
288
     1
 68
     0
279
    -2
289
     1
 69
     0
  7
Standard
140
0.18
170
     5
 62
     0
 63
     7
283
     0
 90
      512
 91
        0
  1

274
    -2
284
     1
 64
     0
275
    -2
285
     1
 65
     0
276
    -2
286
     1
 66
     0
277
    -2
287
     1
 67
     0
278
    -2
288
     1
 68
     0
279
    -2
289
     1
 69
     0
  0
VISUALSTYLE
  5
2F
102
{ACAD_XDICTIONARY
360
B8
102
}
102
{ACAD_REACTORS
330
2A
102
}
330
2A
100
AcDbVisualStyle
  2
2dWireframe
 70
     4
 71
     0
 72
     2
 73
     0
 90
        0
 40
-0.6
 41
-30.0
 62
     5
 63
     7
421
 16777215
 74
     1
 91
        4
 64
     7
 65
   257
 75
     1
175
     1
 42
1.0
 92
        0
 66
   257
 43
1.0
 76
     1
 77
     6
 78
     2
 67
     7
 79
     5
170
     0
171
     0
290
     0
174
     0
 93
        1
 44
0.0
173
     0
291
     0
 45
0.0
  0
VISUALSTYLE
  5
31
102
{ACAD_XDICTIONARY
360
BC
102
}
102
{ACAD_REACTORS
330
2A
102
}
330
2A
100
AcDbVisualStyle
  2
3D Hidden
 70
     6
 71
     1
 72
     2
 73
     2
 90
        0
 40
-0.6
 41
-30.0
 62
     5
 63
     7
421
 16777215
 74
     2
 91
        2
 64
     7
 65
   257
 75
     2
175
     1
 42
40.0
 92
        0
 66
   257
 43
1.0
 76
     1
 77
     6
 78
     2
 67
     7
 79
     3
170
     0
171
     0
290
     0
174
     0
 93
        1
 44
0.0
173
     0
291
     0
 45
0.0
  0
VISUALSTYLE
  5
30
102
{ACAD_XDICTIONARY
360
BA
102
}
102
{ACAD_REACTORS
330
2A
102
}
330
2A
100
AcDbVisualStyle
  2
3dWireframe
 70
     5
 71
     0
 72
     2
 73
     0
 90
        0
 40
-0.6
 41
-30.0
 62
     5
 63
     7
421
 16777215
 74
     1
 91
        4
 64
     7
 65
   257
 75
     1
175
     1
 42
1.0
 92
        0
 66
   257
 43
1.0
 76
     1
 77
     6
 78
     2
 67
     7
 79
     5
170
     0
171
     0
290
     0
174
     0
 93
        1
 44
0.0
173
     0
291
     0
 45
0.0
  0
VISUALSTYLE
  5
32
102
{ACAD_XDICTIONARY
360
BE
102
}
102
{ACAD_REACTORS
330
2A
102
}
330
2A
100
AcDbVisualStyle
  2
Basic
 70
     7
 71
     1
 72
     0
 73
     1
 90
        0
 40
-0.6
 41
-30.0
 62
     5
 63
     7
421
 16777215
 74
     0
 91
        4
 64
     7
 65
   257
 75
     1
175
     1
 42
1.0
 92
        8
 66
     7
 43
1.0
 76
     1
 77
     6
 78
     2
 67
     7
 79
     5
170
     0
171
     0
290
     0
174
     0
 93
        1
 44
0.0
173
     0
291
     1
 45
0.0
  0
VISUALSTYLE
  5
36
102
{ACAD_XDICTIONARY
360
C6
102
}
102
{ACAD_REACTORS
330
2A
102
}
330
2A
100
AcDbVisualStyle
  2
Brighten
 70
    12
 71
     2
 72
     2
 73
     0
 90
        0
 40
-0.6
 41
-30.0
 62
     5
 63
     7
421
 16777215
 74
     1
 91
        4
 64
     7
 65
   257
 75
     1
175
     1
 42
1.0
 92
        8
 66
     7
 43
1.0
 76
     1
 77
     6
 78
     2
 67
     7
 79
     5
170
     0
171
     0
290
     0
174
     0
 93
        1
 44
50.0
173
     0
291
     1
 45
0.0
  0
VISUALSTYLE
  5
3A
102
{ACAD_XDICTIONARY
360
CE
102
}
102
{ACAD_REACTORS
330
2A
102
}
330
2A
100
AcDbVisualStyle
  2
ColorChange
 70
    16
 71
     2
 72
     2
 73
     3
 90
        0
 40
-0.6
 41
-30.0
 62
     5
 63
     8
421
  8421504
 74
     1
 91
        4
 64
     7
 65
   257
 75
     1
175
     1
 42
1.0
 92
        8
 66
     8
424
  8421504
 43
1.0
 76
     1
 77
     6
 78
     2
 67
     7
 79
     5
170
     0
171
     0
290
     0
174
     0
 93
        1
 44
0.0
173
     0
291
     1
 45
0.0
  0
VISUALSTYLE
  5
34
102
{ACAD_XDICTIONARY
360
C2
102
}
102
{ACAD_REACTORS
330
2A
102
}
330
2A
100
AcDbVisualStyle
  2
Conceptual
 70
     9
 71
     3
 72
     2
 73
     0
 90
        0
 40
-0.6
 41
-30.0
 62
     5
 63
     7
421
 16777215
 74
     2
 91
        2
 64
     7
 65
   257
 75
     1
175
     1
 42
40.0
 92
        8
 66
     7
 43
1.0
 76
     1
 77
     6
 78
     2
 67
     7
 79
     3
170
     0
171
     0
290
     0
174
     0
 93
        1
 44
0.0
173
     0
291
     0
 45
0.0
  0
VISUALSTYLE
  5
35
102
{ACAD_XDICTIONARY
360
C4
102
}
102
{ACAD_REACTORS
330
2A
102
}
330
2A
100
AcDbVisualStyle
  2
Dim
 70
    11
 71
     2
 72
     2
 73
     0
 90
        0
 40
-0.6
 41
-30.0
 62
     5
 63
     7
421
 16777215
 74
     1
 91
        4
 64
     7
 65
   257
 75
     1
175
     1
 42
1.0
 92
        8
 66
     7
 43
1.0
 76
     1
 77
     6
 78
     2
 67
     7
 79
     5
170
     0
171
     0
290
     0
174
     0
 93
        1
 44
-50.0
173
     0
291
     1
 45
0.0
  0
VISUALSTYLE
  5
39
102
{ACAD_XDICTIONARY
360
CC
102
}
102
{ACAD_REACTORS
330
2A
102
}
330
2A
100
AcDbVisualStyle
  2
Facepattern
 70
    15
 71
     2
 72
     2
 73
     0
 90
        0
 40
-0.6
 41
-30.0
 62
     5
 63
     7
421
 16777215
 74
     1
 91
        4
 64
     7
 65
   257
 75
     1
175
     1
 42
1.0
 92
        8
 66
     7
 43
1.0
 76
     1
 77
     6
 78
     2
 67
     7
 79
     5
170
     0
171
     0
290
     0
174
     0
 93
        1
 44
0.0
173
     0
291
     1
 45
0.0
  0
VISUALSTYLE
  5
2B
102
{ACAD_XDICTIONARY
360
B0
102
}
102
{ACAD_REACTORS
330
2A
102
}
330
2A
100
AcDbVisualStyle
  2
Flat
 70
     0
 71
     2
 72
     1
 73
     1
 90
        2
 40
-0.6
 41
30.0
 62
     5
 63
     7
421
 16777215
 74
     0
 91
        4
 64
     7
 65
   257
 75
     1
175
     1
 42
1.0
 92
        8
 66
     7
 43
1.0
 76
     1
 77
     6
 78
     2
 67
     7
 79
     5
170
     0
171
     0
290
     0
174
     0
 93
       13
 44
0.0
173
     0
291
     1
 45
0.0
  0
VISUALSTYLE
  5
2C
102
{ACAD_XDICTIONARY
360
B2
102
}
102
{ACAD_REACTORS
330
2A
102
}
330
2A
100
AcDbVisualStyle
  2
FlatWithEdges
 70
     1
 71
     2
 72
     1
 73
     1
 90
        2
 40
-0.6
 41
30.0
 62
     5
 63
     7
421
 16777215
 74
     1
 91
        4
 64
     7
 65
   257
 75
     1
175
     1
 42
1.0
 92
        0
 66
   257
 43
1.0
 76
     1
 77
     6
 78
     2
 67
     7
 79
     5
170
     0
171
     0
290
     0
174
     0
 93
       13
 44
0.0
173
     0
291
     1
 45
0.0
  0
VISUALSTYLE
  5
2D
102
{ACAD_XDICTIONARY
360
B4
102
}
102
{ACAD_REACTORS
330
2A
102
}
330
2A
100
AcDbVisualStyle
  2
Gouraud
 70
     2
 71
     2
 72
     2
 73
     1
 90
        2
 40
-0.6
 41
30.0
 62
     5
 63
     7
421
 16777215
 74
     0
 91
        4
 64
     7
 65
   257
 75
     1
175
     1
 42
1.0
 92
        0
 66
     7
 43
1.0
 76
     1
 77
     6
 78
     2
 67
     7
 79
     5
170
     0
171
     0
290
     0
174
     0
 93
       13
 44
0.0
173
     0
291
     1
 45
0.0
  0
VISUALSTYLE
  5
2E
102
{ACAD_XDICTIONARY
360
B6
102
}
102
{ACAD_REACTORS
330
2A
102
}
330
2A
100
AcDbVisualStyle
  2
GouraudWithEdges
 70
     3
 71
     2
 72
     2
 73
     1
 90
        2
 40
-0.6
 41
30.0
 62
     5
 63
     7
421
 16777215
 74
     1
 91
        4
 64
     7
 65
   257
 75
     1
175
     1
 42
1.0
 92
        0
 66
   257
 43
1.0
 76
     1
 77
     6
 78
     2
 67
     7
 79
     5
170
     0
171
     0
290
     0
174
     0
 93
       13
 44
0.0
173
     0
291
     1
 45
0.0
  0
VISUALSTYLE
  5
38
102
{ACAD_XDICTIONARY
360
CA
102
}
102
{ACAD_REACTORS
330
2A
102
}
330
2A
100
AcDbVisualStyle
  2
Linepattern
 70
    14
 71
     2
 72
     2
 73
     0
 90
        0
 40
-0.6
 41
-30.0
 62
     5
 63
     7
421
 16777215
 74
     1
 91
        4
 64
     7
 65
   257
 75
     7
175
     7
 42
1.0
 92
        8
 66
     7
 43
1.0
 76
     1
 77
     6
 78
     2
 67
     7
 79
     5
170
     0
171
     0
290
     0
174
     0
 93
        1
 44
0.0
173
     0
291
     1
 45
0.0
  0
VISUALSTYLE
  5
33
102
{ACAD_XDICTIONARY
360
C0
102
}
102
{ACAD_REACTORS
330
2A
102
}
330
2A
100
AcDbVisualStyle
  2
Realistic
 70
     8
 71
     2
 72
     2
 73
     0
 90
        0
 40
-0.6
 41
-30.0
 62
     5
 63
     7
421
 16777215
 74
     1
 91
        0
 64
     7
 65
   257
 75
     1
175
     1
 42
1.0
 92
        8
 66
     8
424
  7895160
 43
1.0
 76
     1
 77
     6
 78
     2
 67
     7
 79
     5
170
     0
171
     0
290
     0
174
     0
 93
       13
 44
0.0
173
     0
291
     0
 45
0.0
  0
VISUALSTYLE
  5
37
102
{ACAD_XDICTIONARY
360
C8
102
}
102
{ACAD_REACTORS
330
2A
102
}
330
2A
100
AcDbVisualStyle
  2
Thicken
 70
    13
 71
     2
 72
     2
 73
     0
 90
        0
 40
-0.6
 41
-30.0
 62
     5
 63
     7
421
 16777215
 74
     1
 91
        4
 64
     7
 65
   257
 75
     1
175
     1
 42
1.0
 92
       12
 66
     7
 43
1.0
 76
     1
 77
     6
 78
     2
 67
     7
 79
     5
170
     0
171
     0
290
     0
174
     0
 93
        1
 44
0.0
173
     0
291
     1
 45
0.0
  0
DICTIONARYVAR
  5
D9
102
{ACAD_REACTORS
330
D8
102
}
330
D8
100
DictionaryVariables
280
     0
  1
STANDARD
  0
DICTIONARY
  5
B8
330
2F
100
AcDbDictionary
280
     1
281
     1
  3
ACAD_XREC_ROUNDTRIP
360
B9
  0
DICTIONARY
  5
BC
330
31
100
AcDbDictionary
280
     1
281
     1
  3
ACAD_XREC_ROUNDTRIP
360
BD
  0
DICTIONARY
  5
BA
330
30
100
AcDbDictionary
280
     1
281
     1
  3
ACAD_XREC_ROUNDTRIP
360
BB
  0
DICTIONARY
  5
BE
330
32
100
AcDbDictionary
280
     1
281
     1
  3
ACAD_XREC_ROUNDTRIP
360
BF
  0
DICTIONARY
  5
C6
330
36
100
AcDbDictionary
280
     1
281
     1
  3
ACAD_XREC_ROUNDTRIP
360
C7
  0
DICTIONARY
  5
CE
330
3A
100
AcDbDictionary
280
     1
281
     1
  3
ACAD_XREC_ROUNDTRIP
360
CF
  0
DICTIONARY
  5
C2
330
34
100
AcDbDictionary
280
     1
281
     1
  3
ACAD_XREC_ROUNDTRIP
360
C3
  0
DICTIONARY
  5
C4
330
35
100
AcDbDictionary
280
     1
281
     1
  3
ACAD_XREC_ROUNDTRIP
360
C5
  0
DICTIONARY
  5
CC
330
39
100
AcDbDictionary
280
     1
281
     1
  3
ACAD_XREC_ROUNDTRIP
360
CD
  0
DICTIONARY
  5
B0
330
2B
100
AcDbDictionary
280
     1
281
     1
  3
ACAD_XREC_ROUNDTRIP
360
B1
  0
DICTIONARY
  5
B2
330
2C
100
AcDbDictionary
280
     1
281
     1
  3
ACAD_XREC_ROUNDTRIP
360
B3
  0
DICTIONARY
  5
B4
330
2D
100
AcDbDictionary
280
     1
281
     1
  3
ACAD_XREC_ROUNDTRIP
360
B5
  0
DICTIONARY
  5
B6
330
2E
100
AcDbDictionary
280
     1
281
     1
  3
ACAD_XREC_ROUNDTRIP
360
B7
  0
DICTIONARY
  5
CA
330
38
100
AcDbDictionary
280
     1
281
     1
  3
ACAD_XREC_ROUNDTRIP
360
CB
  0
DICTIONARY
  5
C0
330
33
100
AcDbDictionary
280
     1
281
     1
  3
ACAD_XREC_ROUNDTRIP
360
C1
  0
DICTIONARY
  5
C8
330
37
100
AcDbDictionary
280
     1
281
     1
  3
ACAD_XREC_ROUNDTRIP
360
C9
  0
XRECORD
  5
B9
102
{ACAD_REACTORS
330
B8
102
}
330
B8
100
AcDbXrecord
280
     1
102
RTVSPropertyOp0
 70
     1
102
RTVSPropertyOp1
 70
     1
102
RTVSPropertyOp2
 70
     1
102
RTVSPropertyOp3
 70
     1
102
RTVSPropertyOp4
 70
     1
102
RTVSPropertyOp5
 70
     1
102
RTVSPropertyOp6
 70
     1
102
RTVSPropertyOp7
 70
     1
102
RTVSPropertyOp8
 70
     1
102
RTVSPropertyOp9
 70
     1
102
RTVSPropertyOp10
 70
     1
102
RTVSPropertyOp11
 70
     1
102
RTVSPropertyOp12
 70
     1
102
RTVSPropertyOp13
 70
     1
102
RTVSPropertyOp14
 70
     1
102
RTVSPropertyOp15
 70
     1
102
RTVSPropertyOp16
 70
     1
102
RTVSPropertyOp17
 70
     1
102
RTVSPropertyOp18
 70
     1
102
RTVSPropertyOp19
 70
     1
102
RTVSPropertyOp20
 70
     1
102
RTVSPropertyOp21
 70
     1
102
RTVSPropertyOp22
 70
     1
102
RTVSPropertyOp23
 70
     1
102
RTVSPropertyOp24
 70
     1
102
RTVSPropertyOp25
 70
     1
102
RTVSPropertyOp26
 70
     1
102
RTVSPropertyOp27
 70
     1
102
RTVSPropertyOp28
 70
     1
102
RTVSPropertyOp29
 70
     1
102
RTVSPropertyOp30
 70
     1
102
RTVSPropertyOp31
 70
     1
102
RTVSPropertyOp32
 70
     1
  0
XRECORD
  5
BD
102
{ACAD_REACTORS
330
BC
102
}
330
BC
100
AcDbXrecord
280
     1
102
RTVSPropertyOp0
 70
     1
102
RTVSPropertyOp1
 70
     1
102
RTVSPropertyOp2
 70
     1
102
RTVSPropertyOp3
 70
     1
102
RTVSPropertyOp4
 70
     1
102
RTVSPropertyOp5
 70
     1
102
RTVSPropertyOp6
 70
     1
102
RTVSPropertyOp7
 70
     1
102
RTVSPropertyOp8
 70
     1
102
RTVSPropertyOp9
 70
     1
102
RTVSPropertyOp10
 70
     1
102
RTVSPropertyOp11
 70
     1
102
RTVSPropertyOp12
 70
     1
102
RTVSPropertyOp13
 70
     1
102
RTVSPropertyOp14
 70
     1
102
RTVSPropertyOp15
 70
     1
102
RTVSPropertyOp16
 70
     1
102
RTVSPropertyOp17
 70
     1
102
RTVSPropertyOp18
 70
     1
102
RTVSPropertyOp19
 70
     1
102
RTVSPropertyOp20
 70
     1
102
RTVSPropertyOp21
 70
     1
102
RTVSPropertyOp22
 70
     1
102
RTVSPropertyOp23
 70
     1
102
RTVSPropertyOp24
 70
     1
102
RTVSPropertyOp25
 70
     1
102
RTVSPropertyOp26
 70
     1
102
RTVSPropertyOp27
 70
     1
102
RTVSPropertyOp28
 70
     1
102
RTVSPropertyOp29
 70
     1
102
RTVSPropertyOp30
 70
     1
102
RTVSPropertyOp31
 70
     1
102
RTVSPropertyOp32
 70
     1
  0
XRECORD
  5
BB
102
{ACAD_REACTORS
330
BA
102
}
330
BA
100
AcDbXrecord
280
     1
102
RTVSPropertyOp0
 70
     1
102
RTVSPropertyOp1
 70
     1
102
RTVSPropertyOp2
 70
     1
102
RTVSPropertyOp3
 70
     1
102
RTVSPropertyOp4
 70
     1
102
RTVSPropertyOp5
 70
     1
102
RTVSPropertyOp6
 70
     1
102
RTVSPropertyOp7
 70
     1
102
RTVSPropertyOp8
 70
     1
102
RTVSPropertyOp9
 70
     1
102
RTVSPropertyOp10
 70
     1
102
RTVSPropertyOp11
 70
     1
102
RTVSPropertyOp12
 70
     1
102
RTVSPropertyOp13
 70
     1
102
RTVSPropertyOp14
 70
     1
102
RTVSPropertyOp15
 70
     1
102
RTVSPropertyOp16
 70
     1
102
RTVSPropertyOp17
 70
     1
102
RTVSPropertyOp18
 70
     1
102
RTVSPropertyOp19
 70
     1
102
RTVSPropertyOp20
 70
     1
102
RTVSPropertyOp21
 70
     1
102
RTVSPropertyOp22
 70
     1
102
RTVSPropertyOp23
 70
     1
102
RTVSPropertyOp24
 70
     1
102
RTVSPropertyOp25
 70
     1
102
RTVSPropertyOp26
 70
     1
102
RTVSPropertyOp27
 70
     1
102
RTVSPropertyOp28
 70
     1
102
RTVSPropertyOp29
 70
     1
102
RTVSPropertyOp30
 70
     1
102
RTVSPropertyOp31
 70
     1
102
RTVSPropertyOp32
 70
     1
  0
XRECORD
  5
BF
102
{ACAD_REACTORS
330
BE
102
}
330
BE
100
AcDbXrecord
280
     1
102
RTVSPropertyOp0
 70
     1
102
RTVSPropertyOp1
 70
     1
102
RTVSPropertyOp2
 70
     1
102
RTVSPropertyOp3
 70
     1
102
RTVSPropertyOp4
 70
     1
102
RTVSPropertyOp5
 70
     1
102
RTVSPropertyOp6
 70
     1
102
RTVSPropertyOp7
 70
     1
102
RTVSPropertyOp8
 70
     1
102
RTVSPropertyOp9
 70
     1
102
RTVSPropertyOp10
 70
     1
102
RTVSPropertyOp11
 70
     1
102
RTVSPropertyOp12
 70
     1
102
RTVSPropertyOp13
 70
     1
102
RTVSPropertyOp14
 70
     1
102
RTVSPropertyOp15
 70
     1
102
RTVSPropertyOp16
 70
     1
102
RTVSPropertyOp17
 70
     1
102
RTVSPropertyOp18
 70
     1
102
RTVSPropertyOp19
 70
     1
102
RTVSPropertyOp20
 70
     1
102
RTVSPropertyOp21
 70
     1
102
RTVSPropertyOp22
 70
     1
102
RTVSPropertyOp23
 70
     1
102
RTVSPropertyOp24
 70
     1
102
RTVSPropertyOp25
 70
     1
102
RTVSPropertyOp26
 70
     1
102
RTVSPropertyOp27
 70
     1
102
RTVSPropertyOp28
 70
     1
102
RTVSPropertyOp29
 70
     1
102
RTVSPropertyOp30
 70
     1
102
RTVSPropertyOp31
 70
     1
102
RTVSPropertyOp32
 70
     1
  0
XRECORD
  5
C7
102
{ACAD_REACTORS
330
C6
102
}
330
C6
100
AcDbXrecord
280
     1
102
RTVSPropertyOp0
 70
     1
102
RTVSPropertyOp1
 70
     1
102
RTVSPropertyOp2
 70
     1
102
RTVSPropertyOp3
 70
     1
102
RTVSPropertyOp4
 70
     1
102
RTVSPropertyOp5
 70
     1
102
RTVSPropertyOp6
 70
     1
102
RTVSPropertyOp7
 70
     1
102
RTVSPropertyOp8
 70
     1
102
RTVSPropertyOp9
 70
     1
102
RTVSPropertyOp10
 70
     1
102
RTVSPropertyOp11
 70
     1
102
RTVSPropertyOp12
 70
     1
102
RTVSPropertyOp13
 70
     1
102
RTVSPropertyOp14
 70
     1
102
RTVSPropertyOp15
 70
     1
102
RTVSPropertyOp16
 70
     1
102
RTVSPropertyOp17
 70
     1
102
RTVSPropertyOp18
 70
     1
102
RTVSPropertyOp19
 70
     1
102
RTVSPropertyOp20
 70
     1
102
RTVSPropertyOp21
 70
     1
102
RTVSPropertyOp22
 70
     1
102
RTVSPropertyOp23
 70
     1
102
RTVSPropertyOp24
 70
     1
102
RTVSPropertyOp25
 70
     1
102
RTVSPropertyOp26
 70
     1
102
RTVSPropertyOp27
 70
     1
102
RTVSPropertyOp28
 70
     1
102
RTVSPropertyOp29
 70
     1
102
RTVSPropertyOp30
 70
     1
102
RTVSPropertyOp31
 70
     1
102
RTVSPropertyOp32
 70
     1
  0
XRECORD
  5
CF
102
{ACAD_REACTORS
330
CE
102
}
330
CE
100
AcDbXrecord
280
     1
102
RTVSPropertyOp0
 70
     1
102
RTVSPropertyOp1
 70
     1
102
RTVSPropertyOp2
 70
     1
102
RTVSPropertyOp3
 70
     1
102
RTVSPropertyOp4
 70
     1
102
RTVSPropertyOp5
 70
     1
102
RTVSPropertyOp6
 70
     1
102
RTVSPropertyOp7
 70
     1
102
RTVSPropertyOp8
 70
     1
102
RTVSPropertyOp9
 70
     1
102
RTVSPropertyOp10
 70
     1
102
RTVSPropertyOp11
 70
     1
102
RTVSPropertyOp12
 70
     1
102
RTVSPropertyOp13
 70
     1
102
RTVSPropertyOp14
 70
     1
102
RTVSPropertyOp15
 70
     1
102
RTVSPropertyOp16
 70
     1
102
RTVSPropertyOp17
 70
     1
102
RTVSPropertyOp18
 70
     1
102
RTVSPropertyOp19
 70
     1
102
RTVSPropertyOp20
 70
     1
102
RTVSPropertyOp21
 70
     1
102
RTVSPropertyOp22
 70
     1
102
RTVSPropertyOp23
 70
     1
102
RTVSPropertyOp24
 70
     1
102
RTVSPropertyOp25
 70
     1
102
RTVSPropertyOp26
 70
     1
102
RTVSPropertyOp27
 70
     1
102
RTVSPropertyOp28
 70
     1
102
RTVSPropertyOp29
 70
     1
102
RTVSPropertyOp30
 70
     1
102
RTVSPropertyOp31
 70
     1
102
RTVSPropertyOp32
 70
     1
  0
XRECORD
  5
C3
102
{ACAD_REACTORS
330
C2
102
}
330
C2
100
AcDbXrecord
280
     1
102
RTVSPropertyOp0
 70
     1
102
RTVSPropertyOp1
 70
     1
102
RTVSPropertyOp2
 70
     1
102
RTVSPropertyOp3
 70
     1
102
RTVSPropertyOp4
 70
     1
102
RTVSPropertyOp5
 70
     1
102
RTVSPropertyOp6
 70
     1
102
RTVSPropertyOp7
 70
     1
102
RTVSPropertyOp8
 70
     1
102
RTVSPropertyOp9
 70
     1
102
RTVSPropertyOp10
 70
     1
102
RTVSPropertyOp11
 70
     1
102
RTVSPropertyOp12
 70
     1
102
RTVSPropertyOp13
 70
     1
102
RTVSPropertyOp14
 70
     1
102
RTVSPropertyOp15
 70
     1
102
RTVSPropertyOp16
 70
     1
102
RTVSPropertyOp17
 70
     1
102
RTVSPropertyOp18
 70
     1
102
RTVSPropertyOp19
 70
     1
102
RTVSPropertyOp20
 70
     1
102
RTVSPropertyOp21
 70
     1
102
RTVSPropertyOp22
 70
     1
102
RTVSPropertyOp23
 70
     1
102
RTVSPropertyOp24
 70
     1
102
RTVSPropertyOp25
 70
     1
102
RTVSPropertyOp26
 70
     1
102
RTVSPropertyOp27
 70
     1
102
RTVSPropertyOp28
 70
     1
102
RTVSPropertyOp29
 70
     1
102
RTVSPropertyOp30
 70
     1
102
RTVSPropertyOp31
 70
     1
102
RTVSPropertyOp32
 70
     1
  0
XRECORD
  5
C5
102
{ACAD_REACTORS
330
C4
102
}
330
C4
100
AcDbXrecord
280
     1
102
RTVSPropertyOp0
 70
     1
102
RTVSPropertyOp1
 70
     1
102
RTVSPropertyOp2
 70
     1
102
RTVSPropertyOp3
 70
     1
102
RTVSPropertyOp4
 70
     1
102
RTVSPropertyOp5
 70
     1
102
RTVSPropertyOp6
 70
     1
102
RTVSPropertyOp7
 70
     1
102
RTVSPropertyOp8
 70
     1
102
RTVSPropertyOp9
 70
     1
102
RTVSPropertyOp10
 70
     1
102
RTVSPropertyOp11
 70
     1
102
RTVSPropertyOp12
 70
     1
102
RTVSPropertyOp13
 70
     1
102
RTVSPropertyOp14
 70
     1
102
RTVSPropertyOp15
 70
     1
102
RTVSPropertyOp16
 70
     1
102
RTVSPropertyOp17
 70
     1
102
RTVSPropertyOp18
 70
     1
102
RTVSPropertyOp19
 70
     1
102
RTVSPropertyOp20
 70
     1
102
RTVSPropertyOp21
 70
     1
102
RTVSPropertyOp22
 70
     1
102
RTVSPropertyOp23
 70
     1
102
RTVSPropertyOp24
 70
     1
102
RTVSPropertyOp25
 70
     1
102
RTVSPropertyOp26
 70
     1
102
RTVSPropertyOp27
 70
     1
102
RTVSPropertyOp28
 70
     1
102
RTVSPropertyOp29
 70
     1
102
RTVSPropertyOp30
 70
     1
102
RTVSPropertyOp31
 70
     1
102
RTVSPropertyOp32
 70
     1
  0
XRECORD
  5
CD
102
{ACAD_REACTORS
330
CC
102
}
330
CC
100
AcDbXrecord
280
     1
102
RTVSPropertyOp0
 70
     1
102
RTVSPropertyOp1
 70
     1
102
RTVSPropertyOp2
 70
     1
102
RTVSPropertyOp3
 70
     1
102
RTVSPropertyOp4
 70
     1
102
RTVSPropertyOp5
 70
     1
102
RTVSPropertyOp6
 70
     1
102
RTVSPropertyOp7
 70
     1
102
RTVSPropertyOp8
 70
     1
102
RTVSPropertyOp9
 70
     1
102
RTVSPropertyOp10
 70
     1
102
RTVSPropertyOp11
 70
     1
102
RTVSPropertyOp12
 70
     1
102
RTVSPropertyOp13
 70
     1
102
RTVSPropertyOp14
 70
     1
102
RTVSPropertyOp15
 70
     1
102
RTVSPropertyOp16
 70
     1
102
RTVSPropertyOp17
 70
     1
102
RTVSPropertyOp18
 70
     1
102
RTVSPropertyOp19
 70
     1
102
RTVSPropertyOp20
 70
     1
102
RTVSPropertyOp21
 70
     1
102
RTVSPropertyOp22
 70
     1
102
RTVSPropertyOp23
 70
     1
102
RTVSPropertyOp24
 70
     1
102
RTVSPropertyOp25
 70
     1
102
RTVSPropertyOp26
 70
     1
102
RTVSPropertyOp27
 70
     1
102
RTVSPropertyOp28
 70
     1
102
RTVSPropertyOp29
 70
     1
102
RTVSPropertyOp30
 70
     1
102
RTVSPropertyOp31
 70
     1
102
RTVSPropertyOp32
 70
     1
  0
XRECORD
  5
B1
102
{ACAD_REACTORS
330
B0
102
}
330
B0
100
AcDbXrecord
280
     1
102
RTVSPropertyOp0
 70
     1
102
RTVSPropertyOp1
 70
     1
102
RTVSPropertyOp2
 70
     1
102
RTVSPropertyOp3
 70
     1
102
RTVSPropertyOp4
 70
     1
102
RTVSPropertyOp5
 70
     1
102
RTVSPropertyOp6
 70
     1
102
RTVSPropertyOp7
 70
     1
102
RTVSPropertyOp8
 70
     1
102
RTVSPropertyOp9
 70
     1
102
RTVSPropertyOp10
 70
     1
102
RTVSPropertyOp11
 70
     1
102
RTVSPropertyOp12
 70
     1
102
RTVSPropertyOp13
 70
     1
102
RTVSPropertyOp14
 70
     1
102
RTVSPropertyOp15
 70
     1
102
RTVSPropertyOp16
 70
     1
102
RTVSPropertyOp17
 70
     1
102
RTVSPropertyOp18
 70
     1
102
RTVSPropertyOp19
 70
     1
102
RTVSPropertyOp20
 70
     1
102
RTVSPropertyOp21
 70
     1
102
RTVSPropertyOp22
 70
     1
102
RTVSPropertyOp23
 70
     1
102
RTVSPropertyOp24
 70
     1
102
RTVSPropertyOp25
 70
     1
102
RTVSPropertyOp26
 70
     1
102
RTVSPropertyOp27
 70
     1
102
RTVSPropertyOp28
 70
     1
102
RTVSPropertyOp29
 70
     1
102
RTVSPropertyOp30
 70
     1
102
RTVSPropertyOp31
 70
     1
102
RTVSPropertyOp32
 70
     1
  0
XRECORD
  5
B3
102
{ACAD_REACTORS
330
B2
102
}
330
B2
100
AcDbXrecord
280
     1
102
RTVSPropertyOp0
 70
     1
102
RTVSPropertyOp1
 70
     1
102
RTVSPropertyOp2
 70
     1
102
RTVSPropertyOp3
 70
     1
102
RTVSPropertyOp4
 70
     1
102
RTVSPropertyOp5
 70
     1
102
RTVSPropertyOp6
 70
     1
102
RTVSPropertyOp7
 70
     1
102
RTVSPropertyOp8
 70
     1
102
RTVSPropertyOp9
 70
     1
102
RTVSPropertyOp10
 70
     1
102
RTVSPropertyOp11
 70
     1
102
RTVSPropertyOp12
 70
     1
102
RTVSPropertyOp13
 70
     1
102
RTVSPropertyOp14
 70
     1
102
RTVSPropertyOp15
 70
     1
102
RTVSPropertyOp16
 70
     1
102
RTVSPropertyOp17
 70
     1
102
RTVSPropertyOp18
 70
     1
102
RTVSPropertyOp19
 70
     1
102
RTVSPropertyOp20
 70
     1
102
RTVSPropertyOp21
 70
     1
102
RTVSPropertyOp22
 70
     1
102
RTVSPropertyOp23
 70
     1
102
RTVSPropertyOp24
 70
     1
102
RTVSPropertyOp25
 70
     1
102
RTVSPropertyOp26
 70
     1
102
RTVSPropertyOp27
 70
     1
102
RTVSPropertyOp28
 70
     1
102
RTVSPropertyOp29
 70
     1
102
RTVSPropertyOp30
 70
     1
102
RTVSPropertyOp31
 70
     1
102
RTVSPropertyOp32
 70
     1
  0
XRECORD
  5
B5
102
{ACAD_REACTORS
330
B4
102
}
330
B4
100
AcDbXrecord
280
     1
102
RTVSPropertyOp0
 70
     1
102
RTVSPropertyOp1
 70
     1
102
RTVSPropertyOp2
 70
     1
102
RTVSPropertyOp3
 70
     1
102
RTVSPropertyOp4
 70
     1
102
RTVSPropertyOp5
 70
     1
102
RTVSPropertyOp6
 70
     1
102
RTVSPropertyOp7
 70
     1
102
RTVSPropertyOp8
 70
     1
102
RTVSPropertyOp9
 70
     1
102
RTVSPropertyOp10
 70
     1
102
RTVSPropertyOp11
 70
     1
102
RTVSPropertyOp12
 70
     1
102
RTVSPropertyOp13
 70
     1
102
RTVSPropertyOp14
 70
     1
102
RTVSPropertyOp15
 70
     1
102
RTVSPropertyOp16
 70
     1
102
RTVSPropertyOp17
 70
     1
102
RTVSPropertyOp18
 70
     1
102
RTVSPropertyOp19
 70
     1
102
RTVSPropertyOp20
 70
     1
102
RTVSPropertyOp21
 70
     1
102
RTVSPropertyOp22
 70
     1
102
RTVSPropertyOp23
 70
     1
102
RTVSPropertyOp24
 70
     1
102
RTVSPropertyOp25
 70
     1
102
RTVSPropertyOp26
 70
     1
102
RTVSPropertyOp27
 70
     1
102
RTVSPropertyOp28
 70
     1
102
RTVSPropertyOp29
 70
     1
102
RTVSPropertyOp30
 70
     1
102
RTVSPropertyOp31
 70
     1
102
RTVSPropertyOp32
 70
     1
  0
XRECORD
  5
B7
102
{ACAD_REACTORS
330
B6
102
}
330
B6
100
AcDbXrecord
280
     1
102
RTVSPropertyOp0
 70
     1
102
RTVSPropertyOp1
 70
     1
102
RTVSPropertyOp2
 70
     1
102
RTVSPropertyOp3
 70
     1
102
RTVSPropertyOp4
 70
     1
102
RTVSPropertyOp5
 70
     1
102
RTVSPropertyOp6
 70
     1
102
RTVSPropertyOp7
 70
     1
102
RTVSPropertyOp8
 70
     1
102
RTVSPropertyOp9
 70
     1
102
RTVSPropertyOp10
 70
     1
102
RTVSPropertyOp11
 70
     1
102
RTVSPropertyOp12
 70
     1
102
RTVSPropertyOp13
 70
     1
102
RTVSPropertyOp14
 70
     1
102
RTVSPropertyOp15
 70
     1
102
RTVSPropertyOp16
 70
     1
102
RTVSPropertyOp17
 70
     1
102
RTVSPropertyOp18
 70
     1
102
RTVSPropertyOp19
 70
     1
102
RTVSPropertyOp20
 70
     1
102
RTVSPropertyOp21
 70
     1
102
RTVSPropertyOp22
 70
     1
102
RTVSPropertyOp23
 70
     1
102
RTVSPropertyOp24
 70
     1
102
RTVSPropertyOp25
 70
     1
102
RTVSPropertyOp26
 70
     1
102
RTVSPropertyOp27
 70
     1
102
RTVSPropertyOp28
 70
     1
102
RTVSPropertyOp29
 70
     1
102
RTVSPropertyOp30
 70
     1
102
RTVSPropertyOp31
 70
     1
102
RTVSPropertyOp32
 70
     1
  0
XRECORD
  5
CB
102
{ACAD_REACTORS
330
CA
102
}
330
CA
100
AcDbXrecord
280
     1
102
RTVSPropertyOp0
 70
     1
102
RTVSPropertyOp1
 70
     1
102
RTVSPropertyOp2
 70
     1
102
RTVSPropertyOp3
 70
     1
102
RTVSPropertyOp4
 70
     1
102
RTVSPropertyOp5
 70
     1
102
RTVSPropertyOp6
 70
     1
102
RTVSPropertyOp7
 70
     1
102
RTVSPropertyOp8
 70
     1
102
RTVSPropertyOp9
 70
     1
102
RTVSPropertyOp10
 70
     1
102
RTVSPropertyOp11
 70
     1
102
RTVSPropertyOp12
 70
     1
102
RTVSPropertyOp13
 70
     1
102
RTVSPropertyOp14
 70
     1
102
RTVSPropertyOp15
 70
     1
102
RTVSPropertyOp16
 70
     1
102
RTVSPropertyOp17
 70
     1
102
RTVSPropertyOp18
 70
     1
102
RTVSPropertyOp19
 70
     1
102
RTVSPropertyOp20
 70
     1
102
RTVSPropertyOp21
 70
     1
102
RTVSPropertyOp22
 70
     1
102
RTVSPropertyOp23
 70
     1
102
RTVSPropertyOp24
 70
     1
102
RTVSPropertyOp25
 70
     1
102
RTVSPropertyOp26
 70
     1
102
RTVSPropertyOp27
 70
     1
102
RTVSPropertyOp28
 70
     1
102
RTVSPropertyOp29
 70
     1
102
RTVSPropertyOp30
 70
     1
102
RTVSPropertyOp31
 70
     1
102
RTVSPropertyOp32
 70
     1
  0
XRECORD
  5
C1
102
{ACAD_REACTORS
330
C0
102
}
330
C0
100
AcDbXrecord
280
     1
102
RTVSPropertyOp0
 70
     1
102
RTVSPropertyOp1
 70
     1
102
RTVSPropertyOp2
 70
     1
102
RTVSPropertyOp3
 70
     1
102
RTVSPropertyOp4
 70
     1
102
RTVSPropertyOp5
 70
     1
102
RTVSPropertyOp6
 70
     1
102
RTVSPropertyOp7
 70
     1
102
RTVSPropertyOp8
 70
     1
102
RTVSPropertyOp9
 70
     1
102
RTVSPropertyOp10
 70
     1
102
RTVSPropertyOp11
 70
     1
102
RTVSPropertyOp12
 70
     1
102
RTVSPropertyOp13
 70
     1
102
RTVSPropertyOp14
 70
     1
102
RTVSPropertyOp15
 70
     1
102
RTVSPropertyOp16
 70
     1
102
RTVSPropertyOp17
 70
     1
102
RTVSPropertyOp18
 70
     1
102
RTVSPropertyOp19
 70
     1
102
RTVSPropertyOp20
 70
     1
102
RTVSPropertyOp21
 70
     1
102
RTVSPropertyOp22
 70
     1
102
RTVSPropertyOp23
 70
     1
102
RTVSPropertyOp24
 70
     1
102
RTVSPropertyOp25
 70
     1
102
RTVSPropertyOp26
 70
     1
102
RTVSPropertyOp27
 70
     1
102
RTVSPropertyOp28
 70
     1
102
RTVSPropertyOp29
 70
     1
102
RTVSPropertyOp30
 70
     1
102
RTVSPropertyOp31
 70
     1
102
RTVSPropertyOp32
 70
     1
  0
XRECORD
  5
C9
102
{ACAD_REACTORS
330
C8
102
}
330
C8
100
AcDbXrecord
280
     1
102
RTVSPropertyOp0
 70
     1
102
RTVSPropertyOp1
 70
     1
102
RTVSPropertyOp2
 70
     1
102
RTVSPropertyOp3
 70
     1
102
RTVSPropertyOp4
 70
     1
102
RTVSPropertyOp5
 70
     1
102
RTVSPropertyOp6
 70
     1
102
RTVSPropertyOp7
 70
     1
102
RTVSPropertyOp8
 70
     1
102
RTVSPropertyOp9
 70
     1
102
RTVSPropertyOp10
 70
     1
102
RTVSPropertyOp11
 70
     1
102
RTVSPropertyOp12
 70
     1
102
RTVSPropertyOp13
 70
     1
102
RTVSPropertyOp14
 70
     1
102
RTVSPropertyOp15
 70
     1
102
RTVSPropertyOp16
 70
     1
102
RTVSPropertyOp17
 70
     1
102
RTVSPropertyOp18
 70
     1
102
RTVSPropertyOp19
 70
     1
102
RTVSPropertyOp20
 70
     1
102
RTVSPropertyOp21
 70
     1
102
RTVSPropertyOp22
 70
     1
102
RTVSPropertyOp23
 70
     1
102
RTVSPropertyOp24
 70
     1
102
RTVSPropertyOp25
 70
     1
102
RTVSPropertyOp26
 70
     1
102
RTVSPropertyOp27
 70
     1
102
RTVSPropertyOp28
 70
     1
102
RTVSPropertyOp29
 70
     1
102
RTVSPropertyOp30
 70
     1
102
RTVSPropertyOp31
 70
     1
102
RTVSPropertyOp32
 70
     1
  0
ENDSEC
  0
EOF
