  0
SECTION
  2
HEADER
  9
$ACADVER
  1
AC1021
  9
$ACADMAINTVER
 70
     1
  9
$DWGCODEPAGE
  3
ANSI_936
  9
$LASTSAVEDBY
  1
chnn
  9
$INSBASE
 10
0.0
 20
0.0
 30
0.0
  9
$EXTMIN
 10
1098.453164986645
 20
732.4887455828557
 30
0.0
  9
$EXTMAX
 10
2325.75162735534
 20
1389.232678913668
 30
0.0
  9
$LIMMIN
 10
0.0
 20
0.0
  9
$LIMMAX
 10
420.0
 20
297.0
  9
$ORTHOMODE
 70
     1
  9
$REGENMODE
 70
     1
  9
$FILLMODE
 70
     1
  9
$QTEXTMODE
 70
     0
  9
$MIRRTEXT
 70
     0
  9
$LTSCALE
 40
1.0
  9
$ATTMODE
 70
     1
  9
$TEXTSIZE
 40
2.5
  9
$TRACEWID
 40
1.0
  9
$TEXTSTYLE
  7
Standard
  9
$CLAYER
  8
0
  9
$CELTYPE
  6
ByLayer
  9
$CECOLOR
 62
   256
  9
$CELTSCALE
 40
1.0
  9
$DISPSILH
 70
     0
  9
$DIMSCALE
 40
1.0
  9
$DIMASZ
 40
2.5
  9
$DIMEXO
 40
0.625
  9
$DIMDLI
 40
3.75
  9
$DIMRND
 40
0.0
  9
$DIMDLE
 40
0.0
  9
$DIMEXE
 40
1.25
  9
$DIMTP
 40
0.0
  9
$DIMTM
 40
0.0
  9
$DIMTXT
 40
15.0
  9
$DIMCEN
 40
2.5
  9
$DIMTSZ
 40
0.0
  9
$DIMTOL
 70
     0
  9
$DIMLIM
 70
     0
  9
$DIMTIH
 70
     0
  9
$DIMTOH
 70
     0
  9
$DIMSE1
 70
     0
  9
$DIMSE2
 70
     0
  9
$DIMTAD
 70
     1
  9
$DIMZIN
 70
     8
  9
$DIMBLK
  1

  9
$DIMASO
 70
     1
  9
$DIMSHO
 70
     1
  9
$DIMPOST
  1

  9
$DIMAPOST
  1

  9
$DIMALT
 70
     0
  9
$DIMALTD
 70
     3
  9
$DIMALTF
 40
0.03937007874016
  9
$DIMLFAC
 40
1.0
  9
$DIMTOFL
 70
     1
  9
$DIMTVP
 40
0.0
  9
$DIMTIX
 70
     0
  9
$DIMSOXD
 70
     0
  9
$DIMSAH
 70
     0
  9
$DIMBLK1
  1

  9
$DIMBLK2
  1

  9
$DIMSTYLE
  2
ISO-25
  9
$DIMCLRD
 70
     0
  9
$DIMCLRE
 70
     0
  9
$DIMCLRT
 70
     0
  9
$DIMTFAC
 40
1.0
  9
$DIMGAP
 40
0.625
  9
$DIMJUST
 70
     0
  9
$DIMSD1
 70
     0
  9
$DIMSD2
 70
     0
  9
$DIMTOLJ
 70
     0
  9
$DIMTZIN
 70
     8
  9
$DIMALTZ
 70
     0
  9
$DIMALTTZ
 70
     0
  9
$DIMUPT
 70
     0
  9
$DIMDEC
 70
     1
  9
$DIMTDEC
 70
     1
  9
$DIMALTU
 70
     2
  9
$DIMALTTD
 70
     3
  9
$DIMTXSTY
  7
Standard
  9
$DIMAUNIT
 70
     0
  9
$DIMADEC
 70
     0
  9
$DIMALTRND
 40
0.0
  9
$DIMAZIN
 70
     0
  9
$DIMDSEP
 70
    44
  9
$DIMATFIT
 70
     3
  9
$DIMFRAC
 70
     0
  9
$DIMLDRBLK
  1

  9
$DIMLUNIT
 70
     2
  9
$DIMLWD
 70
    -2
  9
$DIMLWE
 70
    -2
  9
$DIMTMOVE
 70
     0
  9
$DIMFXL
 40
1.0
  9
$DIMFXLON
 70
     0
  9
$DIMJOGANG
 40
0.7853981633974483
  9
$DIMTFILL
 70
     0
  9
$DIMTFILLCLR
 70
     0
  9
$DIMARCSYM
 70
     0
  9
$DIMLTYPE
  6

  9
$DIMLTEX1
  6

  9
$DIMLTEX2
  6

  9
$LUNITS
 70
     2
  9
$LUPREC
 70
     4
  9
$SKETCHINC
 40
1.0
  9
$FILLETRAD
 40
0.0
  9
$AUNITS
 70
     0
  9
$AUPREC
 70
     0
  9
$MENU
  1
.
  9
$ELEVATION
 40
0.0
  9
$PELEVATION
 40
0.0
  9
$THICKNESS
 40
0.0
  9
$LIMCHECK
 70
     0
  9
$CHAMFERA
 40
0.0
  9
$CHAMFERB
 40
0.0
  9
$CHAMFERC
 40
0.0
  9
$CHAMFERD
 40
0.0
  9
$SKPOLY
 70
     0
  9
$TDCREATE
 40
2457564.706565694
  9
$TDUCREATE
 40
2457564.373232361
  9
$TDUPDATE
 40
2457688.701682882
  9
$TDUUPDATE
 40
2457688.368349549
  9
$TDINDWG
 40
0.0395824190
  9
$TDUSRTIMER
 40
0.0395804977
  9
$USRTIMER
 70
     1
  9
$ANGBASE
 50
0.0
  9
$ANGDIR
 70
     0
  9
$PDMODE
 70
     0
  9
$PDSIZE
 40
0.0
  9
$PLINEWID
 40
0.0
  9
$SPLFRAME
 70
     0
  9
$SPLINETYPE
 70
     6
  9
$SPLINESEGS
 70
     8
  9
$HANDSEED
  5
1541
  9
$SURFTAB1
 70
     6
  9
$SURFTAB2
 70
     6
  9
$SURFTYPE
 70
     6
  9
$SURFU
 70
     6
  9
$SURFV
 70
     6
  9
$UCSBASE
  2

  9
$UCSNAME
  2

  9
$UCSORG
 10
0.0
 20
0.0
 30
0.0
  9
$UCSXDIR
 10
1.0
 20
0.0
 30
0.0
  9
$UCSYDIR
 10
0.0
 20
1.0
 30
0.0
  9
$UCSORTHOREF
  2

  9
$UCSORTHOVIEW
 70
     0
  9
$UCSORGTOP
 10
0.0
 20
0.0
 30
0.0
  9
$UCSORGBOTTOM
 10
0.0
 20
0.0
 30
0.0
  9
$UCSORGLEFT
 10
0.0
 20
0.0
 30
0.0
  9
$UCSORGRIGHT
 10
0.0
 20
0.0
 30
0.0
  9
$UCSORGFRONT
 10
0.0
 20
0.0
 30
0.0
  9
$UCSORGBACK
 10
0.0
 20
0.0
 30
0.0
  9
$PUCSBASE
  2

  9
$PUCSNAME
  2

  9
$PUCSORG
 10
0.0
 20
0.0
 30
0.0
  9
$PUCSXDIR
 10
1.0
 20
0.0
 30
0.0
  9
$PUCSYDIR
 10
0.0
 20
1.0
 30
0.0
  9
$PUCSORTHOREF
  2

  9
$PUCSORTHOVIEW
 70
     0
  9
$PUCSORGTOP
 10
0.0
 20
0.0
 30
0.0
  9
$PUCSORGBOTTOM
 10
0.0
 20
0.0
 30
0.0
  9
$PUCSORGLEFT
 10
0.0
 20
0.0
 30
0.0
  9
$PUCSORGRIGHT
 10
0.0
 20
0.0
 30
0.0
  9
$PUCSORGFRONT
 10
0.0
 20
0.0
 30
0.0
  9
$PUCSORGBACK
 10
0.0
 20
0.0
 30
0.0
  9
$USERI1
 70
     0
  9
$USERI2
 70
     0
  9
$USERI3
 70
     0
  9
$USERI4
 70
     0
  9
$USERI5
 70
     0
  9
$USERR1
 40
0.0
  9
$USERR2
 40
0.0
  9
$USERR3
 40
0.0
  9
$USERR4
 40
0.0
  9
$USERR5
 40
0.0
  9
$WORLDVIEW
 70
     1
  9
$SHADEDGE
 70
     3
  9
$SHADEDIF
 70
    70
  9
$TILEMODE
 70
     1
  9
$MAXACTVP
 70
    64
  9
$PINSBASE
 10
0.0
 20
0.0
 30
0.0
  9
$PLIMCHECK
 70
     0
  9
$PEXTMIN
 10
0.0
 20
0.0
 30
0.0
  9
$PEXTMAX
 10
0.0
 20
0.0
 30
0.0
  9
$PLIMMIN
 10
0.0
 20
0.0
  9
$PLIMMAX
 10
12.0
 20
9.0
  9
$UNITMODE
 70
     0
  9
$VISRETAIN
 70
     1
  9
$PLINEGEN
 70
     0
  9
$PSLTSCALE
 70
     1
  9
$TREEDEPTH
 70
  3020
  9
$CMLSTYLE
  2
Standard
  9
$CMLJUST
 70
     0
  9
$CMLSCALE
 40
20.0
  9
$PROXYGRAPHICS
 70
     1
  9
$MEASUREMENT
 70
     1
  9
$CELWEIGHT
370
    -1
  9
$ENDCAPS
280
     0
  9
$JOINSTYLE
280
     0
  9
$LWDISPLAY
290
     0
  9
$INSUNITS
 70
     4
  9
$HYPERLINKBASE
  1

  9
$STYLESHEET
  1

  9
$XEDIT
290
     1
  9
$CEPSNTYPE
380
     0
  9
$PSTYLEMODE
290
     1
  9
$FINGERPRINTGUID
  2
{B073D142-340E-4F07-94E9-008DE8CD61BD}
  9
$VERSIONGUID
  2
{3DDD4949-A010-47F7-A1A3-4D2413A9DD1D}
  9
$EXTNAMES
290
     1
  9
$PSVPSCALE
 40
0.0
  9
$OLESTARTUP
290
     0
  9
$SORTENTS
280
   127
  9
$INDEXCTL
280
     0
  9
$HIDETEXT
280
     1
  9
$XCLIPFRAME
290
     0
  9
$HALOGAP
280
     0
  9
$OBSCOLOR
 70
   257
  9
$OBSLTYPE
280
     0
  9
$INTERSECTIONDISPLAY
280
     0
  9
$INTERSECTIONCOLOR
 70
   257
  9
$DIMASSOC
280
     2
  9
$PROJECTNAME
  1

  9
$CAMERADISPLAY
290
     0
  9
$LENSLENGTH
 40
50.0
  9
$CAMERAHEIGHT
 40
0.0
  9
$STEPSPERSEC
 40
2.0
  9
$STEPSIZE
 40
6.0
  9
$3DDWFPREC
 40
2.0
  9
$PSOLWIDTH
 40
5.0
  9
$PSOLHEIGHT
 40
80.0
  9
$LOFTANG1
 40
1.570796326794896
  9
$LOFTANG2
 40
1.570796326794896
  9
$LOFTMAG1
 40
0.0
  9
$LOFTMAG2
 40
0.0
  9
$LOFTPARAM
 70
     7
  9
$LOFTNORMALS
280
     1
  9
$LATITUDE
 40
37.795
  9
$LONGITUDE
 40
-122.394
  9
$NORTHDIRECTION
 40
0.0
  9
$TIMEZONE
 70
 -8000
  9
$LIGHTGLYPHDISPLAY
280
     1
  9
$TILEMODELIGHTSYNCH
280
     1
  9
$CMATERIAL
347
ED
  9
$SOLIDHIST
280
     1
  9
$SHOWHIST
280
     1
  9
$DWFFRAME
280
     2
  9
$DGNFRAME
280
     0
  9
$REALWORLDSCALE
290
     1
  9
$INTERFERECOLOR
 62
     1
  9
$INTERFEREOBJVS
345
FA
  9
$INTERFEREVPVS
346
F7
  9
$CSHADOW
280
     0
  9
$SHADOWPLANELOCATION
 40
0.0
  0
ENDSEC
  0
SECTION
  2
CLASSES
  0
CLASS
  1
ACDBDICTIONARYWDFLT
  2
AcDbDictionaryWithDefault
  3
ObjectDBX Classes
 90
        0
 91
        1
280
     0
281
     0
  0
CLASS
  1
DICTIONARYVAR
  2
AcDbDictionaryVar
  3
ObjectDBX Classes
 90
        0
 91
        3
280
     0
281
     0
  0
CLASS
  1
TABLESTYLE
  2
AcDbTableStyle
  3
ObjectDBX Classes
 90
     4095
 91
        1
280
     0
281
     0
  0
CLASS
  1
MATERIAL
  2
AcDbMaterial
  3
ObjectDBX Classes
 90
     1024
 91
        3
280
     0
281
     0
  0
CLASS
  1
VISUALSTYLE
  2
AcDbVisualStyle
  3
ObjectDBX Classes
 90
     4095
 91
       16
280
     0
281
     0
  0
CLASS
  1
DIMASSOC
  2
AcDbDimAssoc
  3
"AcDbDimAssoc|Product Desc:     AcDim ARX App For Dimension|Company:          Autodesk, Inc.|WEB Address:      www.autodesk.com"
 90
        0
 91
       10
280
     0
281
     0
  0
CLASS
  1
SORTENTSTABLE
  2
AcDbSortentsTable
  3
ObjectDBX Classes
 90
        0
 91
        1
280
     0
281
     0
  0
ENDSEC
  0
SECTION
  2
TABLES
  0
TABLE
  2
VPORT
  5
8
330
0
100
AcDbSymbolTable
 70
     1
  0
VPORT
  5
EB
330
8
100
AcDbSymbolTableRecord
100
AcDbViewportTableRecord
  2
*Active
 70
     0
 10
0.0
 20
0.0
 11
1.0
 21
1.0
 12
1888.845246206969
 22
1005.918648437884
 13
0.0
 23
0.0
 14
10.0
 24
10.0
 15
10.0
 25
10.0
 16
0.0
 26
0.0
 36
1.0
 17
0.0
 27
0.0
 37
0.0
 40
805.4597802140264
 41
2.223150357995226
 42
50.0
 43
0.0
 44
0.0
 50
0.0
 51
0.0
 71
     0
 72
  1000
 73
     1
 74
     3
 75
     0
 76
     0
 77
     0
 78
     0
281
     0
 65
     1
110
0.0
120
0.0
130
0.0
111
1.0
121
0.0
131
0.0
112
0.0
122
1.0
132
0.0
 79
     0
146
0.0
348
F6
 60
     2
 61
     5
292
     1
282
     1
141
0.0
142
0.0
 63
   250
421
  3355443
  0
ENDTAB
  0
TABLE
  2
LTYPE
  5
5
330
0
100
AcDbSymbolTable
 70
     1
  0
LTYPE
  5
14
330
5
100
AcDbSymbolTableRecord
100
AcDbLinetypeTableRecord
  2
ByBlock
 70
     0
  3

 72
    65
 73
     0
 40
0.0
  0
LTYPE
  5
15
330
5
100
AcDbSymbolTableRecord
100
AcDbLinetypeTableRecord
  2
ByLayer
 70
     0
  3

 72
    65
 73
     0
 40
0.0
  0
LTYPE
  5
16
330
5
100
AcDbSymbolTableRecord
100
AcDbLinetypeTableRecord
  2
Continuous
 70
     0
  3
Solid line
 72
    65
 73
     0
 40
0.0
  0
ENDTAB
  0
TABLE
  2
LAYER
  5
2
330
0
100
AcDbSymbolTable
 70
     3
  0
LAYER
  5
10
330
2
100
AcDbSymbolTableRecord
100
AcDbLayerTableRecord
  2
0
 70
     0
 62
     7
  6
Continuous
370
    -3
390
F
347
EF
  0
LAYER
  5
303
330
2
100
AcDbSymbolTableRecord
100
AcDbLayerTableRecord
  2
Defpoints
 70
     0
 62
     7
  6
Continuous
290
     0
370
    -3
390
F
347
EF
  0
LAYER
  5
A7E
330
2
100
AcDbSymbolTableRecord
100
AcDbLayerTableRecord
  2
_U+56FE_U+5C42 1
 70
     0
 62
     1
  6
Continuous
370
    -3
390
F
347
EF
  0
ENDTAB
  0
TABLE
  2
STYLE
  5
3
330
0
100
AcDbSymbolTable
 70
     1
  0
STYLE
  5
11
330
3
100
AcDbSymbolTableRecord
100
AcDbTextStyleTableRecord
  2
Standard
 70
     0
 40
0.0
 41
1.0
 50
0.0
 71
     0
 42
2.5
  3
txt
  4
gbcbig.shx
  0
ENDTAB
  0
TABLE
  2
VIEW
  5
6
330
0
100
AcDbSymbolTable
 70
     0
  0
ENDTAB
  0
TABLE
  2
UCS
  5
7
330
0
100
AcDbSymbolTable
 70
     0
  0
ENDTAB
  0
TABLE
  2
APPID
  5
9
330
0
100
AcDbSymbolTable
 70
     3
  0
APPID
  5
12
330
9
100
AcDbSymbolTableRecord
100
AcDbRegAppTableRecord
  2
ACAD
 70
     0
  0
APPID
  5
9E
330
9
100
AcDbSymbolTableRecord
100
AcDbRegAppTableRecord
  2
ACAD_PSEXT
 70
     0
  0
APPID
  5
12C6
330
9
100
AcDbSymbolTableRecord
100
AcDbRegAppTableRecord
  2
ACAD_EXEMPT_FROM_CAD_STANDARDS
 70
     0
  0
ENDTAB
  0
TABLE
  2
DIMSTYLE
  5
A
330
0
100
AcDbSymbolTable
 70
     2
100
AcDbDimStyleTable
 71
     1
340
27
  0
DIMSTYLE
105
27
102
{ACAD_REACTORS
330
1451
330
1469
330
1481
330
1499
330
14B1
330
14C9
330
14E1
330
14F9
330
1511
330
1529
102
}
330
A
100
AcDbSymbolTableRecord
100
AcDbDimStyleTableRecord
  2
ISO-25
 70
     0
 41
2.5
 42
0.625
 43
3.75
 44
1.25
 73
     0
 74
     0
 77
     1
 78
     8
140
15.0
141
2.5
143
0.03937007874016
147
0.625
171
     3
172
     1
271
     1
272
     1
274
     3
278
    44
283
     0
284
     8
340
11
  0
DIMSTYLE
105
A7F
330
A
100
AcDbSymbolTableRecord
100
AcDbDimStyleTableRecord
  2
Standard
 70
     0
140
15.0
271
     1
272
     1
340
11
  0
ENDTAB
  0
TABLE
  2
BLOCK_RECORD
  5
1
330
0
100
AcDbSymbolTable
 70
   119
  0
BLOCK_RECORD
  5
1F
102
{ACAD_XDICTIONARY
360
BB2
102
}
330
1
100
AcDbSymbolTableRecord
100
AcDbBlockTableRecord
  2
*Model_Space
340
22
 70
     0
280
     1
281
     0
  0
BLOCK_RECORD
  5
D2
330
1
100
AcDbSymbolTableRecord
100
AcDbBlockTableRecord
  2
*Paper_Space
340
D3
 70
     0
280
     1
281
     0
  0
BLOCK_RECORD
  5
D6
330
1
100
AcDbSymbolTableRecord
100
AcDbBlockTableRecord
  2
*Paper_Space0
340
D7
 70
     0
280
     1
281
     0
  0
BLOCK_RECORD
  5
123
330
1
100
AcDbSymbolTableRecord
100
AcDbBlockTableRecord
  2
*D1
340
0
 70
     0
280
     1
281
     0
  0
BLOCK_RECORD
  5
12F
330
1
100
AcDbSymbolTableRecord
100
AcDbBlockTableRecord
  2
*D2
340
0
 70
     0
280
     1
281
     0
  0
BLOCK_RECORD
  5
13B
330
1
100
AcDbSymbolTableRecord
100
AcDbBlockTableRecord
  2
*D3
340
0
 70
     0
280
     1
281
     0
  0
BLOCK_RECORD
  5
147
330
1
100
AcDbSymbolTableRecord
100
AcDbBlockTableRecord
  2
*D4
340
0
 70
     0
280
     1
281
     0
  0
BLOCK_RECORD
  5
153
330
1
100
AcDbSymbolTableRecord
100
AcDbBlockTableRecord
  2
*D5
340
0
 70
     0
280
     1
281
     0
  0
BLOCK_RECORD
  5
15F
330
1
100
AcDbSymbolTableRecord
100
AcDbBlockTableRecord
  2
*D6
340
0
 70
     0
280
     1
281
     0
  0
BLOCK_RECORD
  5
16B
330
1
100
AcDbSymbolTableRecord
100
AcDbBlockTableRecord
  2
*D7
340
0
 70
     0
280
     1
281
     0
  0
BLOCK_RECORD
  5
177
330
1
100
AcDbSymbolTableRecord
100
AcDbBlockTableRecord
  2
*D8
340
0
 70
     0
280
     1
281
     0
  0
BLOCK_RECORD
  5
183
330
1
100
AcDbSymbolTableRecord
100
AcDbBlockTableRecord
  2
*D9
340
0
 70
     0
280
     1
281
     0
  0
BLOCK_RECORD
  5
18F
330
1
100
AcDbSymbolTableRecord
100
AcDbBlockTableRecord
  2
*D10
340
0
 70
     0
280
     1
281
     0
  0
BLOCK_RECORD
  5
19B
330
1
100
AcDbSymbolTableRecord
100
AcDbBlockTableRecord
  2
*D11
340
0
 70
     0
280
     1
281
     0
  0
BLOCK_RECORD
  5
1A7
330
1
100
AcDbSymbolTableRecord
100
AcDbBlockTableRecord
  2
*D12
340
0
 70
     0
280
     1
281
     0
  0
BLOCK_RECORD
  5
1B3
330
1
100
AcDbSymbolTableRecord
100
AcDbBlockTableRecord
  2
*D13
340
0
 70
     0
280
     1
281
     0
  0
BLOCK_RECORD
  5
1BF
330
1
100
AcDbSymbolTableRecord
100
AcDbBlockTableRecord
  2
*D14
340
0
 70
     0
280
     1
281
     0
  0
BLOCK_RECORD
  5
1CB
330
1
100
AcDbSymbolTableRecord
100
AcDbBlockTableRecord
  2
*D15
340
0
 70
     0
280
     1
281
     0
  0
BLOCK_RECORD
  5
1D7
330
1
100
AcDbSymbolTableRecord
100
AcDbBlockTableRecord
  2
*D16
340
0
 70
     0
280
     1
281
     0
  0
BLOCK_RECORD
  5
1E3
330
1
100
AcDbSymbolTableRecord
100
AcDbBlockTableRecord
  2
*D17
340
0
 70
     0
280
     1
281
     0
  0
BLOCK_RECORD
  5
1EF
330
1
100
AcDbSymbolTableRecord
100
AcDbBlockTableRecord
  2
*D18
340
0
 70
     0
280
     1
281
     0
  0
BLOCK_RECORD
  5
1FB
330
1
100
AcDbSymbolTableRecord
100
AcDbBlockTableRecord
  2
*D19
340
0
 70
     0
280
     1
281
     0
  0
BLOCK_RECORD
  5
207
330
1
100
AcDbSymbolTableRecord
100
AcDbBlockTableRecord
  2
*D20
340
0
 70
     0
280
     1
281
     0
  0
BLOCK_RECORD
  5
213
330
1
100
AcDbSymbolTableRecord
100
AcDbBlockTableRecord
  2
*D21
340
0
 70
     0
280
     1
281
     0
  0
BLOCK_RECORD
  5
21F
330
1
100
AcDbSymbolTableRecord
100
AcDbBlockTableRecord
  2
*D22
340
0
 70
     0
280
     1
281
     0
  0
BLOCK_RECORD
  5
22B
330
1
100
AcDbSymbolTableRecord
100
AcDbBlockTableRecord
  2
*D23
340
0
 70
     0
280
     1
281
     0
  0
BLOCK_RECORD
  5
237
330
1
100
AcDbSymbolTableRecord
100
AcDbBlockTableRecord
  2
*D24
340
0
 70
     0
280
     1
281
     0
  0
BLOCK_RECORD
  5
243
330
1
100
AcDbSymbolTableRecord
100
AcDbBlockTableRecord
  2
*D25
340
0
 70
     0
280
     1
281
     0
  0
BLOCK_RECORD
  5
24F
330
1
100
AcDbSymbolTableRecord
100
AcDbBlockTableRecord
  2
*D26
340
0
 70
     0
280
     1
281
     0
  0
BLOCK_RECORD
  5
25B
330
1
100
AcDbSymbolTableRecord
100
AcDbBlockTableRecord
  2
*D27
340
0
 70
     0
280
     1
281
     0
  0
BLOCK_RECORD
  5
267
330
1
100
AcDbSymbolTableRecord
100
AcDbBlockTableRecord
  2
*D28
340
0
 70
     0
280
     1
281
     0
  0
BLOCK_RECORD
  5
273
330
1
100
AcDbSymbolTableRecord
100
AcDbBlockTableRecord
  2
*D29
340
0
 70
     0
280
     1
281
     0
  0
BLOCK_RECORD
  5
27F
330
1
100
AcDbSymbolTableRecord
100
AcDbBlockTableRecord
  2
*D30
340
0
 70
     0
280
     1
281
     0
  0
BLOCK_RECORD
  5
28B
330
1
100
AcDbSymbolTableRecord
100
AcDbBlockTableRecord
  2
*D31
340
0
 70
     0
280
     1
281
     0
  0
BLOCK_RECORD
  5
297
330
1
100
AcDbSymbolTableRecord
100
AcDbBlockTableRecord
  2
*D32
340
0
 70
     0
280
     1
281
     0
  0
BLOCK_RECORD
  5
2A3
330
1
100
AcDbSymbolTableRecord
100
AcDbBlockTableRecord
  2
*D33
340
0
 70
     0
280
     1
281
     0
  0
BLOCK_RECORD
  5
2AF
330
1
100
AcDbSymbolTableRecord
100
AcDbBlockTableRecord
  2
*D34
340
0
 70
     0
280
     1
281
     0
  0
BLOCK_RECORD
  5
2BB
330
1
100
AcDbSymbolTableRecord
100
AcDbBlockTableRecord
  2
*D35
340
0
 70
     0
280
     1
281
     0
  0
BLOCK_RECORD
  5
2C7
330
1
100
AcDbSymbolTableRecord
100
AcDbBlockTableRecord
  2
*D36
340
0
 70
     0
280
     1
281
     0
  0
BLOCK_RECORD
  5
2D3
330
1
100
AcDbSymbolTableRecord
100
AcDbBlockTableRecord
  2
*D37
340
0
 70
     0
280
     1
281
     0
  0
BLOCK_RECORD
  5
2DF
330
1
100
AcDbSymbolTableRecord
100
AcDbBlockTableRecord
  2
*D38
340
0
 70
     0
280
     1
281
     0
  0
BLOCK_RECORD
  5
2EB
330
1
100
AcDbSymbolTableRecord
100
AcDbBlockTableRecord
  2
*D39
340
0
 70
     0
280
     1
281
     0
  0
BLOCK_RECORD
  5
2F7
330
1
100
AcDbSymbolTableRecord
100
AcDbBlockTableRecord
  2
*D40
340
0
 70
     0
280
     1
281
     0
  0
BLOCK_RECORD
  5
7AA
330
1
100
AcDbSymbolTableRecord
100
AcDbBlockTableRecord
  2
*D41
340
0
 70
     0
280
     1
281
     0
  0
BLOCK_RECORD
  5
7B6
330
1
100
AcDbSymbolTableRecord
100
AcDbBlockTableRecord
  2
*D42
340
0
 70
     0
280
     1
281
     0
  0
BLOCK_RECORD
  5
7C2
330
1
100
AcDbSymbolTableRecord
100
AcDbBlockTableRecord
  2
*D43
340
0
 70
     0
280
     1
281
     0
  0
BLOCK_RECORD
  5
7CE
330
1
100
AcDbSymbolTableRecord
100
AcDbBlockTableRecord
  2
*D44
340
0
 70
     0
280
     1
281
     0
  0
BLOCK_RECORD
  5
7DA
330
1
100
AcDbSymbolTableRecord
100
AcDbBlockTableRecord
  2
*D45
340
0
 70
     0
280
     1
281
     0
  0
BLOCK_RECORD
  5
7E6
330
1
100
AcDbSymbolTableRecord
100
AcDbBlockTableRecord
  2
*D46
340
0
 70
     0
280
     1
281
     0
  0
BLOCK_RECORD
  5
7F2
330
1
100
AcDbSymbolTableRecord
100
AcDbBlockTableRecord
  2
*D47
340
0
 70
     0
280
     1
281
     0
  0
BLOCK_RECORD
  5
7FE
330
1
100
AcDbSymbolTableRecord
100
AcDbBlockTableRecord
  2
*D48
340
0
 70
     0
280
     1
281
     0
  0
BLOCK_RECORD
  5
80A
330
1
100
AcDbSymbolTableRecord
100
AcDbBlockTableRecord
  2
*D49
340
0
 70
     0
280
     1
281
     0
  0
BLOCK_RECORD
  5
816
330
1
100
AcDbSymbolTableRecord
100
AcDbBlockTableRecord
  2
*D50
340
0
 70
     0
280
     1
281
     0
  0
BLOCK_RECORD
  5
822
330
1
100
AcDbSymbolTableRecord
100
AcDbBlockTableRecord
  2
*D51
340
0
 70
     0
280
     1
281
     0
  0
BLOCK_RECORD
  5
82E
330
1
100
AcDbSymbolTableRecord
100
AcDbBlockTableRecord
  2
*D52
340
0
 70
     0
280
     1
281
     0
  0
BLOCK_RECORD
  5
83A
330
1
100
AcDbSymbolTableRecord
100
AcDbBlockTableRecord
  2
*D53
340
0
 70
     0
280
     1
281
     0
  0
BLOCK_RECORD
  5
846
330
1
100
AcDbSymbolTableRecord
100
AcDbBlockTableRecord
  2
*D54
340
0
 70
     0
280
     1
281
     0
  0
BLOCK_RECORD
  5
852
330
1
100
AcDbSymbolTableRecord
100
AcDbBlockTableRecord
  2
*D55
340
0
 70
     0
280
     1
281
     0
  0
BLOCK_RECORD
  5
85E
330
1
100
AcDbSymbolTableRecord
100
AcDbBlockTableRecord
  2
*D56
340
0
 70
     0
280
     1
281
     0
  0
BLOCK_RECORD
  5
86A
330
1
100
AcDbSymbolTableRecord
100
AcDbBlockTableRecord
  2
*D57
340
0
 70
     0
280
     1
281
     0
  0
BLOCK_RECORD
  5
876
330
1
100
AcDbSymbolTableRecord
100
AcDbBlockTableRecord
  2
*D58
340
0
 70
     0
280
     1
281
     0
  0
BLOCK_RECORD
  5
882
330
1
100
AcDbSymbolTableRecord
100
AcDbBlockTableRecord
  2
*D59
340
0
 70
     0
280
     1
281
     0
  0
BLOCK_RECORD
  5
88E
330
1
100
AcDbSymbolTableRecord
100
AcDbBlockTableRecord
  2
*D60
340
0
 70
     0
280
     1
281
     0
  0
BLOCK_RECORD
  5
89A
330
1
100
AcDbSymbolTableRecord
100
AcDbBlockTableRecord
  2
*D61
340
0
 70
     0
280
     1
281
     0
  0
BLOCK_RECORD
  5
8A6
330
1
100
AcDbSymbolTableRecord
100
AcDbBlockTableRecord
  2
*D62
340
0
 70
     0
280
     1
281
     0
  0
BLOCK_RECORD
  5
8B2
330
1
100
AcDbSymbolTableRecord
100
AcDbBlockTableRecord
  2
*D63
340
0
 70
     0
280
     1
281
     0
  0
BLOCK_RECORD
  5
8BE
330
1
100
AcDbSymbolTableRecord
100
AcDbBlockTableRecord
  2
*D64
340
0
 70
     0
280
     1
281
     0
  0
BLOCK_RECORD
  5
8CA
330
1
100
AcDbSymbolTableRecord
100
AcDbBlockTableRecord
  2
*D65
340
0
 70
     0
280
     1
281
     0
  0
BLOCK_RECORD
  5
8D6
330
1
100
AcDbSymbolTableRecord
100
AcDbBlockTableRecord
  2
*D66
340
0
 70
     0
280
     1
281
     0
  0
BLOCK_RECORD
  5
8E2
330
1
100
AcDbSymbolTableRecord
100
AcDbBlockTableRecord
  2
*D67
340
0
 70
     0
280
     1
281
     0
  0
BLOCK_RECORD
  5
8EE
330
1
100
AcDbSymbolTableRecord
100
AcDbBlockTableRecord
  2
*D68
340
0
 70
     0
280
     1
281
     0
  0
BLOCK_RECORD
  5
8FA
330
1
100
AcDbSymbolTableRecord
100
AcDbBlockTableRecord
  2
*D69
340
0
 70
     0
280
     1
281
     0
  0
BLOCK_RECORD
  5
906
330
1
100
AcDbSymbolTableRecord
100
AcDbBlockTableRecord
  2
*D70
340
0
 70
     0
280
     1
281
     0
  0
BLOCK_RECORD
  5
912
330
1
100
AcDbSymbolTableRecord
100
AcDbBlockTableRecord
  2
*D71
340
0
 70
     0
280
     1
281
     0
  0
BLOCK_RECORD
  5
91E
330
1
100
AcDbSymbolTableRecord
100
AcDbBlockTableRecord
  2
*D72
340
0
 70
     0
280
     1
281
     0
  0
BLOCK_RECORD
  5
92A
330
1
100
AcDbSymbolTableRecord
100
AcDbBlockTableRecord
  2
*D73
340
0
 70
     0
280
     1
281
     0
  0
BLOCK_RECORD
  5
936
330
1
100
AcDbSymbolTableRecord
100
AcDbBlockTableRecord
  2
*D74
340
0
 70
     0
280
     1
281
     0
  0
BLOCK_RECORD
  5
942
330
1
100
AcDbSymbolTableRecord
100
AcDbBlockTableRecord
  2
*D75
340
0
 70
     0
280
     1
281
     0
  0
BLOCK_RECORD
  5
94E
330
1
100
AcDbSymbolTableRecord
100
AcDbBlockTableRecord
  2
*D76
340
0
 70
     0
280
     1
281
     0
  0
BLOCK_RECORD
  5
95A
330
1
100
AcDbSymbolTableRecord
100
AcDbBlockTableRecord
  2
*D77
340
0
 70
     0
280
     1
281
     0
  0
BLOCK_RECORD
  5
966
330
1
100
AcDbSymbolTableRecord
100
AcDbBlockTableRecord
  2
*D78
340
0
 70
     0
280
     1
281
     0
  0
BLOCK_RECORD
  5
972
330
1
100
AcDbSymbolTableRecord
100
AcDbBlockTableRecord
  2
*D79
340
0
 70
     0
280
     1
281
     0
  0
BLOCK_RECORD
  5
97E
330
1
100
AcDbSymbolTableRecord
100
AcDbBlockTableRecord
  2
*D80
340
0
 70
     0
280
     1
281
     0
  0
BLOCK_RECORD
  5
A64
330
1
100
AcDbSymbolTableRecord
100
AcDbBlockTableRecord
  2
*D81
340
0
 70
     0
280
     1
281
     0
  0
BLOCK_RECORD
  5
A71
330
1
100
AcDbSymbolTableRecord
100
AcDbBlockTableRecord
  2
*D82
340
0
 70
     0
280
     1
281
     0
  0
BLOCK_RECORD
  5
B20
330
1
100
AcDbSymbolTableRecord
100
AcDbBlockTableRecord
  2
*D83
340
0
 70
     0
280
     1
281
     0
  0
BLOCK_RECORD
  5
B2D
330
1
100
AcDbSymbolTableRecord
100
AcDbBlockTableRecord
  2
*D84
340
0
 70
     0
280
     1
281
     0
  0
BLOCK_RECORD
  5
B40
330
1
100
AcDbSymbolTableRecord
100
AcDbBlockTableRecord
  2
*D85
340
0
 70
     0
280
     1
281
     0
  0
BLOCK_RECORD
  5
BD3
330
1
100
AcDbSymbolTableRecord
100
AcDbBlockTableRecord
  2
*D86
340
0
 70
     0
280
     1
281
     0
  0
BLOCK_RECORD
  5
BE0
330
1
100
AcDbSymbolTableRecord
100
AcDbBlockTableRecord
  2
*D87
340
0
 70
     0
280
     1
281
     0
  0
BLOCK_RECORD
  5
CC1
330
1
100
AcDbSymbolTableRecord
100
AcDbBlockTableRecord
  2
*D88
340
0
 70
     0
280
     1
281
     0
  0
BLOCK_RECORD
  5
CCE
330
1
100
AcDbSymbolTableRecord
100
AcDbBlockTableRecord
  2
*D89
340
0
 70
     0
280
     1
281
     0
  0
BLOCK_RECORD
  5
D04
330
1
100
AcDbSymbolTableRecord
100
AcDbBlockTableRecord
  2
*D90
340
0
 70
     0
280
     1
281
     0
  0
BLOCK_RECORD
  5
D1E
330
1
100
AcDbSymbolTableRecord
100
AcDbBlockTableRecord
  2
*D91
340
0
 70
     0
280
     1
281
     0
  0
BLOCK_RECORD
  5
D38
330
1
100
AcDbSymbolTableRecord
100
AcDbBlockTableRecord
  2
*D92
340
0
 70
     0
280
     1
281
     0
  0
BLOCK_RECORD
  5
D52
330
1
100
AcDbSymbolTableRecord
100
AcDbBlockTableRecord
  2
*D93
340
0
 70
     0
280
     1
281
     0
  0
BLOCK_RECORD
  5
D80
330
1
100
AcDbSymbolTableRecord
100
AcDbBlockTableRecord
  2
*D94
340
0
 70
     0
280
     1
281
     0
  0
BLOCK_RECORD
  5
D9A
330
1
100
AcDbSymbolTableRecord
100
AcDbBlockTableRecord
  2
*D95
340
0
 70
     0
280
     1
281
     0
  0
BLOCK_RECORD
  5
DB4
330
1
100
AcDbSymbolTableRecord
100
AcDbBlockTableRecord
  2
*D96
340
0
 70
     0
280
     1
281
     0
  0
BLOCK_RECORD
  5
DE1
330
1
100
AcDbSymbolTableRecord
100
AcDbBlockTableRecord
  2
*D97
340
0
 70
     0
280
     1
281
     0
  0
BLOCK_RECORD
  5
DFB
330
1
100
AcDbSymbolTableRecord
100
AcDbBlockTableRecord
  2
*D98
340
0
 70
     0
280
     1
281
     0
  0
BLOCK_RECORD
  5
E27
330
1
100
AcDbSymbolTableRecord
100
AcDbBlockTableRecord
  2
*D99
340
0
 70
     0
280
     1
281
     0
  0
BLOCK_RECORD
  5
E41
330
1
100
AcDbSymbolTableRecord
100
AcDbBlockTableRecord
  2
*D100
340
0
 70
     0
280
     1
281
     0
  0
BLOCK_RECORD
  5
E66
330
1
100
AcDbSymbolTableRecord
100
AcDbBlockTableRecord
  2
*D101
340
0
 70
     0
280
     1
281
     0
  0
BLOCK_RECORD
  5
109F
330
1
100
AcDbSymbolTableRecord
100
AcDbBlockTableRecord
  2
*D102
340
0
 70
     0
280
     1
281
     0
  0
BLOCK_RECORD
  5
10B7
330
1
100
AcDbSymbolTableRecord
100
AcDbBlockTableRecord
  2
*D103
340
0
 70
     0
280
     1
281
     0
  0
BLOCK_RECORD
  5
11F2
330
1
100
AcDbSymbolTableRecord
100
AcDbBlockTableRecord
  2
*D104
340
0
 70
     0
280
     1
281
     0
  0
BLOCK_RECORD
  5
120A
330
1
100
AcDbSymbolTableRecord
100
AcDbBlockTableRecord
  2
*D105
340
0
 70
     0
280
     1
281
     0
  0
BLOCK_RECORD
  5
1222
330
1
100
AcDbSymbolTableRecord
100
AcDbBlockTableRecord
  2
*D106
340
0
 70
     0
280
     1
281
     0
  0
BLOCK_RECORD
  5
1364
330
1
100
AcDbSymbolTableRecord
100
AcDbBlockTableRecord
  2
*D107
340
0
 70
     0
280
     1
281
     0
  0
BLOCK_RECORD
  5
137C
330
1
100
AcDbSymbolTableRecord
100
AcDbBlockTableRecord
  2
*D108
340
0
 70
     0
280
     1
281
     0
  0
BLOCK_RECORD
  5
1452
330
1
100
AcDbSymbolTableRecord
100
AcDbBlockTableRecord
  2
*D109
340
0
 70
     0
280
     1
281
     0
  0
BLOCK_RECORD
  5
146A
330
1
100
AcDbSymbolTableRecord
100
AcDbBlockTableRecord
  2
*D110
340
0
 70
     0
280
     1
281
     0
  0
BLOCK_RECORD
  5
1482
330
1
100
AcDbSymbolTableRecord
100
AcDbBlockTableRecord
  2
*D111
340
0
 70
     0
280
     1
281
     0
  0
BLOCK_RECORD
  5
149A
330
1
100
AcDbSymbolTableRecord
100
AcDbBlockTableRecord
  2
*D112
340
0
 70
     0
280
     1
281
     0
  0
BLOCK_RECORD
  5
14B2
330
1
100
AcDbSymbolTableRecord
100
AcDbBlockTableRecord
  2
*D113
340
0
 70
     0
280
     1
281
     0
  0
BLOCK_RECORD
  5
14CA
330
1
100
AcDbSymbolTableRecord
100
AcDbBlockTableRecord
  2
*D114
340
0
 70
     0
280
     1
281
     0
  0
BLOCK_RECORD
  5
14E2
330
1
100
AcDbSymbolTableRecord
100
AcDbBlockTableRecord
  2
*D115
340
0
 70
     0
280
     1
281
     0
  0
BLOCK_RECORD
  5
14FA
330
1
100
AcDbSymbolTableRecord
100
AcDbBlockTableRecord
  2
*D116
340
0
 70
     0
280
     1
281
     0
  0
BLOCK_RECORD
  5
1512
330
1
100
AcDbSymbolTableRecord
100
AcDbBlockTableRecord
  2
*D117
340
0
 70
     0
280
     1
281
     0
  0
BLOCK_RECORD
  5
152A
330
1
100
AcDbSymbolTableRecord
100
AcDbBlockTableRecord
  2
*D118
340
0
 70
     0
280
     1
281
     0
  0
ENDTAB
  0
ENDSEC
  0
SECTION
  2
BLOCKS
  0
BLOCK
  5
20
330
1F
100
AcDbEntity
  8
0
100
AcDbBlockBegin
  2
*Model_Space
 70
     0
 10
0.0
 20
0.0
 30
0.0
  3
*Model_Space
  1

  0
ENDBLK
  5
21
330
1F
100
AcDbEntity
  8
0
100
AcDbBlockEnd
  0
BLOCK
  5
D4
330
D2
100
AcDbEntity
 67
     1
  8
0
100
AcDbBlockBegin
  2
*Paper_Space
 70
     0
 10
0.0
 20
0.0
 30
0.0
  3
*Paper_Space
  1

  0
ENDBLK
  5
D5
330
D2
100
AcDbEntity
 67
     1
  8
0
100
AcDbBlockEnd
  0
BLOCK
  5
D8
330
D6
100
AcDbEntity
 67
     1
  8
0
100
AcDbBlockBegin
  2
*Paper_Space0
 70
     0
 10
0.0
 20
0.0
 30
0.0
  3
*Paper_Space0
  1

  0
ENDBLK
  5
D9
330
D6
100
AcDbEntity
 67
     1
  8
0
100
AcDbBlockEnd
  0
BLOCK
  5
124
330
123
100
AcDbEntity
  8
0
 62
     3
100
AcDbBlockBegin
  2
*D1
 70
     1
 10
0.0
 20
0.0
 30
0.0
  3
*D1
  1

  0
LINE
  5
125
330
123
100
AcDbEntity
  8
0
 62
     0
370
    -2
100
AcDbLine
 10
2710.041700824021
 20
974.0373209083172
 30
0.0
 11
2710.041700824021
 21
990.4354347995862
 31
0.0
  0
LINE
  5
126
330
123
100
AcDbEntity
  8
0
 62
     0
370
    -2
100
AcDbLine
 10
2970.041700824023
 20
974.0373209083172
 30
0.0
 11
2970.041700824023
 21
990.4354347995862
 31
0.0
  0
LINE
  5
127
330
123
100
AcDbEntity
  8
0
 62
     0
370
    -2
100
AcDbLine
 10
2712.541700824022
 20
989.1854347995863
 30
0.0
 11
2967.541700824023
 21
989.1854347995863
 31
0.0
  0
SOLID
  5
128
330
123
100
AcDbEntity
  8
0
 62
     0
100
AcDbTrace
 10
2712.541700824022
 20
989.6021014662531
 30
0.0
 11
2712.541700824022
 21
988.7687681329195
 31
0.0
 12
2710.041700824021
 22
989.1854347995863
 32
0.0
 13
2710.041700824021
 23
989.1854347995863
 33
0.0
  0
SOLID
  5
129
330
123
100
AcDbEntity
  8
0
 62
     0
100
AcDbTrace
 10
2967.541700824023
 20
989.6021014662531
 30
0.0
 11
2967.541700824023
 21
988.7687681329195
 31
0.0
 12
2970.041700824023
 22
989.1854347995863
 32
0.0
 13
2970.041700824023
 23
989.1854347995863
 33
0.0
  0
MTEXT
  5
12A
330
123
100
AcDbEntity
  8
0
 62
     0
100
AcDbMText
 10
2840.041700824023
 20
994.8104347995863
 30
0.0
 40
10.0
 41
0.0
 46
0.0
 71
     5
 72
     1
  1
260
 73
     1
 44
1.0
  0
POINT
  5
12B
330
123
100
AcDbEntity
  8
Defpoints
 62
     0
100
AcDbPoint
 10
2710.041700824021
 20
973.4123209083172
 30
0.0
  0
POINT
  5
12C
330
123
100
AcDbEntity
  8
Defpoints
 62
     0
100
AcDbPoint
 10
2970.041700824023
 20
973.4123209083172
 30
0.0
  0
POINT
  5
12D
330
123
100
AcDbEntity
  8
Defpoints
 62
     0
100
AcDbPoint
 10
2970.041700824023
 20
989.1854347995863
 30
0.0
  0
ENDBLK
  5
12E
330
123
100
AcDbEntity
  8
0
 62
     3
100
AcDbBlockEnd
  0
BLOCK
  5
130
330
12F
100
AcDbEntity
  8
0
 62
     3
100
AcDbBlockBegin
  2
*D2
 70
     1
 10
0.0
 20
0.0
 30
0.0
  3
*D2
  1

  0
LINE
  5
131
330
12F
100
AcDbEntity
  8
0
 62
     0
370
    -2
100
AcDbLine
 10
2916.828147496186
 20
1103.412320908317
 30
0.0
 11
2914.659769502826
 21
1103.412320908317
 31
0.0
  0
LINE
  5
132
330
12F
100
AcDbEntity
  8
0
 62
     0
370
    -2
100
AcDbLine
 10
2916.828147496186
 20
843.4123209083173
 30
0.0
 11
2914.659769502825
 21
843.4123209083173
 31
0.0
  0
LINE
  5
133
330
12F
100
AcDbEntity
  8
0
 62
     0
370
    -2
100
AcDbLine
 10
2915.909769502825
 20
1100.912320908317
 30
0.0
 11
2915.909769502825
 21
845.9123209083172
 31
0.0
  0
SOLID
  5
134
330
12F
100
AcDbEntity
  8
0
 62
     0
100
AcDbTrace
 10
2915.493102836159
 20
1100.912320908317
 30
0.0
 11
2916.326436169493
 21
1100.912320908317
 31
0.0
 12
2915.909769502825
 22
1103.412320908317
 32
0.0
 13
2915.909769502825
 23
1103.412320908317
 33
0.0
  0
SOLID
  5
135
330
12F
100
AcDbEntity
  8
0
 62
     0
100
AcDbTrace
 10
2915.493102836159
 20
845.9123209083172
 30
0.0
 11
2916.326436169491
 21
845.9123209083172
 31
0.0
 12
2915.909769502825
 22
843.4123209083173
 32
0.0
 13
2915.909769502825
 23
843.4123209083173
 33
0.0
  0
MTEXT
  5
136
330
12F
100
AcDbEntity
  8
0
 62
     0
100
AcDbMText
 10
2910.284769502825
 20
973.4123209083175
 30
0.0
 40
10.0
 41
0.0
 46
0.0
 71
     5
 72
     1
  1
260
 11
0.0000000000000001
 21
1.0
 31
0.0
 73
     1
 44
1.0
  0
POINT
  5
137
330
12F
100
AcDbEntity
  8
Defpoints
 62
     0
100
AcDbPoint
 10
2917.453147496186
 20
1103.412320908317
 30
0.0
  0
POINT
  5
138
330
12F
100
AcDbEntity
  8
Defpoints
 62
     0
100
AcDbPoint
 10
2917.453147496186
 20
843.4123209083173
 30
0.0
  0
POINT
  5
139
330
12F
100
AcDbEntity
  8
Defpoints
 62
     0
100
AcDbPoint
 10
2915.909769502825
 20
843.4123209083173
 30
0.0
  0
ENDBLK
  5
13A
330
12F
100
AcDbEntity
  8
0
 62
     3
100
AcDbBlockEnd
  0
BLOCK
  5
13C
330
13B
100
AcDbEntity
  8
0
 62
     3
100
AcDbBlockBegin
  2
*D3
 70
     1
 10
0.0
 20
0.0
 30
0.0
  3
*D3
  1

  0
LINE
  5
13D
330
13B
100
AcDbEntity
  8
0
 62
     0
370
    -2
100
AcDbLine
 10
2970.041700824023
 20
1041.272987568285
 30
0.0
 11
2970.041700824023
 21
1029.851628012659
 31
0.0
  0
LINE
  5
13E
330
13B
100
AcDbEntity
  8
0
 62
     0
370
    -2
100
AcDbLine
 10
3120.041700824023
 20
1047.956447230969
 30
0.0
 11
3120.041700824023
 21
1029.851628012659
 31
0.0
  0
LINE
  5
13F
330
13B
100
AcDbEntity
  8
0
 62
     0
370
    -2
100
AcDbLine
 10
2972.541700824022
 20
1031.101628012659
 30
0.0
 11
3117.541700824022
 21
1031.101628012659
 31
0.0
  0
SOLID
  5
140
330
13B
100
AcDbEntity
  8
0
 62
     0
100
AcDbTrace
 10
2972.541700824022
 20
1031.518294679326
 30
0.0
 11
2972.541700824022
 21
1030.684961345992
 31
0.0
 12
2970.041700824023
 22
1031.101628012659
 32
0.0
 13
2970.041700824023
 23
1031.101628012659
 33
0.0
  0
SOLID
  5
141
330
13B
100
AcDbEntity
  8
0
 62
     0
100
AcDbTrace
 10
3117.541700824022
 20
1031.518294679326
 30
0.0
 11
3117.541700824022
 21
1030.684961345992
 31
0.0
 12
3120.041700824023
 22
1031.101628012659
 32
0.0
 13
3120.041700824023
 23
1031.101628012659
 33
0.0
  0
MTEXT
  5
142
330
13B
100
AcDbEntity
  8
0
 62
     0
100
AcDbMText
 10
3045.041700824023
 20
1036.726628012659
 30
0.0
 40
10.0
 41
0.0
 46
0.0
 71
     5
 72
     1
  1
150
 73
     1
 44
1.0
  0
POINT
  5
143
330
13B
100
AcDbEntity
  8
Defpoints
 62
     0
100
AcDbPoint
 10
2970.041700824023
 20
1041.897987568285
 30
0.0
  0
POINT
  5
144
330
13B
100
AcDbEntity
  8
Defpoints
 62
     0
100
AcDbPoint
 10
3120.041700824023
 20
1048.581447230969
 30
0.0
  0
POINT
  5
145
330
13B
100
AcDbEntity
  8
Defpoints
 62
     0
100
AcDbPoint
 10
3120.041700824023
 20
1031.101628012659
 30
0.0
  0
ENDBLK
  5
146
330
13B
100
AcDbEntity
  8
0
 62
     3
100
AcDbBlockEnd
  0
BLOCK
  5
148
330
147
100
AcDbEntity
  8
0
 62
     3
100
AcDbBlockBegin
  2
*D4
 70
     1
 10
0.0
 20
0.0
 30
0.0
  3
*D4
  1

  0
LINE
  5
149
330
147
100
AcDbEntity
  8
0
 62
     0
370
    -2
100
AcDbLine
 10
2560.041700824021
 20
757.7873209083172
 30
0.0
 11
2560.041700824021
 21
641.3808431712667
 31
0.0
  0
LINE
  5
14A
330
147
100
AcDbEntity
  8
0
 62
     0
370
    -2
100
AcDbLine
 10
3120.041700824023
 20
757.7873209083172
 30
0.0
 11
3120.041700824023
 21
641.3808431712667
 31
0.0
  0
LINE
  5
14B
330
147
100
AcDbEntity
  8
0
 62
     0
370
    -2
100
AcDbLine
 10
2562.541700824021
 20
642.6308431712667
 30
0.0
 11
3117.541700824022
 21
642.6308431712667
 31
0.0
  0
SOLID
  5
14C
330
147
100
AcDbEntity
  8
0
 62
     0
100
AcDbTrace
 10
2562.541700824021
 20
643.0475098379335
 30
0.0
 11
2562.541700824021
 21
642.2141765046002
 31
0.0
 12
2560.041700824021
 22
642.6308431712667
 32
0.0
 13
2560.041700824021
 23
642.6308431712667
 33
0.0
  0
SOLID
  5
14D
330
147
100
AcDbEntity
  8
0
 62
     0
100
AcDbTrace
 10
3117.541700824022
 20
643.0475098379335
 30
0.0
 11
3117.541700824022
 21
642.2141765046002
 31
0.0
 12
3120.041700824023
 22
642.6308431712667
 32
0.0
 13
3120.041700824023
 23
642.6308431712667
 33
0.0
  0
MTEXT
  5
14E
330
147
100
AcDbEntity
  8
0
 62
     0
100
AcDbMText
 10
2840.041700824023
 20
648.2558431712667
 30
0.0
 40
10.0
 41
0.0
 46
0.0
 71
     5
 72
     1
  1
560
 73
     1
 44
1.0
  0
POINT
  5
14F
330
147
100
AcDbEntity
  8
Defpoints
 62
     0
100
AcDbPoint
 10
2560.041700824021
 20
758.4123209083172
 30
0.0
  0
POINT
  5
150
330
147
100
AcDbEntity
  8
Defpoints
 62
     0
100
AcDbPoint
 10
3120.041700824023
 20
758.4123209083172
 30
0.0
  0
POINT
  5
151
330
147
100
AcDbEntity
  8
Defpoints
 62
     0
100
AcDbPoint
 10
3120.041700824023
 20
642.6308431712667
 30
0.0
  0
ENDBLK
  5
152
330
147
100
AcDbEntity
  8
0
 62
     3
100
AcDbBlockEnd
  0
BLOCK
  5
154
330
153
100
AcDbEntity
  8
0
 62
     3
100
AcDbBlockBegin
  2
*D5
 70
     1
 10
0.0
 20
0.0
 30
0.0
  3
*D5
  1

  0
LINE
  5
155
330
153
100
AcDbEntity
  8
0
 62
     0
370
    -2
100
AcDbLine
 10
2709.416700824022
 20
693.4123209083172
 30
0.0
 11
2450.848654004371
 21
693.4123209083172
 31
0.0
  0
LINE
  5
156
330
153
100
AcDbEntity
  8
0
 62
     0
370
    -2
100
AcDbLine
 10
2709.416700824022
 20
1253.412320908317
 30
0.0
 11
2450.848654004372
 21
1253.412320908317
 31
0.0
  0
LINE
  5
157
330
153
100
AcDbEntity
  8
0
 62
     0
370
    -2
100
AcDbLine
 10
2452.098654004371
 20
695.9123209083172
 30
0.0
 11
2452.098654004372
 21
1250.912320908317
 31
0.0
  0
SOLID
  5
158
330
153
100
AcDbEntity
  8
0
 62
     0
100
AcDbTrace
 10
2451.681987337705
 20
695.9123209083172
 30
0.0
 11
2452.515320671038
 21
695.9123209083172
 31
0.0
 12
2452.098654004371
 22
693.4123209083172
 32
0.0
 13
2452.098654004371
 23
693.4123209083172
 33
0.0
  0
SOLID
  5
159
330
153
100
AcDbEntity
  8
0
 62
     0
100
AcDbTrace
 10
2451.681987337705
 20
1250.912320908317
 30
0.0
 11
2452.515320671038
 21
1250.912320908317
 31
0.0
 12
2452.098654004372
 22
1253.412320908317
 32
0.0
 13
2452.098654004372
 23
1253.412320908317
 33
0.0
  0
MTEXT
  5
15A
330
153
100
AcDbEntity
  8
0
 62
     0
100
AcDbMText
 10
2446.473654004371
 20
973.4123209083175
 30
0.0
 40
10.0
 41
0.0
 46
0.0
 71
     5
 72
     1
  1
560
 11
0.0000000000000001
 21
1.0
 31
0.0
 73
     1
 44
1.0
  0
POINT
  5
15B
330
153
100
AcDbEntity
  8
Defpoints
 62
     0
100
AcDbPoint
 10
2710.041700824021
 20
693.4123209083172
 30
0.0
  0
POINT
  5
15C
330
153
100
AcDbEntity
  8
Defpoints
 62
     0
100
AcDbPoint
 10
2710.041700824021
 20
1253.412320908317
 30
0.0
  0
POINT
  5
15D
330
153
100
AcDbEntity
  8
Defpoints
 62
     0
100
AcDbPoint
 10
2452.098654004372
 20
1253.412320908317
 30
0.0
  0
ENDBLK
  5
15E
330
153
100
AcDbEntity
  8
0
 62
     3
100
AcDbBlockEnd
  0
BLOCK
  5
160
330
15F
100
AcDbEntity
  8
0
 62
     3
100
AcDbBlockBegin
  2
*D6
 70
     1
 10
0.0
 20
0.0
 30
0.0
  3
*D6
  1

  0
LINE
  5
161
330
15F
100
AcDbEntity
  8
0
 62
     0
370
    -2
100
AcDbLine
 10
3283.595094438026
 20
961.805509624683
 30
0.0
 11
3283.595094438026
 21
962.430509624683
 31
0.0
  0
LINE
  5
162
330
15F
100
AcDbEntity
  8
0
 62
     0
370
    -2
100
AcDbLine
 10
3549.595094438025
 20
961.805509624683
 30
0.0
 11
3549.595094438025
 21
962.430509624683
 31
0.0
  0
LINE
  5
163
330
15F
100
AcDbEntity
  8
0
 62
     0
370
    -2
100
AcDbLine
 10
3286.095094438027
 20
961.1805096246833
 30
0.0
 11
3547.095094438026
 21
961.1805096246833
 31
0.0
  0
SOLID
  5
164
330
15F
100
AcDbEntity
  8
0
 62
     0
100
AcDbTrace
 10
3286.095094438027
 20
961.5971762913497
 30
0.0
 11
3286.095094438027
 21
960.7638429580163
 31
0.0
 12
3283.595094438026
 22
961.1805096246833
 32
0.0
 13
3283.595094438026
 23
961.1805096246833
 33
0.0
  0
SOLID
  5
165
330
15F
100
AcDbEntity
  8
0
 62
     0
100
AcDbTrace
 10
3547.095094438026
 20
961.5971762913497
 30
0.0
 11
3547.095094438026
 21
960.7638429580163
 31
0.0
 12
3549.595094438025
 22
961.1805096246833
 32
0.0
 13
3549.595094438025
 23
961.1805096246833
 33
0.0
  0
MTEXT
  5
166
330
15F
100
AcDbEntity
  8
0
 62
     0
100
AcDbMText
 10
3416.595094438026
 20
966.8055096246828
 30
0.0
 40
10.0
 41
0.0
 46
0.0
 71
     5
 72
     1
  1
266
 73
     1
 44
1.0
  0
POINT
  5
167
330
15F
100
AcDbEntity
  8
Defpoints
 62
     0
100
AcDbPoint
 10
3283.595094438026
 20
961.1805096246833
 30
0.0
  0
POINT
  5
168
330
15F
100
AcDbEntity
  8
Defpoints
 62
     0
100
AcDbPoint
 10
3549.595094438025
 20
961.1805096246833
 30
0.0
  0
POINT
  5
169
330
15F
100
AcDbEntity
  8
Defpoints
 62
     0
100
AcDbPoint
 10
3549.595094438025
 20
961.1805096246833
 30
0.0
  0
ENDBLK
  5
16A
330
15F
100
AcDbEntity
  8
0
 62
     3
100
AcDbBlockEnd
  0
BLOCK
  5
16C
330
16B
100
AcDbEntity
  8
0
 62
     3
100
AcDbBlockBegin
  2
*D7
 70
     1
 10
0.0
 20
0.0
 30
0.0
  3
*D7
  1

  0
LINE
  5
16D
330
16B
100
AcDbEntity
  8
0
 62
     0
370
    -2
100
AcDbLine
 10
3503.013045583563
 20
1110.043922212737
 30
0.0
 11
3512.848104612806
 21
1110.043922212737
 31
0.0
  0
LINE
  5
16E
330
16B
100
AcDbEntity
  8
0
 62
     0
370
    -2
100
AcDbLine
 10
3503.013045583563
 20
844.0439222127379
 30
0.0
 11
3512.848104612805
 21
844.0439222127379
 31
0.0
  0
LINE
  5
16F
330
16B
100
AcDbEntity
  8
0
 62
     0
370
    -2
100
AcDbLine
 10
3511.598104612807
 20
1107.543922212737
 30
0.0
 11
3511.598104612807
 21
846.5439222127379
 31
0.0
  0
SOLID
  5
170
330
16B
100
AcDbEntity
  8
0
 62
     0
100
AcDbTrace
 10
3511.181437946139
 20
1107.543922212737
 30
0.0
 11
3512.014771279473
 21
1107.543922212737
 31
0.0
 12
3511.598104612807
 22
1110.043922212737
 32
0.0
 13
3511.598104612807
 23
1110.043922212737
 33
0.0
  0
SOLID
  5
171
330
16B
100
AcDbEntity
  8
0
 62
     0
100
AcDbTrace
 10
3511.181437946139
 20
846.5439222127379
 30
0.0
 11
3512.014771279472
 21
846.5439222127379
 31
0.0
 12
3511.598104612807
 22
844.0439222127379
 32
0.0
 13
3511.598104612807
 23
844.0439222127379
 33
0.0
  0
MTEXT
  5
172
330
16B
100
AcDbEntity
  8
0
 62
     0
100
AcDbMText
 10
3505.973104612806
 20
977.0439222127381
 30
0.0
 40
10.0
 41
0.0
 46
0.0
 71
     5
 72
     1
  1
266
 11
0.0000000000000001
 21
1.0
 31
0.0
 73
     1
 44
1.0
  0
POINT
  5
173
330
16B
100
AcDbEntity
  8
Defpoints
 62
     0
100
AcDbPoint
 10
3502.388045583562
 20
1110.043922212737
 30
0.0
  0
POINT
  5
174
330
16B
100
AcDbEntity
  8
Defpoints
 62
     0
100
AcDbPoint
 10
3502.388045583562
 20
844.0439222127379
 30
0.0
  0
POINT
  5
175
330
16B
100
AcDbEntity
  8
Defpoints
 62
     0
100
AcDbPoint
 10
3511.598104612807
 20
844.0439222127379
 30
0.0
  0
ENDBLK
  5
176
330
16B
100
AcDbEntity
  8
0
 62
     3
100
AcDbBlockEnd
  0
BLOCK
  5
178
330
177
100
AcDbEntity
  8
0
 62
     3
100
AcDbBlockBegin
  2
*D8
 70
     1
 10
0.0
 20
0.0
 30
0.0
  3
*D8
  1

  0
LINE
  5
179
330
177
100
AcDbEntity
  8
0
 62
     0
370
    -2
100
AcDbLine
 10
3549.595094438025
 20
916.5871243582726
 30
0.0
 11
3549.595094438025
 21
917.2121243582727
 31
0.0
  0
LINE
  5
17A
330
177
100
AcDbEntity
  8
0
 62
     0
370
    -2
100
AcDbLine
 10
3587.595094438027
 20
916.5871243582726
 30
0.0
 11
3587.595094438027
 21
917.2121243582727
 31
0.0
  0
LINE
  5
17B
330
177
100
AcDbEntity
  8
0
 62
     0
370
    -2
100
AcDbLine
 10
3552.095094438026
 20
915.9621243582726
 30
0.0
 11
3585.095094438026
 21
915.9621243582726
 31
0.0
  0
SOLID
  5
17C
330
177
100
AcDbEntity
  8
0
 62
     0
100
AcDbTrace
 10
3552.095094438026
 20
916.3787910249395
 30
0.0
 11
3552.095094438026
 21
915.5454576916064
 31
0.0
 12
3549.595094438025
 22
915.9621243582726
 32
0.0
 13
3549.595094438025
 23
915.9621243582726
 33
0.0
  0
SOLID
  5
17D
330
177
100
AcDbEntity
  8
0
 62
     0
100
AcDbTrace
 10
3585.095094438026
 20
916.3787910249395
 30
0.0
 11
3585.095094438026
 21
915.5454576916064
 31
0.0
 12
3587.595094438027
 22
915.9621243582726
 32
0.0
 13
3587.595094438027
 23
915.9621243582726
 33
0.0
  0
MTEXT
  5
17E
330
177
100
AcDbEntity
  8
0
 62
     0
100
AcDbMText
 10
3568.595094438026
 20
921.5871243582727
 30
0.0
 40
10.0
 41
0.0
 46
0.0
 71
     5
 72
     1
  1
38
 73
     1
 44
1.0
  0
POINT
  5
17F
330
177
100
AcDbEntity
  8
Defpoints
 62
     0
100
AcDbPoint
 10
3549.595094438025
 20
915.9621243582726
 30
0.0
  0
POINT
  5
180
330
177
100
AcDbEntity
  8
Defpoints
 62
     0
100
AcDbPoint
 10
3587.595094438027
 20
915.9621243582726
 30
0.0
  0
POINT
  5
181
330
177
100
AcDbEntity
  8
Defpoints
 62
     0
100
AcDbPoint
 10
3587.595094438027
 20
915.9621243582726
 30
0.0
  0
ENDBLK
  5
182
330
177
100
AcDbEntity
  8
0
 62
     3
100
AcDbBlockEnd
  0
BLOCK
  5
184
330
183
100
AcDbEntity
  8
0
 62
     3
100
AcDbBlockBegin
  2
*D9
 70
     1
 10
0.0
 20
0.0
 30
0.0
  3
*D9
  1

  0
LINE
  5
185
330
183
100
AcDbEntity
  8
0
 62
     0
370
    -2
100
AcDbLine
 10
3194.595094438026
 20
856.9189222127375
 30
0.0
 11
3194.595094438026
 21
687.0453163591072
 31
0.0
  0
LINE
  5
186
330
183
100
AcDbEntity
  8
0
 62
     0
370
    -2
100
AcDbLine
 10
3638.595094438026
 20
856.9189222127375
 30
0.0
 11
3638.595094438026
 21
687.0453163591072
 31
0.0
  0
LINE
  5
187
330
183
100
AcDbEntity
  8
0
 62
     0
370
    -2
100
AcDbLine
 10
3197.095094438026
 20
688.2953163591072
 30
0.0
 11
3636.095094438026
 21
688.2953163591072
 31
0.0
  0
SOLID
  5
188
330
183
100
AcDbEntity
  8
0
 62
     0
100
AcDbTrace
 10
3197.095094438026
 20
688.711983025774
 30
0.0
 11
3197.095094438026
 21
687.8786496924408
 31
0.0
 12
3194.595094438026
 22
688.2953163591072
 32
0.0
 13
3194.595094438026
 23
688.2953163591072
 33
0.0
  0
SOLID
  5
189
330
183
100
AcDbEntity
  8
0
 62
     0
100
AcDbTrace
 10
3636.095094438026
 20
688.711983025774
 30
0.0
 11
3636.095094438026
 21
687.8786496924408
 31
0.0
 12
3638.595094438026
 22
688.2953163591072
 32
0.0
 13
3638.595094438026
 23
688.2953163591072
 33
0.0
  0
MTEXT
  5
18A
330
183
100
AcDbEntity
  8
0
 62
     0
100
AcDbMText
 10
3416.595094438026
 20
693.9203163591074
 30
0.0
 40
10.0
 41
0.0
 46
0.0
 71
     5
 72
     1
  1
444
 73
     1
 44
1.0
  0
POINT
  5
18B
330
183
100
AcDbEntity
  8
Defpoints
 62
     0
100
AcDbPoint
 10
3194.595094438026
 20
857.5439222127375
 30
0.0
  0
POINT
  5
18C
330
183
100
AcDbEntity
  8
Defpoints
 62
     0
100
AcDbPoint
 10
3638.595094438026
 20
857.5439222127375
 30
0.0
  0
POINT
  5
18D
330
183
100
AcDbEntity
  8
Defpoints
 62
     0
100
AcDbPoint
 10
3638.595094438026
 20
688.2953163591072
 30
0.0
  0
ENDBLK
  5
18E
330
183
100
AcDbEntity
  8
0
 62
     3
100
AcDbBlockEnd
  0
BLOCK
  5
190
330
18F
100
AcDbEntity
  8
0
 62
     3
100
AcDbBlockBegin
  2
*D10
 70
     1
 10
0.0
 20
0.0
 30
0.0
  3
*D10
  1

  0
LINE
  5
191
330
18F
100
AcDbEntity
  8
0
 62
     0
370
    -2
100
AcDbLine
 10
3536.720094438027
 20
755.0439222127379
 30
0.0
 11
3729.152321883415
 21
755.0439222127379
 31
0.0
  0
LINE
  5
192
330
18F
100
AcDbEntity
  8
0
 62
     0
370
    -2
100
AcDbLine
 10
3536.720094438027
 20
1199.043922212738
 30
0.0
 11
3729.152321883417
 21
1199.043922212738
 31
0.0
  0
LINE
  5
193
330
18F
100
AcDbEntity
  8
0
 62
     0
370
    -2
100
AcDbLine
 10
3727.902321883415
 20
757.5439222127377
 30
0.0
 11
3727.902321883416
 21
1196.543922212738
 31
0.0
  0
SOLID
  5
194
330
18F
100
AcDbEntity
  8
0
 62
     0
100
AcDbTrace
 10
3727.485655216749
 20
757.5439222127377
 30
0.0
 11
3728.318988550082
 21
757.5439222127377
 31
0.0
 12
3727.902321883415
 22
755.0439222127379
 32
0.0
 13
3727.902321883415
 23
755.0439222127379
 33
0.0
  0
SOLID
  5
195
330
18F
100
AcDbEntity
  8
0
 62
     0
100
AcDbTrace
 10
3727.485655216749
 20
1196.543922212738
 30
0.0
 11
3728.318988550082
 21
1196.543922212738
 31
0.0
 12
3727.902321883416
 22
1199.043922212738
 32
0.0
 13
3727.902321883416
 23
1199.043922212738
 33
0.0
  0
MTEXT
  5
196
330
18F
100
AcDbEntity
  8
0
 62
     0
100
AcDbMText
 10
3722.277321883415
 20
977.0439222127386
 30
0.0
 40
10.0
 41
0.0
 46
0.0
 71
     5
 72
     1
  1
444
 11
0.0000000000000001
 21
1.0
 31
0.0
 73
     1
 44
1.0
  0
POINT
  5
197
330
18F
100
AcDbEntity
  8
Defpoints
 62
     0
100
AcDbPoint
 10
3536.095094438027
 20
755.0439222127379
 30
0.0
  0
POINT
  5
198
330
18F
100
AcDbEntity
  8
Defpoints
 62
     0
100
AcDbPoint
 10
3536.095094438027
 20
1199.043922212738
 30
0.0
  0
POINT
  5
199
330
18F
100
AcDbEntity
  8
Defpoints
 62
     0
100
AcDbPoint
 10
3727.902321883416
 20
1199.043922212738
 30
0.0
  0
ENDBLK
  5
19A
330
18F
100
AcDbEntity
  8
0
 62
     3
100
AcDbBlockEnd
  0
BLOCK
  5
19C
330
19B
100
AcDbEntity
  8
0
 62
     3
100
AcDbBlockBegin
  2
*D11
 70
     1
 10
0.0
 20
0.0
 30
0.0
  3
*D11
  1

  0
LINE
  5
19D
330
19B
100
AcDbEntity
  8
0
 62
     0
370
    -2
100
AcDbLine
 10
4527.049638986198
 20
973.7956685172679
 30
0.0
 11
4527.049638986198
 21
990.193782408537
 31
0.0
  0
LINE
  5
19E
330
19B
100
AcDbEntity
  8
0
 62
     0
370
    -2
100
AcDbLine
 10
4802.049638986198
 20
973.7956685172679
 30
0.0
 11
4802.049638986198
 21
990.193782408537
 31
0.0
  0
LINE
  5
19F
330
19B
100
AcDbEntity
  8
0
 62
     0
370
    -2
100
AcDbLine
 10
4529.549638986198
 20
988.9437824085373
 30
0.0
 11
4799.549638986198
 21
988.9437824085373
 31
0.0
  0
SOLID
  5
1A0
330
19B
100
AcDbEntity
  8
0
 62
     0
100
AcDbTrace
 10
4529.549638986198
 20
989.3604490752036
 30
0.0
 11
4529.549638986198
 21
988.5271157418703
 31
0.0
 12
4527.049638986198
 22
988.9437824085373
 32
0.0
 13
4527.049638986198
 23
988.9437824085373
 33
0.0
  0
SOLID
  5
1A1
330
19B
100
AcDbEntity
  8
0
 62
     0
100
AcDbTrace
 10
4799.549638986198
 20
989.3604490752036
 30
0.0
 11
4799.549638986198
 21
988.5271157418703
 31
0.0
 12
4802.049638986198
 22
988.9437824085373
 32
0.0
 13
4802.049638986198
 23
988.9437824085373
 33
0.0
  0
MTEXT
  5
1A2
330
19B
100
AcDbEntity
  8
0
 62
     0
100
AcDbMText
 10
4664.549638986198
 20
994.5687824085373
 30
0.0
 40
10.0
 41
0.0
 46
0.0
 71
     5
 72
     1
  1
275
 73
     1
 44
1.0
  0
POINT
  5
1A3
330
19B
100
AcDbEntity
  8
Defpoints
 62
     0
100
AcDbPoint
 10
4527.049638986198
 20
973.170668517268
 30
0.0
  0
POINT
  5
1A4
330
19B
100
AcDbEntity
  8
Defpoints
 62
     0
100
AcDbPoint
 10
4802.049638986198
 20
973.170668517268
 30
0.0
  0
POINT
  5
1A5
330
19B
100
AcDbEntity
  8
Defpoints
 62
     0
100
AcDbPoint
 10
4802.049638986198
 20
988.9437824085373
 30
0.0
  0
ENDBLK
  5
1A6
330
19B
100
AcDbEntity
  8
0
 62
     3
100
AcDbBlockEnd
  0
BLOCK
  5
1A8
330
1A7
100
AcDbEntity
  8
0
 62
     3
100
AcDbBlockBegin
  2
*D12
 70
     1
 10
0.0
 20
0.0
 30
0.0
  3
*D12
  1

  0
LINE
  5
1A9
330
1A7
100
AcDbEntity
  8
0
 62
     0
370
    -2
100
AcDbLine
 10
4745.802130658677
 20
1110.670668517268
 30
0.0
 11
4743.63375266532
 21
1110.670668517268
 31
0.0
  0
LINE
  5
1AA
330
1A7
100
AcDbEntity
  8
0
 62
     0
370
    -2
100
AcDbLine
 10
4745.802130658677
 20
835.670668517268
 30
0.0
 11
4743.63375266532
 21
835.670668517268
 31
0.0
  0
LINE
  5
1AB
330
1A7
100
AcDbEntity
  8
0
 62
     0
370
    -2
100
AcDbLine
 10
4744.88375266532
 20
1108.170668517268
 30
0.0
 11
4744.88375266532
 21
838.170668517268
 31
0.0
  0
SOLID
  5
1AC
330
1A7
100
AcDbEntity
  8
0
 62
     0
100
AcDbTrace
 10
4744.467085998651
 20
1108.170668517268
 30
0.0
 11
4745.300419331985
 21
1108.170668517268
 31
0.0
 12
4744.88375266532
 22
1110.670668517268
 32
0.0
 13
4744.88375266532
 23
1110.670668517268
 33
0.0
  0
SOLID
  5
1AD
330
1A7
100
AcDbEntity
  8
0
 62
     0
100
AcDbTrace
 10
4744.467085998651
 20
838.170668517268
 30
0.0
 11
4745.300419331985
 21
838.170668517268
 31
0.0
 12
4744.88375266532
 22
835.670668517268
 32
0.0
 13
4744.88375266532
 23
835.670668517268
 33
0.0
  0
MTEXT
  5
1AE
330
1A7
100
AcDbEntity
  8
0
 62
     0
100
AcDbMText
 10
4739.258752665318
 20
973.1706685172687
 30
0.0
 40
10.0
 41
0.0
 46
0.0
 71
     5
 72
     1
  1
275
 11
0.0000000000000001
 21
1.0
 31
0.0
 73
     1
 44
1.0
  0
POINT
  5
1AF
330
1A7
100
AcDbEntity
  8
Defpoints
 62
     0
100
AcDbPoint
 10
4746.427130658679
 20
1110.670668517268
 30
0.0
  0
POINT
  5
1B0
330
1A7
100
AcDbEntity
  8
Defpoints
 62
     0
100
AcDbPoint
 10
4746.427130658679
 20
835.670668517268
 30
0.0
  0
POINT
  5
1B1
330
1A7
100
AcDbEntity
  8
Defpoints
 62
     0
100
AcDbPoint
 10
4744.88375266532
 20
835.670668517268
 30
0.0
  0
ENDBLK
  5
1B2
330
1A7
100
AcDbEntity
  8
0
 62
     3
100
AcDbBlockEnd
  0
BLOCK
  5
1B4
330
1B3
100
AcDbEntity
  8
0
 62
     3
100
AcDbBlockBegin
  2
*D13
 70
     1
 10
0.0
 20
0.0
 30
0.0
  3
*D13
  1

  0
LINE
  5
1B5
330
1B3
100
AcDbEntity
  8
0
 62
     0
370
    -2
100
AcDbLine
 10
4802.049638986198
 20
1044.982431330696
 30
0.0
 11
4802.049638986198
 21
1033.56107177507
 31
0.0
  0
LINE
  5
1B6
330
1B3
100
AcDbEntity
  8
0
 62
     0
370
    -2
100
AcDbLine
 10
4967.049638986198
 20
1050.336973665128
 30
0.0
 11
4967.049638986198
 21
1033.56107177507
 31
0.0
  0
LINE
  5
1B7
330
1B3
100
AcDbEntity
  8
0
 62
     0
370
    -2
100
AcDbLine
 10
4804.549638986198
 20
1034.811071775069
 30
0.0
 11
4964.549638986198
 21
1034.811071775069
 31
0.0
  0
SOLID
  5
1B8
330
1B3
100
AcDbEntity
  8
0
 62
     0
100
AcDbTrace
 10
4804.549638986198
 20
1035.227738441736
 30
0.0
 11
4804.549638986198
 21
1034.394405108403
 31
0.0
 12
4802.049638986198
 22
1034.811071775069
 32
0.0
 13
4802.049638986198
 23
1034.811071775069
 33
0.0
  0
SOLID
  5
1B9
330
1B3
100
AcDbEntity
  8
0
 62
     0
100
AcDbTrace
 10
4964.549638986198
 20
1035.227738441736
 30
0.0
 11
4964.549638986198
 21
1034.394405108403
 31
0.0
 12
4967.049638986198
 22
1034.811071775069
 32
0.0
 13
4967.049638986198
 23
1034.811071775069
 33
0.0
  0
MTEXT
  5
1BA
330
1B3
100
AcDbEntity
  8
0
 62
     0
100
AcDbMText
 10
4884.549638986198
 20
1040.43607177507
 30
0.0
 40
10.0
 41
0.0
 46
0.0
 71
     5
 72
     1
  1
165
 73
     1
 44
1.0
  0
POINT
  5
1BB
330
1B3
100
AcDbEntity
  8
Defpoints
 62
     0
100
AcDbPoint
 10
4802.049638986198
 20
1045.607431330696
 30
0.0
  0
POINT
  5
1BC
330
1B3
100
AcDbEntity
  8
Defpoints
 62
     0
100
AcDbPoint
 10
4967.049638986198
 20
1050.961973665128
 30
0.0
  0
POINT
  5
1BD
330
1B3
100
AcDbEntity
  8
Defpoints
 62
     0
100
AcDbPoint
 10
4967.049638986198
 20
1034.811071775069
 30
0.0
  0
ENDBLK
  5
1BE
330
1B3
100
AcDbEntity
  8
0
 62
     3
100
AcDbBlockEnd
  0
BLOCK
  5
1C0
330
1BF
100
AcDbEntity
  8
0
 62
     3
100
AcDbBlockBegin
  2
*D14
 70
     1
 10
0.0
 20
0.0
 30
0.0
  3
*D14
  1

  0
LINE
  5
1C1
330
1BF
100
AcDbEntity
  8
0
 62
     0
370
    -2
100
AcDbLine
 10
4362.049638986198
 20
750.045668517268
 30
0.0
 11
4362.049638986198
 21
624.2641907802176
 31
0.0
  0
LINE
  5
1C2
330
1BF
100
AcDbEntity
  8
0
 62
     0
370
    -2
100
AcDbLine
 10
4967.049638986198
 20
750.045668517268
 30
0.0
 11
4967.049638986198
 21
624.2641907802176
 31
0.0
  0
LINE
  5
1C3
330
1BF
100
AcDbEntity
  8
0
 62
     0
370
    -2
100
AcDbLine
 10
4364.549638986197
 20
625.5141907802176
 30
0.0
 11
4964.549638986198
 21
625.5141907802176
 31
0.0
  0
SOLID
  5
1C4
330
1BF
100
AcDbEntity
  8
0
 62
     0
100
AcDbTrace
 10
4364.549638986197
 20
625.9308574468843
 30
0.0
 11
4364.549638986197
 21
625.097524113551
 31
0.0
 12
4362.049638986198
 22
625.5141907802176
 32
0.0
 13
4362.049638986198
 23
625.5141907802176
 33
0.0
  0
SOLID
  5
1C5
330
1BF
100
AcDbEntity
  8
0
 62
     0
100
AcDbTrace
 10
4964.549638986198
 20
625.9308574468843
 30
0.0
 11
4964.549638986198
 21
625.097524113551
 31
0.0
 12
4967.049638986198
 22
625.5141907802176
 32
0.0
 13
4967.049638986198
 23
625.5141907802176
 33
0.0
  0
MTEXT
  5
1C6
330
1BF
100
AcDbEntity
  8
0
 62
     0
100
AcDbMText
 10
4664.549638986198
 20
631.1391907802176
 30
0.0
 40
10.0
 41
0.0
 46
0.0
 71
     5
 72
     1
  1
605
 73
     1
 44
1.0
  0
POINT
  5
1C7
330
1BF
100
AcDbEntity
  8
Defpoints
 62
     0
100
AcDbPoint
 10
4362.049638986198
 20
750.670668517268
 30
0.0
  0
POINT
  5
1C8
330
1BF
100
AcDbEntity
  8
Defpoints
 62
     0
100
AcDbPoint
 10
4967.049638986198
 20
750.670668517268
 30
0.0
  0
POINT
  5
1C9
330
1BF
100
AcDbEntity
  8
Defpoints
 62
     0
100
AcDbPoint
 10
4967.049638986198
 20
625.5141907802176
 30
0.0
  0
ENDBLK
  5
1CA
330
1BF
100
AcDbEntity
  8
0
 62
     3
100
AcDbBlockEnd
  0
BLOCK
  5
1CC
330
1CB
100
AcDbEntity
  8
0
 62
     3
100
AcDbBlockBegin
  2
*D15
 70
     1
 10
0.0
 20
0.0
 30
0.0
  3
*D15
  1

  0
LINE
  5
1CD
330
1CB
100
AcDbEntity
  8
0
 62
     0
370
    -2
100
AcDbLine
 10
4526.424638986198
 20
670.670668517268
 30
0.0
 11
4267.856592166547
 21
670.6706685172681
 31
0.0
  0
LINE
  5
1CE
330
1CB
100
AcDbEntity
  8
0
 62
     0
370
    -2
100
AcDbLine
 10
4526.424638986198
 20
1275.670668517268
 30
0.0
 11
4267.856592166547
 21
1275.670668517268
 31
0.0
  0
LINE
  5
1CF
330
1CB
100
AcDbEntity
  8
0
 62
     0
370
    -2
100
AcDbLine
 10
4269.106592166547
 20
673.1706685172683
 30
0.0
 11
4269.106592166547
 21
1273.170668517268
 31
0.0
  0
SOLID
  5
1D0
330
1CB
100
AcDbEntity
  8
0
 62
     0
100
AcDbTrace
 10
4268.68992549988
 20
673.1706685172683
 30
0.0
 11
4269.523258833213
 21
673.1706685172683
 31
0.0
 12
4269.106592166547
 22
670.6706685172681
 32
0.0
 13
4269.106592166547
 23
670.6706685172681
 33
0.0
  0
SOLID
  5
1D1
330
1CB
100
AcDbEntity
  8
0
 62
     0
100
AcDbTrace
 10
4268.68992549988
 20
1273.170668517268
 30
0.0
 11
4269.523258833213
 21
1273.170668517268
 31
0.0
 12
4269.106592166547
 22
1275.670668517268
 32
0.0
 13
4269.106592166547
 23
1275.670668517268
 33
0.0
  0
MTEXT
  5
1D2
330
1CB
100
AcDbEntity
  8
0
 62
     0
100
AcDbMText
 10
4263.481592166548
 20
973.1706685172687
 30
0.0
 40
10.0
 41
0.0
 46
0.0
 71
     5
 72
     1
  1
605
 11
0.0000000000000001
 21
1.0
 31
0.0
 73
     1
 44
1.0
  0
POINT
  5
1D3
330
1CB
100
AcDbEntity
  8
Defpoints
 62
     0
100
AcDbPoint
 10
4527.049638986198
 20
670.670668517268
 30
0.0
  0
POINT
  5
1D4
330
1CB
100
AcDbEntity
  8
Defpoints
 62
     0
100
AcDbPoint
 10
4527.049638986198
 20
1275.670668517268
 30
0.0
  0
POINT
  5
1D5
330
1CB
100
AcDbEntity
  8
Defpoints
 62
     0
100
AcDbPoint
 10
4269.106592166547
 20
1275.670668517268
 30
0.0
  0
ENDBLK
  5
1D6
330
1CB
100
AcDbEntity
  8
0
 62
     3
100
AcDbBlockEnd
  0
BLOCK
  5
1D8
330
1D7
100
AcDbEntity
  8
0
 62
     3
100
AcDbBlockBegin
  2
*D16
 70
     1
 10
0.0
 20
0.0
 30
0.0
  3
*D16
  1

  0
LINE
  5
1D9
330
1D7
100
AcDbEntity
  8
0
 62
     0
370
    -2
100
AcDbLine
 10
5108.103032600202
 20
968.1693038922022
 30
0.0
 11
5108.103032600202
 21
968.794303892202
 31
0.0
  0
LINE
  5
1DA
330
1D7
100
AcDbEntity
  8
0
 62
     0
370
    -2
100
AcDbLine
 10
5389.103032600202
 20
968.1693038922022
 30
0.0
 11
5389.103032600202
 21
968.794303892202
 31
0.0
  0
LINE
  5
1DB
330
1D7
100
AcDbEntity
  8
0
 62
     0
370
    -2
100
AcDbLine
 10
5110.603032600202
 20
967.5443038922022
 30
0.0
 11
5386.603032600202
 21
967.5443038922022
 31
0.0
  0
SOLID
  5
1DC
330
1D7
100
AcDbEntity
  8
0
 62
     0
100
AcDbTrace
 10
5110.603032600202
 20
967.9609705588687
 30
0.0
 11
5110.603032600202
 21
967.1276372255356
 31
0.0
 12
5108.103032600202
 22
967.5443038922022
 32
0.0
 13
5108.103032600202
 23
967.5443038922022
 33
0.0
  0
SOLID
  5
1DD
330
1D7
100
AcDbEntity
  8
0
 62
     0
100
AcDbTrace
 10
5386.603032600202
 20
967.9609705588687
 30
0.0
 11
5386.603032600202
 21
967.1276372255356
 31
0.0
 12
5389.103032600202
 22
967.5443038922022
 32
0.0
 13
5389.103032600202
 23
967.5443038922022
 33
0.0
  0
MTEXT
  5
1DE
330
1D7
100
AcDbEntity
  8
0
 62
     0
100
AcDbMText
 10
5248.603032600202
 20
973.1693038922021
 30
0.0
 40
10.0
 41
0.0
 46
0.0
 71
     5
 72
     1
  1
281
 73
     1
 44
1.0
  0
POINT
  5
1DF
330
1D7
100
AcDbEntity
  8
Defpoints
 62
     0
100
AcDbPoint
 10
5108.103032600202
 20
967.5443038922022
 30
0.0
  0
POINT
  5
1E0
330
1D7
100
AcDbEntity
  8
Defpoints
 62
     0
100
AcDbPoint
 10
5389.103032600202
 20
967.5443038922022
 30
0.0
  0
POINT
  5
1E1
330
1D7
100
AcDbEntity
  8
Defpoints
 62
     0
100
AcDbPoint
 10
5389.103032600202
 20
967.5443038922022
 30
0.0
  0
ENDBLK
  5
1E2
330
1D7
100
AcDbEntity
  8
0
 62
     3
100
AcDbBlockEnd
  0
BLOCK
  5
1E4
330
1E3
100
AcDbEntity
  8
0
 62
     3
100
AcDbBlockBegin
  2
*D17
 70
     1
 10
0.0
 20
0.0
 30
0.0
  3
*D17
  1

  0
LINE
  5
1E5
330
1E3
100
AcDbEntity
  8
0
 62
     0
370
    -2
100
AcDbLine
 10
5339.858932118607
 20
1124.802269821688
 30
0.0
 11
5349.693991147852
 21
1124.802269821688
 31
0.0
  0
LINE
  5
1E6
330
1E3
100
AcDbEntity
  8
0
 62
     0
370
    -2
100
AcDbLine
 10
5339.858932118607
 20
843.8022698216885
 30
0.0
 11
5349.693991147852
 21
843.8022698216885
 31
0.0
  0
LINE
  5
1E7
330
1E3
100
AcDbEntity
  8
0
 62
     0
370
    -2
100
AcDbLine
 10
5348.443991147849
 20
1122.302269821688
 30
0.0
 11
5348.443991147849
 21
846.3022698216885
 31
0.0
  0
SOLID
  5
1E8
330
1E3
100
AcDbEntity
  8
0
 62
     0
100
AcDbTrace
 10
5348.027324481183
 20
1122.302269821688
 30
0.0
 11
5348.860657814517
 21
1122.302269821688
 31
0.0
 12
5348.443991147849
 22
1124.802269821688
 32
0.0
 13
5348.443991147849
 23
1124.802269821688
 33
0.0
  0
SOLID
  5
1E9
330
1E3
100
AcDbEntity
  8
0
 62
     0
100
AcDbTrace
 10
5348.027324481183
 20
846.3022698216885
 30
0.0
 11
5348.860657814517
 21
846.3022698216885
 31
0.0
 12
5348.443991147849
 22
843.8022698216885
 32
0.0
 13
5348.443991147849
 23
843.8022698216885
 33
0.0
  0
MTEXT
  5
1EA
330
1E3
100
AcDbEntity
  8
0
 62
     0
100
AcDbMText
 10
5342.818991147851
 20
984.302269821689
 30
0.0
 40
10.0
 41
0.0
 46
0.0
 71
     5
 72
     1
  1
281
 11
0.0000000000000001
 21
1.0
 31
0.0
 73
     1
 44
1.0
  0
POINT
  5
1EB
330
1E3
100
AcDbEntity
  8
Defpoints
 62
     0
100
AcDbPoint
 10
5339.233932118607
 20
1124.802269821688
 30
0.0
  0
POINT
  5
1EC
330
1E3
100
AcDbEntity
  8
Defpoints
 62
     0
100
AcDbPoint
 10
5339.233932118607
 20
843.8022698216885
 30
0.0
  0
POINT
  5
1ED
330
1E3
100
AcDbEntity
  8
Defpoints
 62
     0
100
AcDbPoint
 10
5348.443991147849
 20
843.8022698216885
 30
0.0
  0
ENDBLK
  5
1EE
330
1E3
100
AcDbEntity
  8
0
 62
     3
100
AcDbBlockEnd
  0
BLOCK
  5
1F0
330
1EF
100
AcDbEntity
  8
0
 62
     3
100
AcDbBlockBegin
  2
*D18
 70
     1
 10
0.0
 20
0.0
 30
0.0
  3
*D18
  1

  0
LINE
  5
1F1
330
1EF
100
AcDbEntity
  8
0
 62
     0
370
    -2
100
AcDbLine
 10
5389.103032600202
 20
920.4010096821972
 30
0.0
 11
5389.103032600202
 21
921.0260096821974
 31
0.0
  0
LINE
  5
1F2
330
1EF
100
AcDbEntity
  8
0
 62
     0
370
    -2
100
AcDbLine
 10
5427.103032600202
 20
920.4010096821972
 30
0.0
 11
5427.103032600202
 21
921.0260096821974
 31
0.0
  0
LINE
  5
1F3
330
1EF
100
AcDbEntity
  8
0
 62
     0
370
    -2
100
AcDbLine
 10
5391.603032600202
 20
919.7760096821973
 30
0.0
 11
5424.603032600202
 21
919.7760096821973
 31
0.0
  0
SOLID
  5
1F4
330
1EF
100
AcDbEntity
  8
0
 62
     0
100
AcDbTrace
 10
5391.603032600202
 20
920.1926763488639
 30
0.0
 11
5391.603032600202
 21
919.3593430155306
 31
0.0
 12
5389.103032600202
 22
919.7760096821973
 32
0.0
 13
5389.103032600202
 23
919.7760096821973
 33
0.0
  0
SOLID
  5
1F5
330
1EF
100
AcDbEntity
  8
0
 62
     0
100
AcDbTrace
 10
5424.603032600202
 20
920.1926763488639
 30
0.0
 11
5424.603032600202
 21
919.3593430155306
 31
0.0
 12
5427.103032600202
 22
919.7760096821973
 32
0.0
 13
5427.103032600202
 23
919.7760096821973
 33
0.0
  0
MTEXT
  5
1F6
330
1EF
100
AcDbEntity
  8
0
 62
     0
100
AcDbMText
 10
5408.103032600202
 20
925.4010096821971
 30
0.0
 40
10.0
 41
0.0
 46
0.0
 71
     5
 72
     1
  1
38
 73
     1
 44
1.0
  0
POINT
  5
1F7
330
1EF
100
AcDbEntity
  8
Defpoints
 62
     0
100
AcDbPoint
 10
5389.103032600202
 20
919.7760096821973
 30
0.0
  0
POINT
  5
1F8
330
1EF
100
AcDbEntity
  8
Defpoints
 62
     0
100
AcDbPoint
 10
5427.103032600202
 20
919.7760096821973
 30
0.0
  0
POINT
  5
1F9
330
1EF
100
AcDbEntity
  8
Defpoints
 62
     0
100
AcDbPoint
 10
5427.103032600202
 20
919.7760096821973
 30
0.0
  0
ENDBLK
  5
1FA
330
1EF
100
AcDbEntity
  8
0
 62
     3
100
AcDbBlockEnd
  0
BLOCK
  5
1FC
330
1FB
100
AcDbEntity
  8
0
 62
     3
100
AcDbBlockBegin
  2
*D19
 70
     1
 10
0.0
 20
0.0
 30
0.0
  3
*D19
  1

  0
LINE
  5
1FD
330
1FB
100
AcDbEntity
  8
0
 62
     0
370
    -2
100
AcDbLine
 10
5019.103032600202
 20
856.6772698216881
 30
0.0
 11
5019.103032600202
 21
686.8036639680581
 31
0.0
  0
LINE
  5
1FE
330
1FB
100
AcDbEntity
  8
0
 62
     0
370
    -2
100
AcDbLine
 10
5478.103032600202
 20
856.6772698216881
 30
0.0
 11
5478.103032600202
 21
686.8036639680581
 31
0.0
  0
LINE
  5
1FF
330
1FB
100
AcDbEntity
  8
0
 62
     0
370
    -2
100
AcDbLine
 10
5021.603032600202
 20
688.0536639680581
 30
0.0
 11
5475.603032600202
 21
688.0536639680581
 31
0.0
  0
SOLID
  5
200
330
1FB
100
AcDbEntity
  8
0
 62
     0
100
AcDbTrace
 10
5021.603032600202
 20
688.4703306347248
 30
0.0
 11
5021.603032600202
 21
687.6369973013915
 31
0.0
 12
5019.103032600202
 22
688.0536639680581
 32
0.0
 13
5019.103032600202
 23
688.0536639680581
 33
0.0
  0
SOLID
  5
201
330
1FB
100
AcDbEntity
  8
0
 62
     0
100
AcDbTrace
 10
5475.603032600202
 20
688.4703306347248
 30
0.0
 11
5475.603032600202
 21
687.6369973013915
 31
0.0
 12
5478.103032600202
 22
688.0536639680581
 32
0.0
 13
5478.103032600202
 23
688.0536639680581
 33
0.0
  0
MTEXT
  5
202
330
1FB
100
AcDbEntity
  8
0
 62
     0
100
AcDbMText
 10
5248.603032600202
 20
693.6786639680581
 30
0.0
 40
10.0
 41
0.0
 46
0.0
 71
     5
 72
     1
  1
459
 73
     1
 44
1.0
  0
POINT
  5
203
330
1FB
100
AcDbEntity
  8
Defpoints
 62
     0
100
AcDbPoint
 10
5019.103032600202
 20
857.3022698216883
 30
0.0
  0
POINT
  5
204
330
1FB
100
AcDbEntity
  8
Defpoints
 62
     0
100
AcDbPoint
 10
5478.103032600202
 20
857.3022698216883
 30
0.0
  0
POINT
  5
205
330
1FB
100
AcDbEntity
  8
Defpoints
 62
     0
100
AcDbPoint
 10
5478.103032600202
 20
688.0536639680581
 30
0.0
  0
ENDBLK
  5
206
330
1FB
100
AcDbEntity
  8
0
 62
     3
100
AcDbBlockEnd
  0
BLOCK
  5
208
330
207
100
AcDbEntity
  8
0
 62
     3
100
AcDbBlockBegin
  2
*D20
 70
     1
 10
0.0
 20
0.0
 30
0.0
  3
*D20
  1

  0
LINE
  5
209
330
207
100
AcDbEntity
  8
0
 62
     0
370
    -2
100
AcDbLine
 10
5376.228032600202
 20
754.8022698216885
 30
0.0
 11
5568.660260045592
 21
754.8022698216885
 31
0.0
  0
LINE
  5
20A
330
207
100
AcDbEntity
  8
0
 62
     0
370
    -2
100
AcDbLine
 10
5376.228032600202
 20
1213.802269821689
 30
0.0
 11
5568.660260045592
 21
1213.802269821689
 31
0.0
  0
LINE
  5
20B
330
207
100
AcDbEntity
  8
0
 62
     0
370
    -2
100
AcDbLine
 10
5567.410260045591
 20
757.3022698216886
 30
0.0
 11
5567.410260045591
 21
1211.302269821689
 31
0.0
  0
SOLID
  5
20C
330
207
100
AcDbEntity
  8
0
 62
     0
100
AcDbTrace
 10
5566.993593378924
 20
757.3022698216886
 30
0.0
 11
5567.826926712259
 21
757.3022698216886
 31
0.0
 12
5567.410260045591
 22
754.8022698216885
 32
0.0
 13
5567.410260045591
 23
754.8022698216885
 33
0.0
  0
SOLID
  5
20D
330
207
100
AcDbEntity
  8
0
 62
     0
100
AcDbTrace
 10
5566.993593378924
 20
1211.302269821689
 30
0.0
 11
5567.826926712259
 21
1211.302269821689
 31
0.0
 12
5567.410260045591
 22
1213.802269821689
 32
0.0
 13
5567.410260045591
 23
1213.802269821689
 33
0.0
  0
MTEXT
  5
20E
330
207
100
AcDbEntity
  8
0
 62
     0
100
AcDbMText
 10
5561.785260045592
 20
984.3022698216897
 30
0.0
 40
10.0
 41
0.0
 46
0.0
 71
     5
 72
     1
  1
459
 11
0.0000000000000001
 21
1.0
 31
0.0
 73
     1
 44
1.0
  0
POINT
  5
20F
330
207
100
AcDbEntity
  8
Defpoints
 62
     0
100
AcDbPoint
 10
5375.603032600202
 20
754.8022698216887
 30
0.0
  0
POINT
  5
210
330
207
100
AcDbEntity
  8
Defpoints
 62
     0
100
AcDbPoint
 10
5375.603032600202
 20
1213.802269821689
 30
0.0
  0
POINT
  5
211
330
207
100
AcDbEntity
  8
Defpoints
 62
     0
100
AcDbPoint
 10
5567.410260045591
 20
1213.802269821689
 30
0.0
  0
ENDBLK
  5
212
330
207
100
AcDbEntity
  8
0
 62
     3
100
AcDbBlockEnd
  0
BLOCK
  5
214
330
213
100
AcDbEntity
  8
0
 62
     3
100
AcDbBlockBegin
  2
*D21
 70
     1
 10
0.0
 20
0.0
 30
0.0
  3
*D21
  1

  0
LINE
  5
215
330
213
100
AcDbEntity
  8
0
 62
     0
370
    -2
100
AcDbLine
 10
6240.668046307099
 20
959.7677641100814
 30
0.0
 11
6240.668046307099
 21
976.1658780013503
 31
0.0
  0
LINE
  5
216
330
213
100
AcDbEntity
  8
0
 62
     0
370
    -2
100
AcDbLine
 10
6555.668046307101
 20
959.7677641100814
 30
0.0
 11
6555.668046307101
 21
976.1658780013503
 31
0.0
  0
LINE
  5
217
330
213
100
AcDbEntity
  8
0
 62
     0
370
    -2
100
AcDbLine
 10
6243.1680463071
 20
974.9158780013503
 30
0.0
 11
6553.168046307098
 21
974.9158780013503
 31
0.0
  0
SOLID
  5
218
330
213
100
AcDbEntity
  8
0
 62
     0
100
AcDbTrace
 10
6243.1680463071
 20
975.332544668017
 30
0.0
 11
6243.1680463071
 21
974.4992113346837
 31
0.0
 12
6240.668046307099
 22
974.9158780013503
 32
0.0
 13
6240.668046307099
 23
974.9158780013503
 33
0.0
  0
SOLID
  5
219
330
213
100
AcDbEntity
  8
0
 62
     0
100
AcDbTrace
 10
6553.168046307098
 20
975.332544668017
 30
0.0
 11
6553.168046307098
 21
974.4992113346837
 31
0.0
 12
6555.668046307101
 22
974.9158780013503
 32
0.0
 13
6555.668046307101
 23
974.9158780013503
 33
0.0
  0
MTEXT
  5
21A
330
213
100
AcDbEntity
  8
0
 62
     0
100
AcDbMText
 10
6398.168046307098
 20
980.5408780013504
 30
0.0
 40
10.0
 41
0.0
 46
0.0
 71
     5
 72
     1
  1
315
 73
     1
 44
1.0
  0
POINT
  5
21B
330
213
100
AcDbEntity
  8
Defpoints
 62
     0
100
AcDbPoint
 10
6240.668046307099
 20
959.1427641100812
 30
0.0
  0
POINT
  5
21C
330
213
100
AcDbEntity
  8
Defpoints
 62
     0
100
AcDbPoint
 10
6555.668046307101
 20
959.1427641100812
 30
0.0
  0
POINT
  5
21D
330
213
100
AcDbEntity
  8
Defpoints
 62
     0
100
AcDbPoint
 10
6555.668046307101
 20
974.9158780013503
 30
0.0
  0
ENDBLK
  5
21E
330
213
100
AcDbEntity
  8
0
 62
     3
100
AcDbBlockEnd
  0
BLOCK
  5
220
330
21F
100
AcDbEntity
  8
0
 62
     3
100
AcDbBlockBegin
  2
*D22
 70
     1
 10
0.0
 20
0.0
 30
0.0
  3
*D22
  1

  0
LINE
  5
221
330
21F
100
AcDbEntity
  8
0
 62
     0
370
    -2
100
AcDbLine
 10
6491.329991313759
 20
1116.642764110081
 30
0.0
 11
6489.161613320399
 21
1116.642764110081
 31
0.0
  0
LINE
  5
222
330
21F
100
AcDbEntity
  8
0
 62
     0
370
    -2
100
AcDbLine
 10
6491.329991313759
 20
801.6427641100811
 30
0.0
 11
6489.161613320399
 21
801.6427641100811
 31
0.0
  0
LINE
  5
223
330
21F
100
AcDbEntity
  8
0
 62
     0
370
    -2
100
AcDbLine
 10
6490.411613320398
 20
1114.142764110081
 30
0.0
 11
6490.411613320398
 21
804.1427641100812
 31
0.0
  0
SOLID
  5
224
330
21F
100
AcDbEntity
  8
0
 62
     0
100
AcDbTrace
 10
6489.994946653732
 20
1114.142764110081
 30
0.0
 11
6490.828279987066
 21
1114.142764110081
 31
0.0
 12
6490.411613320398
 22
1116.642764110081
 32
0.0
 13
6490.411613320398
 23
1116.642764110081
 33
0.0
  0
SOLID
  5
225
330
21F
100
AcDbEntity
  8
0
 62
     0
100
AcDbTrace
 10
6489.994946653732
 20
804.1427641100812
 30
0.0
 11
6490.828279987066
 21
804.1427641100812
 31
0.0
 12
6490.411613320398
 22
801.6427641100811
 32
0.0
 13
6490.411613320398
 23
801.6427641100811
 33
0.0
  0
MTEXT
  5
226
330
21F
100
AcDbEntity
  8
0
 62
     0
100
AcDbMText
 10
6484.786613320399
 20
959.1427641100825
 30
0.0
 40
10.0
 41
0.0
 46
0.0
 71
     5
 72
     1
  1
315
 11
0.0000000000000001
 21
1.0
 31
0.0
 73
     1
 44
1.0
  0
POINT
  5
227
330
21F
100
AcDbEntity
  8
Defpoints
 62
     0
100
AcDbPoint
 10
6491.954991313758
 20
1116.642764110081
 30
0.0
  0
POINT
  5
228
330
21F
100
AcDbEntity
  8
Defpoints
 62
     0
100
AcDbPoint
 10
6491.954991313758
 20
801.6427641100811
 30
0.0
  0
POINT
  5
229
330
21F
100
AcDbEntity
  8
Defpoints
 62
     0
100
AcDbPoint
 10
6490.411613320398
 20
801.6427641100811
 30
0.0
  0
ENDBLK
  5
22A
330
21F
100
AcDbEntity
  8
0
 62
     3
100
AcDbBlockEnd
  0
BLOCK
  5
22C
330
22B
100
AcDbEntity
  8
0
 62
     3
100
AcDbBlockBegin
  2
*D23
 70
     1
 10
0.0
 20
0.0
 30
0.0
  3
*D23
  1

  0
LINE
  5
22D
330
22B
100
AcDbEntity
  8
0
 62
     0
370
    -2
100
AcDbLine
 10
6555.668046307101
 20
1041.490783332735
 30
0.0
 11
6555.668046307101
 21
1030.069423777105
 31
0.0
  0
LINE
  5
22E
330
22B
100
AcDbEntity
  8
0
 62
     0
370
    -2
100
AcDbLine
 10
6725.668046307099
 20
1043.301546125165
 30
0.0
 11
6725.668046307099
 21
1030.069423777105
 31
0.0
  0
LINE
  5
22F
330
22B
100
AcDbEntity
  8
0
 62
     0
370
    -2
100
AcDbLine
 10
6558.168046307099
 20
1031.319423777106
 30
0.0
 11
6723.168046307098
 21
1031.319423777106
 31
0.0
  0
SOLID
  5
230
330
22B
100
AcDbEntity
  8
0
 62
     0
100
AcDbTrace
 10
6558.168046307099
 20
1031.736090443772
 30
0.0
 11
6558.168046307099
 21
1030.902757110439
 31
0.0
 12
6555.668046307101
 22
1031.319423777106
 32
0.0
 13
6555.668046307101
 23
1031.319423777106
 33
0.0
  0
SOLID
  5
231
330
22B
100
AcDbEntity
  8
0
 62
     0
100
AcDbTrace
 10
6723.168046307098
 20
1031.736090443772
 30
0.0
 11
6723.168046307098
 21
1030.902757110439
 31
0.0
 12
6725.668046307099
 22
1031.319423777106
 32
0.0
 13
6725.668046307099
 23
1031.319423777106
 33
0.0
  0
MTEXT
  5
232
330
22B
100
AcDbEntity
  8
0
 62
     0
100
AcDbMText
 10
6640.668046307098
 20
1036.944423777106
 30
0.0
 40
10.0
 41
0.0
 46
0.0
 71
     5
 72
     1
  1
170
 73
     1
 44
1.0
  0
POINT
  5
233
330
22B
100
AcDbEntity
  8
Defpoints
 62
     0
100
AcDbPoint
 10
6555.668046307101
 20
1042.115783332735
 30
0.0
  0
POINT
  5
234
330
22B
100
AcDbEntity
  8
Defpoints
 62
     0
100
AcDbPoint
 10
6725.668046307099
 20
1043.926546125165
 30
0.0
  0
POINT
  5
235
330
22B
100
AcDbEntity
  8
Defpoints
 62
     0
100
AcDbPoint
 10
6725.668046307099
 20
1031.319423777106
 30
0.0
  0
ENDBLK
  5
236
330
22B
100
AcDbEntity
  8
0
 62
     3
100
AcDbBlockEnd
  0
BLOCK
  5
238
330
237
100
AcDbEntity
  8
0
 62
     3
100
AcDbBlockBegin
  2
*D24
 70
     1
 10
0.0
 20
0.0
 30
0.0
  3
*D24
  1

  0
LINE
  5
239
330
237
100
AcDbEntity
  8
0
 62
     0
370
    -2
100
AcDbLine
 10
6070.668046307098
 20
716.0177641100812
 30
0.0
 11
6070.668046307098
 21
585.2362863730308
 31
0.0
  0
LINE
  5
23A
330
237
100
AcDbEntity
  8
0
 62
     0
370
    -2
100
AcDbLine
 10
6725.668046307099
 20
716.0177641100812
 30
0.0
 11
6725.668046307099
 21
585.2362863730308
 31
0.0
  0
LINE
  5
23B
330
237
100
AcDbEntity
  8
0
 62
     0
370
    -2
100
AcDbLine
 10
6073.168046307098
 20
586.4862863730309
 30
0.0
 11
6723.168046307098
 21
586.4862863730309
 31
0.0
  0
SOLID
  5
23C
330
237
100
AcDbEntity
  8
0
 62
     0
100
AcDbTrace
 10
6073.168046307098
 20
586.9029530396975
 30
0.0
 11
6073.168046307098
 21
586.0696197063641
 31
0.0
 12
6070.668046307098
 22
586.4862863730309
 32
0.0
 13
6070.668046307098
 23
586.4862863730309
 33
0.0
  0
SOLID
  5
23D
330
237
100
AcDbEntity
  8
0
 62
     0
100
AcDbTrace
 10
6723.168046307098
 20
586.9029530396975
 30
0.0
 11
6723.168046307098
 21
586.0696197063641
 31
0.0
 12
6725.668046307099
 22
586.4862863730309
 32
0.0
 13
6725.668046307099
 23
586.4862863730309
 33
0.0
  0
MTEXT
  5
23E
330
237
100
AcDbEntity
  8
0
 62
     0
100
AcDbMText
 10
6398.168046307098
 20
592.1112863730309
 30
0.0
 40
10.0
 41
0.0
 46
0.0
 71
     5
 72
     1
  1
655
 73
     1
 44
1.0
  0
POINT
  5
23F
330
237
100
AcDbEntity
  8
Defpoints
 62
     0
100
AcDbPoint
 10
6070.668046307098
 20
716.6427641100812
 30
0.0
  0
POINT
  5
240
330
237
100
AcDbEntity
  8
Defpoints
 62
     0
100
AcDbPoint
 10
6725.668046307099
 20
716.6427641100812
 30
0.0
  0
POINT
  5
241
330
237
100
AcDbEntity
  8
Defpoints
 62
     0
100
AcDbPoint
 10
6725.668046307099
 20
586.4862863730309
 30
0.0
  0
ENDBLK
  5
242
330
237
100
AcDbEntity
  8
0
 62
     3
100
AcDbBlockEnd
  0
BLOCK
  5
244
330
243
100
AcDbEntity
  8
0
 62
     3
100
AcDbBlockBegin
  2
*D25
 70
     1
 10
0.0
 20
0.0
 30
0.0
  3
*D25
  1

  0
LINE
  5
245
330
243
100
AcDbEntity
  8
0
 62
     0
370
    -2
100
AcDbLine
 10
6240.0430463071
 20
631.6427641100812
 30
0.0
 11
5976.474999487447
 21
631.6427641100812
 31
0.0
  0
LINE
  5
246
330
243
100
AcDbEntity
  8
0
 62
     0
370
    -2
100
AcDbLine
 10
6240.0430463071
 20
1286.642764110081
 30
0.0
 11
5976.474999487447
 21
1286.642764110081
 31
0.0
  0
LINE
  5
247
330
243
100
AcDbEntity
  8
0
 62
     0
370
    -2
100
AcDbLine
 10
5977.724999487447
 20
634.1427641100811
 30
0.0
 11
5977.724999487447
 21
1284.142764110081
 31
0.0
  0
SOLID
  5
248
330
243
100
AcDbEntity
  8
0
 62
     0
100
AcDbTrace
 10
5977.308332820781
 20
634.1427641100811
 30
0.0
 11
5978.141666154115
 21
634.1427641100811
 31
0.0
 12
5977.724999487447
 22
631.6427641100812
 32
0.0
 13
5977.724999487447
 23
631.6427641100812
 33
0.0
  0
SOLID
  5
249
330
243
100
AcDbEntity
  8
0
 62
     0
100
AcDbTrace
 10
5977.308332820781
 20
1284.142764110081
 30
0.0
 11
5978.141666154115
 21
1284.142764110081
 31
0.0
 12
5977.724999487447
 22
1286.642764110081
 32
0.0
 13
5977.724999487447
 23
1286.642764110081
 33
0.0
  0
MTEXT
  5
24A
330
243
100
AcDbEntity
  8
0
 62
     0
100
AcDbMText
 10
5972.099999487447
 20
959.1427641100825
 30
0.0
 40
10.0
 41
0.0
 46
0.0
 71
     5
 72
     1
  1
655
 11
0.0000000000000001
 21
1.0
 31
0.0
 73
     1
 44
1.0
  0
POINT
  5
24B
330
243
100
AcDbEntity
  8
Defpoints
 62
     0
100
AcDbPoint
 10
6240.668046307099
 20
631.6427641100812
 30
0.0
  0
POINT
  5
24C
330
243
100
AcDbEntity
  8
Defpoints
 62
     0
100
AcDbPoint
 10
6240.668046307099
 20
1286.642764110081
 30
0.0
  0
POINT
  5
24D
330
243
100
AcDbEntity
  8
Defpoints
 62
     0
100
AcDbPoint
 10
5977.724999487447
 20
1286.642764110081
 30
0.0
  0
ENDBLK
  5
24E
330
243
100
AcDbEntity
  8
0
 62
     3
100
AcDbBlockEnd
  0
BLOCK
  5
250
330
24F
100
AcDbEntity
  8
0
 62
     3
100
AcDbBlockBegin
  2
*D26
 70
     1
 10
0.0
 20
0.0
 30
0.0
  3
*D26
  1

  0
LINE
  5
251
330
24F
100
AcDbEntity
  8
0
 62
     0
370
    -2
100
AcDbLine
 10
6861.721439921102
 20
971.7559239078644
 30
0.0
 11
6861.721439921102
 21
972.3809239078644
 31
0.0
  0
LINE
  5
252
330
24F
100
AcDbEntity
  8
0
 62
     0
370
    -2
100
AcDbLine
 10
7182.721439921103
 20
971.7559239078644
 30
0.0
 11
7182.721439921103
 21
972.3809239078644
 31
0.0
  0
LINE
  5
253
330
24F
100
AcDbEntity
  8
0
 62
     0
370
    -2
100
AcDbLine
 10
6864.221439921102
 20
971.1309239078643
 30
0.0
 11
7180.221439921102
 21
971.1309239078643
 31
0.0
  0
SOLID
  5
254
330
24F
100
AcDbEntity
  8
0
 62
     0
100
AcDbTrace
 10
6864.221439921102
 20
971.5475905745307
 30
0.0
 11
6864.221439921102
 21
970.7142572411978
 31
0.0
 12
6861.721439921102
 22
971.1309239078643
 32
0.0
 13
6861.721439921102
 23
971.1309239078643
 33
0.0
  0
SOLID
  5
255
330
24F
100
AcDbEntity
  8
0
 62
     0
100
AcDbTrace
 10
7180.221439921102
 20
971.5475905745307
 30
0.0
 11
7180.221439921102
 21
970.7142572411978
 31
0.0
 12
7182.721439921103
 22
971.1309239078643
 32
0.0
 13
7182.721439921103
 23
971.1309239078643
 33
0.0
  0
MTEXT
  5
256
330
24F
100
AcDbEntity
  8
0
 62
     0
100
AcDbMText
 10
7022.221439921104
 20
976.7559239078643
 30
0.0
 40
10.0
 41
0.0
 46
0.0
 71
     5
 72
     1
  1
321
 73
     1
 44
1.0
  0
POINT
  5
257
330
24F
100
AcDbEntity
  8
Defpoints
 62
     0
100
AcDbPoint
 10
6861.721439921102
 20
971.1309239078643
 30
0.0
  0
POINT
  5
258
330
24F
100
AcDbEntity
  8
Defpoints
 62
     0
100
AcDbPoint
 10
7182.721439921103
 20
971.1309239078643
 30
0.0
  0
POINT
  5
259
330
24F
100
AcDbEntity
  8
Defpoints
 62
     0
100
AcDbPoint
 10
7182.721439921103
 20
971.1309239078643
 30
0.0
  0
ENDBLK
  5
25A
330
24F
100
AcDbEntity
  8
0
 62
     3
100
AcDbBlockEnd
  0
BLOCK
  5
25C
330
25B
100
AcDbEntity
  8
0
 62
     3
100
AcDbBlockBegin
  2
*D27
 70
     1
 10
0.0
 20
0.0
 30
0.0
  3
*D27
  1

  0
LINE
  5
25D
330
25B
100
AcDbEntity
  8
0
 62
     0
370
    -2
100
AcDbLine
 10
7126.378535100491
 20
1150.774365414501
 30
0.0
 11
7136.213594129734
 21
1150.774365414501
 31
0.0
  0
LINE
  5
25E
330
25B
100
AcDbEntity
  8
0
 62
     0
370
    -2
100
AcDbLine
 10
7126.378535100491
 20
829.7743654145017
 30
0.0
 11
7136.213594129734
 21
829.7743654145017
 31
0.0
  0
LINE
  5
25F
330
25B
100
AcDbEntity
  8
0
 62
     0
370
    -2
100
AcDbLine
 10
7134.963594129733
 20
1148.274365414501
 30
0.0
 11
7134.963594129733
 21
832.2743654145018
 31
0.0
  0
SOLID
  5
260
330
25B
100
AcDbEntity
  8
0
 62
     0
100
AcDbTrace
 10
7134.546927463067
 20
1148.274365414501
 30
0.0
 11
7135.380260796401
 21
1148.274365414501
 31
0.0
 12
7134.963594129733
 22
1150.774365414501
 32
0.0
 13
7134.963594129733
 23
1150.774365414501
 33
0.0
  0
SOLID
  5
261
330
25B
100
AcDbEntity
  8
0
 62
     0
100
AcDbTrace
 10
7134.546927463067
 20
832.2743654145018
 30
0.0
 11
7135.380260796401
 21
832.2743654145018
 31
0.0
 12
7134.963594129733
 22
829.7743654145017
 32
0.0
 13
7134.963594129733
 23
829.7743654145017
 33
0.0
  0
MTEXT
  5
262
330
25B
100
AcDbEntity
  8
0
 62
     0
100
AcDbMText
 10
7129.338594129734
 20
990.2743654145027
 30
0.0
 40
10.0
 41
0.0
 46
0.0
 71
     5
 72
     1
  1
321
 11
0.0000000000000001
 21
1.0
 31
0.0
 73
     1
 44
1.0
  0
POINT
  5
263
330
25B
100
AcDbEntity
  8
Defpoints
 62
     0
100
AcDbPoint
 10
7125.75353510049
 20
1150.774365414501
 30
0.0
  0
POINT
  5
264
330
25B
100
AcDbEntity
  8
Defpoints
 62
     0
100
AcDbPoint
 10
7125.75353510049
 20
829.7743654145017
 30
0.0
  0
POINT
  5
265
330
25B
100
AcDbEntity
  8
Defpoints
 62
     0
100
AcDbPoint
 10
7134.963594129733
 20
829.7743654145017
 30
0.0
  0
ENDBLK
  5
266
330
25B
100
AcDbEntity
  8
0
 62
     3
100
AcDbBlockEnd
  0
BLOCK
  5
268
330
267
100
AcDbEntity
  8
0
 62
     3
100
AcDbBlockBegin
  2
*D28
 70
     1
 10
0.0
 20
0.0
 30
0.0
  3
*D28
  1

  0
LINE
  5
269
330
267
100
AcDbEntity
  8
0
 62
     0
370
    -2
100
AcDbLine
 10
7182.721439921103
 20
917.1878725149408
 30
0.0
 11
7182.721439921103
 21
917.8128725149408
 31
0.0
  0
LINE
  5
26A
330
267
100
AcDbEntity
  8
0
 62
     0
370
    -2
100
AcDbLine
 10
7220.721439921104
 20
917.1878725149408
 30
0.0
 11
7220.721439921104
 21
917.8128725149408
 31
0.0
  0
LINE
  5
26B
330
267
100
AcDbEntity
  8
0
 62
     0
370
    -2
100
AcDbLine
 10
7185.221439921102
 20
916.5628725149407
 30
0.0
 11
7218.221439921101
 21
916.5628725149407
 31
0.0
  0
SOLID
  5
26C
330
267
100
AcDbEntity
  8
0
 62
     0
100
AcDbTrace
 10
7185.221439921102
 20
916.9795391816071
 30
0.0
 11
7185.221439921102
 21
916.1462058482738
 31
0.0
 12
7182.721439921103
 22
916.5628725149407
 32
0.0
 13
7182.721439921103
 23
916.5628725149407
 33
0.0
  0
SOLID
  5
26D
330
267
100
AcDbEntity
  8
0
 62
     0
100
AcDbTrace
 10
7218.221439921101
 20
916.9795391816071
 30
0.0
 11
7218.221439921101
 21
916.1462058482738
 31
0.0
 12
7220.721439921104
 22
916.5628725149407
 32
0.0
 13
7220.721439921104
 23
916.5628725149407
 33
0.0
  0
MTEXT
  5
26E
330
267
100
AcDbEntity
  8
0
 62
     0
100
AcDbMText
 10
7201.721439921104
 20
922.1878725149407
 30
0.0
 40
10.0
 41
0.0
 46
0.0
 71
     5
 72
     1
  1
38
 73
     1
 44
1.0
  0
POINT
  5
26F
330
267
100
AcDbEntity
  8
Defpoints
 62
     0
100
AcDbPoint
 10
7182.721439921103
 20
916.5628725149407
 30
0.0
  0
POINT
  5
270
330
267
100
AcDbEntity
  8
Defpoints
 62
     0
100
AcDbPoint
 10
7220.721439921104
 20
916.5628725149407
 30
0.0
  0
POINT
  5
271
330
267
100
AcDbEntity
  8
Defpoints
 62
     0
100
AcDbPoint
 10
7220.721439921104
 20
916.5628725149407
 30
0.0
  0
ENDBLK
  5
272
330
267
100
AcDbEntity
  8
0
 62
     3
100
AcDbBlockEnd
  0
BLOCK
  5
274
330
273
100
AcDbEntity
  8
0
 62
     3
100
AcDbBlockBegin
  2
*D29
 70
     1
 10
0.0
 20
0.0
 30
0.0
  3
*D29
  1

  0
LINE
  5
275
330
273
100
AcDbEntity
  8
0
 62
     0
370
    -2
100
AcDbLine
 10
6772.721439921102
 20
842.6493654145016
 30
0.0
 11
6772.721439921102
 21
672.7757595608713
 31
0.0
  0
LINE
  5
276
330
273
100
AcDbEntity
  8
0
 62
     0
370
    -2
100
AcDbLine
 10
7271.721439921103
 20
842.6493654145016
 30
0.0
 11
7271.721439921103
 21
672.7757595608713
 31
0.0
  0
LINE
  5
277
330
273
100
AcDbEntity
  8
0
 62
     0
370
    -2
100
AcDbLine
 10
6775.221439921104
 20
674.0257595608714
 30
0.0
 11
7269.221439921103
 21
674.0257595608714
 31
0.0
  0
SOLID
  5
278
330
273
100
AcDbEntity
  8
0
 62
     0
100
AcDbTrace
 10
6775.221439921104
 20
674.442426227538
 30
0.0
 11
6775.221439921104
 21
673.6090928942047
 31
0.0
 12
6772.721439921102
 22
674.0257595608714
 32
0.0
 13
6772.721439921102
 23
674.0257595608714
 33
0.0
  0
SOLID
  5
279
330
273
100
AcDbEntity
  8
0
 62
     0
100
AcDbTrace
 10
7269.221439921103
 20
674.442426227538
 30
0.0
 11
7269.221439921103
 21
673.6090928942047
 31
0.0
 12
7271.721439921103
 22
674.0257595608714
 32
0.0
 13
7271.721439921103
 23
674.0257595608714
 33
0.0
  0
MTEXT
  5
27A
330
273
100
AcDbEntity
  8
0
 62
     0
100
AcDbMText
 10
7022.221439921104
 20
679.6507595608714
 30
0.0
 40
10.0
 41
0.0
 46
0.0
 71
     5
 72
     1
  1
499
 73
     1
 44
1.0
  0
POINT
  5
27B
330
273
100
AcDbEntity
  8
Defpoints
 62
     0
100
AcDbPoint
 10
6772.721439921102
 20
843.2743654145015
 30
0.0
  0
POINT
  5
27C
330
273
100
AcDbEntity
  8
Defpoints
 62
     0
100
AcDbPoint
 10
7271.721439921103
 20
843.2743654145015
 30
0.0
  0
POINT
  5
27D
330
273
100
AcDbEntity
  8
Defpoints
 62
     0
100
AcDbPoint
 10
7271.721439921103
 20
674.0257595608714
 30
0.0
  0
ENDBLK
  5
27E
330
273
100
AcDbEntity
  8
0
 62
     3
100
AcDbBlockEnd
  0
BLOCK
  5
280
330
27F
100
AcDbEntity
  8
0
 62
     3
100
AcDbBlockBegin
  2
*D30
 70
     1
 10
0.0
 20
0.0
 30
0.0
  3
*D30
  1

  0
LINE
  5
281
330
27F
100
AcDbEntity
  8
0
 62
     0
370
    -2
100
AcDbLine
 10
7169.846439921103
 20
740.7743654145017
 30
0.0
 11
7362.278667366492
 21
740.7743654145017
 31
0.0
  0
LINE
  5
282
330
27F
100
AcDbEntity
  8
0
 62
     0
370
    -2
100
AcDbLine
 10
7169.846439921103
 20
1239.774365414502
 30
0.0
 11
7362.278667366492
 21
1239.774365414502
 31
0.0
  0
LINE
  5
283
330
27F
100
AcDbEntity
  8
0
 62
     0
370
    -2
100
AcDbLine
 10
7361.028667366493
 20
743.274365414502
 30
0.0
 11
7361.028667366493
 21
1237.274365414502
 31
0.0
  0
SOLID
  5
284
330
27F
100
AcDbEntity
  8
0
 62
     0
100
AcDbTrace
 10
7360.612000699825
 20
743.274365414502
 30
0.0
 11
7361.44533403316
 21
743.274365414502
 31
0.0
 12
7361.028667366493
 22
740.7743654145017
 32
0.0
 13
7361.028667366493
 23
740.7743654145017
 33
0.0
  0
SOLID
  5
285
330
27F
100
AcDbEntity
  8
0
 62
     0
100
AcDbTrace
 10
7360.612000699825
 20
1237.274365414502
 30
0.0
 11
7361.44533403316
 21
1237.274365414502
 31
0.0
 12
7361.028667366493
 22
1239.774365414502
 32
0.0
 13
7361.028667366493
 23
1239.774365414502
 33
0.0
  0
MTEXT
  5
286
330
27F
100
AcDbEntity
  8
0
 62
     0
100
AcDbMText
 10
7355.403667366491
 20
990.2743654145032
 30
0.0
 40
10.0
 41
0.0
 46
0.0
 71
     5
 72
     1
  1
499
 11
0.0000000000000001
 21
1.0
 31
0.0
 73
     1
 44
1.0
  0
POINT
  5
287
330
27F
100
AcDbEntity
  8
Defpoints
 62
     0
100
AcDbPoint
 10
7169.221439921102
 20
740.7743654145017
 30
0.0
  0
POINT
  5
288
330
27F
100
AcDbEntity
  8
Defpoints
 62
     0
100
AcDbPoint
 10
7169.221439921102
 20
1239.774365414502
 30
0.0
  0
POINT
  5
289
330
27F
100
AcDbEntity
  8
Defpoints
 62
     0
100
AcDbPoint
 10
7361.028667366493
 20
1239.774365414502
 30
0.0
  0
ENDBLK
  5
28A
330
27F
100
AcDbEntity
  8
0
 62
     3
100
AcDbBlockEnd
  0
BLOCK
  5
28C
330
28B
100
AcDbEntity
  8
0
 62
     3
100
AcDbBlockBegin
  2
*D31
 70
     1
 10
0.0
 20
0.0
 30
0.0
  3
*D31
  1

  0
LINE
  5
28D
330
28B
100
AcDbEntity
  8
0
 62
     0
370
    -2
100
AcDbLine
 10
8084.067847562458
 20
958.2372530883054
 30
0.0
 11
8084.067847562458
 21
974.6353669795745
 31
0.0
  0
LINE
  5
28E
330
28B
100
AcDbEntity
  8
0
 62
     0
370
    -2
100
AcDbLine
 10
8424.06784756246
 20
958.2372530883054
 30
0.0
 11
8424.06784756246
 21
974.6353669795745
 31
0.0
  0
LINE
  5
28F
330
28B
100
AcDbEntity
  8
0
 62
     0
370
    -2
100
AcDbLine
 10
8086.567847562458
 20
973.3853669795744
 30
0.0
 11
8421.567847562458
 21
973.3853669795744
 31
0.0
  0
SOLID
  5
290
330
28B
100
AcDbEntity
  8
0
 62
     0
100
AcDbTrace
 10
8086.567847562458
 20
973.802033646241
 30
0.0
 11
8086.567847562458
 21
972.9687003129075
 31
0.0
 12
8084.067847562458
 22
973.3853669795744
 32
0.0
 13
8084.067847562458
 23
973.3853669795744
 33
0.0
  0
SOLID
  5
291
330
28B
100
AcDbEntity
  8
0
 62
     0
100
AcDbTrace
 10
8421.567847562458
 20
973.802033646241
 30
0.0
 11
8421.567847562458
 21
972.9687003129075
 31
0.0
 12
8424.06784756246
 22
973.3853669795744
 32
0.0
 13
8424.06784756246
 23
973.3853669795744
 33
0.0
  0
MTEXT
  5
292
330
28B
100
AcDbEntity
  8
0
 62
     0
100
AcDbMText
 10
8254.067847562458
 20
979.0103669795744
 30
0.0
 40
10.0
 41
0.0
 46
0.0
 71
     5
 72
     1
  1
340
 73
     1
 44
1.0
  0
POINT
  5
293
330
28B
100
AcDbEntity
  8
Defpoints
 62
     0
100
AcDbPoint
 10
8084.067847562458
 20
957.6122530883052
 30
0.0
  0
POINT
  5
294
330
28B
100
AcDbEntity
  8
Defpoints
 62
     0
100
AcDbPoint
 10
8424.06784756246
 20
957.6122530883052
 30
0.0
  0
POINT
  5
295
330
28B
100
AcDbEntity
  8
Defpoints
 62
     0
100
AcDbPoint
 10
8424.06784756246
 20
973.3853669795744
 30
0.0
  0
ENDBLK
  5
296
330
28B
100
AcDbEntity
  8
0
 62
     3
100
AcDbBlockEnd
  0
BLOCK
  5
298
330
297
100
AcDbEntity
  8
0
 62
     3
100
AcDbBlockBegin
  2
*D32
 70
     1
 10
0.0
 20
0.0
 30
0.0
  3
*D32
  1

  0
LINE
  5
299
330
297
100
AcDbEntity
  8
0
 62
     0
370
    -2
100
AcDbLine
 10
8354.673200902981
 20
1127.612253088305
 30
0.0
 11
8352.504822909621
 21
1127.612253088305
 31
0.0
  0
LINE
  5
29A
330
297
100
AcDbEntity
  8
0
 62
     0
370
    -2
100
AcDbLine
 10
8354.673200902981
 20
787.6122530883052
 30
0.0
 11
8352.504822909621
 21
787.6122530883052
 31
0.0
  0
LINE
  5
29B
330
297
100
AcDbEntity
  8
0
 62
     0
370
    -2
100
AcDbLine
 10
8353.754822909619
 20
1125.112253088305
 30
0.0
 11
8353.754822909619
 21
790.1122530883052
 31
0.0
  0
SOLID
  5
29C
330
297
100
AcDbEntity
  8
0
 62
     0
100
AcDbTrace
 10
8353.338156242953
 20
1125.112253088305
 30
0.0
 11
8354.171489576286
 21
1125.112253088305
 31
0.0
 12
8353.754822909619
 22
1127.612253088305
 32
0.0
 13
8353.754822909619
 23
1127.612253088305
 33
0.0
  0
SOLID
  5
29D
330
297
100
AcDbEntity
  8
0
 62
     0
100
AcDbTrace
 10
8353.338156242953
 20
790.1122530883052
 30
0.0
 11
8354.171489576286
 21
790.1122530883052
 31
0.0
 12
8353.754822909619
 22
787.6122530883052
 32
0.0
 13
8353.754822909619
 23
787.6122530883052
 33
0.0
  0
MTEXT
  5
29E
330
297
100
AcDbEntity
  8
0
 62
     0
100
AcDbMText
 10
8348.129822909619
 20
957.6122530883067
 30
0.0
 40
10.0
 41
0.0
 46
0.0
 71
     5
 72
     1
  1
340
 11
0.0000000000000001
 21
1.0
 31
0.0
 73
     1
 44
1.0
  0
POINT
  5
29F
330
297
100
AcDbEntity
  8
Defpoints
 62
     0
100
AcDbPoint
 10
8355.29820090298
 20
1127.612253088305
 30
0.0
  0
POINT
  5
2A0
330
297
100
AcDbEntity
  8
Defpoints
 62
     0
100
AcDbPoint
 10
8355.29820090298
 20
787.6122530883052
 30
0.0
  0
POINT
  5
2A1
330
297
100
AcDbEntity
  8
Defpoints
 62
     0
100
AcDbPoint
 10
8353.754822909619
 20
787.6122530883052
 30
0.0
  0
ENDBLK
  5
2A2
330
297
100
AcDbEntity
  8
0
 62
     3
100
AcDbBlockEnd
  0
BLOCK
  5
2A4
330
2A3
100
AcDbEntity
  8
0
 62
     3
100
AcDbBlockBegin
  2
*D33
 70
     1
 10
0.0
 20
0.0
 30
0.0
  3
*D33
  1

  0
LINE
  5
2A5
330
2A3
100
AcDbEntity
  8
0
 62
     0
370
    -2
100
AcDbLine
 10
8424.06784756246
 20
1046.545432566725
 30
0.0
 11
8424.06784756246
 21
1034.719973589775
 31
0.0
  0
LINE
  5
2A6
330
2A3
100
AcDbEntity
  8
0
 62
     0
370
    -2
100
AcDbLine
 10
8604.067847562459
 20
1046.141333145404
 30
0.0
 11
8604.067847562459
 21
1034.719973589775
 31
0.0
  0
LINE
  5
2A7
330
2A3
100
AcDbEntity
  8
0
 62
     0
370
    -2
100
AcDbLine
 10
8426.567847562459
 20
1035.969973589776
 30
0.0
 11
8601.56784756246
 21
1035.969973589776
 31
0.0
  0
SOLID
  5
2A8
330
2A3
100
AcDbEntity
  8
0
 62
     0
100
AcDbTrace
 10
8426.567847562459
 20
1036.386640256442
 30
0.0
 11
8426.567847562459
 21
1035.553306923109
 31
0.0
 12
8424.06784756246
 22
1035.969973589776
 32
0.0
 13
8424.06784756246
 23
1035.969973589776
 33
0.0
  0
SOLID
  5
2A9
330
2A3
100
AcDbEntity
  8
0
 62
     0
100
AcDbTrace
 10
8601.56784756246
 20
1036.386640256442
 30
0.0
 11
8601.56784756246
 21
1035.553306923109
 31
0.0
 12
8604.067847562459
 22
1035.969973589776
 32
0.0
 13
8604.067847562459
 23
1035.969973589776
 33
0.0
  0
MTEXT
  5
2AA
330
2A3
100
AcDbEntity
  8
0
 62
     0
100
AcDbMText
 10
8514.06784756246
 20
1041.594973589775
 30
0.0
 40
10.0
 41
0.0
 46
0.0
 71
     5
 72
     1
  1
180
 73
     1
 44
1.0
  0
POINT
  5
2AB
330
2A3
100
AcDbEntity
  8
Defpoints
 62
     0
100
AcDbPoint
 10
8424.06784756246
 20
1047.170432566725
 30
0.0
  0
POINT
  5
2AC
330
2A3
100
AcDbEntity
  8
Defpoints
 62
     0
100
AcDbPoint
 10
8604.067847562459
 20
1046.766333145404
 30
0.0
  0
POINT
  5
2AD
330
2A3
100
AcDbEntity
  8
Defpoints
 62
     0
100
AcDbPoint
 10
8604.067847562459
 20
1035.969973589776
 30
0.0
  0
ENDBLK
  5
2AE
330
2A3
100
AcDbEntity
  8
0
 62
     3
100
AcDbBlockEnd
  0
BLOCK
  5
2B0
330
2AF
100
AcDbEntity
  8
0
 62
     3
100
AcDbBlockBegin
  2
*D34
 70
     1
 10
0.0
 20
0.0
 30
0.0
  3
*D34
  1

  0
LINE
  5
2B1
330
2AF
100
AcDbEntity
  8
0
 62
     0
370
    -2
100
AcDbLine
 10
7904.067847562458
 20
701.9872530883052
 30
0.0
 11
7904.067847562458
 21
561.2057753512548
 31
0.0
  0
LINE
  5
2B2
330
2AF
100
AcDbEntity
  8
0
 62
     0
370
    -2
100
AcDbLine
 10
8604.067847562459
 20
701.9872530883052
 30
0.0
 11
8604.067847562459
 21
561.2057753512548
 31
0.0
  0
LINE
  5
2B3
330
2AF
100
AcDbEntity
  8
0
 62
     0
370
    -2
100
AcDbLine
 10
7906.567847562458
 20
562.4557753512548
 30
0.0
 11
8601.56784756246
 21
562.4557753512548
 31
0.0
  0
SOLID
  5
2B4
330
2AF
100
AcDbEntity
  8
0
 62
     0
100
AcDbTrace
 10
7906.567847562458
 20
562.8724420179215
 30
0.0
 11
7906.567847562458
 21
562.0391086845883
 31
0.0
 12
7904.067847562458
 22
562.4557753512548
 32
0.0
 13
7904.067847562458
 23
562.4557753512548
 33
0.0
  0
SOLID
  5
2B5
330
2AF
100
AcDbEntity
  8
0
 62
     0
100
AcDbTrace
 10
8601.56784756246
 20
562.8724420179215
 30
0.0
 11
8601.56784756246
 21
562.0391086845883
 31
0.0
 12
8604.067847562459
 22
562.4557753512548
 32
0.0
 13
8604.067847562459
 23
562.4557753512548
 33
0.0
  0
MTEXT
  5
2B6
330
2AF
100
AcDbEntity
  8
0
 62
     0
100
AcDbMText
 10
8254.067847562458
 20
568.0807753512547
 30
0.0
 40
10.0
 41
0.0
 46
0.0
 71
     5
 72
     1
  1
700
 73
     1
 44
1.0
  0
POINT
  5
2B7
330
2AF
100
AcDbEntity
  8
Defpoints
 62
     0
100
AcDbPoint
 10
7904.067847562458
 20
702.6122530883052
 30
0.0
  0
POINT
  5
2B8
330
2AF
100
AcDbEntity
  8
Defpoints
 62
     0
100
AcDbPoint
 10
8604.067847562459
 20
702.6122530883052
 30
0.0
  0
POINT
  5
2B9
330
2AF
100
AcDbEntity
  8
Defpoints
 62
     0
100
AcDbPoint
 10
8604.067847562459
 20
562.4557753512548
 30
0.0
  0
ENDBLK
  5
2BA
330
2AF
100
AcDbEntity
  8
0
 62
     3
100
AcDbBlockEnd
  0
BLOCK
  5
2BC
330
2BB
100
AcDbEntity
  8
0
 62
     3
100
AcDbBlockBegin
  2
*D35
 70
     1
 10
0.0
 20
0.0
 30
0.0
  3
*D35
  1

  0
LINE
  5
2BD
330
2BB
100
AcDbEntity
  8
0
 62
     0
370
    -2
100
AcDbLine
 10
8083.442847562457
 20
607.6122530883052
 30
0.0
 11
7809.874800742807
 21
607.6122530883052
 31
0.0
  0
LINE
  5
2BE
330
2BB
100
AcDbEntity
  8
0
 62
     0
370
    -2
100
AcDbLine
 10
8083.442847562457
 20
1307.612253088305
 30
0.0
 11
7809.874800742807
 21
1307.612253088305
 31
0.0
  0
LINE
  5
2BF
330
2BB
100
AcDbEntity
  8
0
 62
     0
370
    -2
100
AcDbLine
 10
7811.124800742809
 20
610.1122530883055
 30
0.0
 11
7811.124800742809
 21
1305.112253088305
 31
0.0
  0
SOLID
  5
2C0
330
2BB
100
AcDbEntity
  8
0
 62
     0
100
AcDbTrace
 10
7810.708134076141
 20
610.1122530883055
 30
0.0
 11
7811.541467409475
 21
610.1122530883055
 31
0.0
 12
7811.124800742809
 22
607.6122530883052
 32
0.0
 13
7811.124800742809
 23
607.6122530883052
 33
0.0
  0
SOLID
  5
2C1
330
2BB
100
AcDbEntity
  8
0
 62
     0
100
AcDbTrace
 10
7810.708134076141
 20
1305.112253088305
 30
0.0
 11
7811.541467409475
 21
1305.112253088305
 31
0.0
 12
7811.124800742809
 22
1307.612253088305
 32
0.0
 13
7811.124800742809
 23
1307.612253088305
 33
0.0
  0
MTEXT
  5
2C2
330
2BB
100
AcDbEntity
  8
0
 62
     0
100
AcDbMText
 10
7805.499800742808
 20
957.6122530883067
 30
0.0
 40
10.0
 41
0.0
 46
0.0
 71
     5
 72
     1
  1
700
 11
0.0000000000000001
 21
1.0
 31
0.0
 73
     1
 44
1.0
  0
POINT
  5
2C3
330
2BB
100
AcDbEntity
  8
Defpoints
 62
     0
100
AcDbPoint
 10
8084.067847562458
 20
607.6122530883052
 30
0.0
  0
POINT
  5
2C4
330
2BB
100
AcDbEntity
  8
Defpoints
 62
     0
100
AcDbPoint
 10
8084.067847562458
 20
1307.612253088305
 30
0.0
  0
POINT
  5
2C5
330
2BB
100
AcDbEntity
  8
Defpoints
 62
     0
100
AcDbPoint
 10
7811.124800742809
 20
1307.612253088305
 30
0.0
  0
ENDBLK
  5
2C6
330
2BB
100
AcDbEntity
  8
0
 62
     3
100
AcDbBlockEnd
  0
BLOCK
  5
2C8
330
2C7
100
AcDbEntity
  8
0
 62
     3
100
AcDbBlockBegin
  2
*D36
 70
     1
 10
0.0
 20
0.0
 30
0.0
  3
*D36
  1

  0
LINE
  5
2C9
330
2C7
100
AcDbEntity
  8
0
 62
     0
370
    -2
100
AcDbLine
 10
8730.121241176462
 20
981.2344906503692
 30
0.0
 11
8730.121241176462
 21
981.8594906503689
 31
0.0
  0
LINE
  5
2CA
330
2C7
100
AcDbEntity
  8
0
 62
     0
370
    -2
100
AcDbLine
 10
9076.121241176464
 20
981.2344906503692
 30
0.0
 11
9076.121241176464
 21
981.8594906503689
 31
0.0
  0
LINE
  5
2CB
330
2C7
100
AcDbEntity
  8
0
 62
     0
370
    -2
100
AcDbLine
 10
8732.621241176463
 20
980.6094906503687
 30
0.0
 11
9073.621241176462
 21
980.6094906503687
 31
0.0
  0
SOLID
  5
2CC
330
2C7
100
AcDbEntity
  8
0
 62
     0
100
AcDbTrace
 10
8732.621241176463
 20
981.0261573170356
 30
0.0
 11
8732.621241176463
 21
980.1928239837023
 31
0.0
 12
8730.121241176462
 22
980.6094906503687
 32
0.0
 13
8730.121241176462
 23
980.6094906503687
 33
0.0
  0
SOLID
  5
2CD
330
2C7
100
AcDbEntity
  8
0
 62
     0
100
AcDbTrace
 10
9073.621241176462
 20
981.0261573170356
 30
0.0
 11
9073.621241176462
 21
980.1928239837023
 31
0.0
 12
9076.121241176464
 22
980.6094906503687
 32
0.0
 13
9076.121241176464
 23
980.6094906503687
 33
0.0
  0
MTEXT
  5
2CE
330
2C7
100
AcDbEntity
  8
0
 62
     0
100
AcDbMText
 10
8903.121241176462
 20
986.234490650369
 30
0.0
 40
10.0
 41
0.0
 46
0.0
 71
     5
 72
     1
  1
346
 73
     1
 44
1.0
  0
POINT
  5
2CF
330
2C7
100
AcDbEntity
  8
Defpoints
 62
     0
100
AcDbPoint
 10
8730.121241176462
 20
980.6094906503687
 30
0.0
  0
POINT
  5
2D0
330
2C7
100
AcDbEntity
  8
Defpoints
 62
     0
100
AcDbPoint
 10
9076.121241176464
 20
980.6094906503687
 30
0.0
  0
POINT
  5
2D1
330
2C7
100
AcDbEntity
  8
Defpoints
 62
     0
100
AcDbPoint
 10
9076.121241176464
 20
980.6094906503687
 30
0.0
  0
ENDBLK
  5
2D2
330
2C7
100
AcDbEntity
  8
0
 62
     3
100
AcDbBlockEnd
  0
BLOCK
  5
2D4
330
2D3
100
AcDbEntity
  8
0
 62
     3
100
AcDbBlockBegin
  2
*D37
 70
     1
 10
0.0
 20
0.0
 30
0.0
  3
*D37
  1

  0
LINE
  5
2D5
330
2D3
100
AcDbEntity
  8
0
 62
     0
370
    -2
100
AcDbLine
 10
9015.341583643964
 20
1174.243854392725
 30
0.0
 11
9025.176642673208
 21
1174.243854392725
 31
0.0
  0
LINE
  5
2D6
330
2D3
100
AcDbEntity
  8
0
 62
     0
370
    -2
100
AcDbLine
 10
9015.341583643964
 20
828.2438543927256
 30
0.0
 11
9025.176642673208
 21
828.2438543927256
 31
0.0
  0
LINE
  5
2D7
330
2D3
100
AcDbEntity
  8
0
 62
     0
370
    -2
100
AcDbLine
 10
9023.926642673208
 20
1171.743854392725
 30
0.0
 11
9023.926642673208
 21
830.7438543927256
 31
0.0
  0
SOLID
  5
2D8
330
2D3
100
AcDbEntity
  8
0
 62
     0
100
AcDbTrace
 10
9023.509976006542
 20
1171.743854392725
 30
0.0
 11
9024.343309339874
 21
1171.743854392725
 31
0.0
 12
9023.926642673208
 22
1174.243854392725
 32
0.0
 13
9023.926642673208
 23
1174.243854392725
 33
0.0
  0
SOLID
  5
2D9
330
2D3
100
AcDbEntity
  8
0
 62
     0
100
AcDbTrace
 10
9023.509976006542
 20
830.7438543927256
 30
0.0
 11
9024.343309339874
 21
830.7438543927256
 31
0.0
 12
9023.926642673208
 22
828.2438543927256
 32
0.0
 13
9023.926642673208
 23
828.2438543927256
 33
0.0
  0
MTEXT
  5
2DA
330
2D3
100
AcDbEntity
  8
0
 62
     0
100
AcDbMText
 10
9018.301642673208
 20
1001.243854392727
 30
0.0
 40
10.0
 41
0.0
 46
0.0
 71
     5
 72
     1
  1
346
 11
0.0000000000000001
 21
1.0
 31
0.0
 73
     1
 44
1.0
  0
POINT
  5
2DB
330
2D3
100
AcDbEntity
  8
Defpoints
 62
     0
100
AcDbPoint
 10
9014.716583643965
 20
1174.243854392725
 30
0.0
  0
POINT
  5
2DC
330
2D3
100
AcDbEntity
  8
Defpoints
 62
     0
100
AcDbPoint
 10
9014.716583643965
 20
828.2438543927256
 30
0.0
  0
POINT
  5
2DD
330
2D3
100
AcDbEntity
  8
Defpoints
 62
     0
100
AcDbPoint
 10
9023.926642673208
 20
828.2438543927256
 30
0.0
  0
ENDBLK
  5
2DE
330
2D3
100
AcDbEntity
  8
0
 62
     3
100
AcDbBlockEnd
  0
BLOCK
  5
2E0
330
2DF
100
AcDbEntity
  8
0
 62
     3
100
AcDbBlockBegin
  2
*D38
 70
     1
 10
0.0
 20
0.0
 30
0.0
  3
*D38
  1

  0
LINE
  5
2E1
330
2DF
100
AcDbEntity
  8
0
 62
     0
370
    -2
100
AcDbLine
 10
9076.121241176464
 20
922.4165910181211
 30
0.0
 11
9076.121241176464
 21
923.0415910181211
 31
0.0
  0
LINE
  5
2E2
330
2DF
100
AcDbEntity
  8
0
 62
     0
370
    -2
100
AcDbLine
 10
9114.121241176462
 20
922.4165910181211
 30
0.0
 11
9114.121241176462
 21
923.0415910181211
 31
0.0
  0
LINE
  5
2E3
330
2DF
100
AcDbEntity
  8
0
 62
     0
370
    -2
100
AcDbLine
 10
9078.62124117646
 20
921.7915910181211
 30
0.0
 11
9111.621241176463
 21
921.7915910181211
 31
0.0
  0
SOLID
  5
2E4
330
2DF
100
AcDbEntity
  8
0
 62
     0
100
AcDbTrace
 10
9078.62124117646
 20
922.2082576847878
 30
0.0
 11
9078.62124117646
 21
921.3749243514543
 31
0.0
 12
9076.121241176464
 22
921.7915910181211
 32
0.0
 13
9076.121241176464
 23
921.7915910181211
 33
0.0
  0
SOLID
  5
2E5
330
2DF
100
AcDbEntity
  8
0
 62
     0
100
AcDbTrace
 10
9111.621241176463
 20
922.2082576847878
 30
0.0
 11
9111.621241176463
 21
921.3749243514543
 31
0.0
 12
9114.121241176462
 22
921.7915910181211
 32
0.0
 13
9114.121241176462
 23
921.7915910181211
 33
0.0
  0
MTEXT
  5
2E6
330
2DF
100
AcDbEntity
  8
0
 62
     0
100
AcDbMText
 10
9095.121241176462
 20
927.4165910181212
 30
0.0
 40
10.0
 41
0.0
 46
0.0
 71
     5
 72
     1
  1
38
 73
     1
 44
1.0
  0
POINT
  5
2E7
330
2DF
100
AcDbEntity
  8
Defpoints
 62
     0
100
AcDbPoint
 10
9076.121241176464
 20
921.7915910181211
 30
0.0
  0
POINT
  5
2E8
330
2DF
100
AcDbEntity
  8
Defpoints
 62
     0
100
AcDbPoint
 10
9114.121241176462
 20
921.7915910181211
 30
0.0
  0
POINT
  5
2E9
330
2DF
100
AcDbEntity
  8
Defpoints
 62
     0
100
AcDbPoint
 10
9114.121241176462
 20
921.7915910181211
 30
0.0
  0
ENDBLK
  5
2EA
330
2DF
100
AcDbEntity
  8
0
 62
     3
100
AcDbBlockEnd
  0
BLOCK
  5
2EC
330
2EB
100
AcDbEntity
  8
0
 62
     3
100
AcDbBlockBegin
  2
*D39
 70
     1
 10
0.0
 20
0.0
 30
0.0
  3
*D39
  1

  0
LINE
  5
2ED
330
2EB
100
AcDbEntity
  8
0
 62
     0
370
    -2
100
AcDbLine
 10
8641.121241176461
 20
841.1188543927256
 30
0.0
 11
8641.121241176461
 21
671.2452485390954
 31
0.0
  0
LINE
  5
2EE
330
2EB
100
AcDbEntity
  8
0
 62
     0
370
    -2
100
AcDbLine
 10
9165.121241176462
 20
841.1188543927256
 30
0.0
 11
9165.121241176462
 21
671.2452485390954
 31
0.0
  0
LINE
  5
2EF
330
2EB
100
AcDbEntity
  8
0
 62
     0
370
    -2
100
AcDbLine
 10
8643.621241176463
 20
672.4952485390954
 30
0.0
 11
9162.621241176463
 21
672.4952485390954
 31
0.0
  0
SOLID
  5
2F0
330
2EB
100
AcDbEntity
  8
0
 62
     0
100
AcDbTrace
 10
8643.621241176463
 20
672.911915205762
 30
0.0
 11
8643.621241176463
 21
672.0785818724285
 31
0.0
 12
8641.121241176461
 22
672.4952485390954
 32
0.0
 13
8641.121241176461
 23
672.4952485390954
 33
0.0
  0
SOLID
  5
2F1
330
2EB
100
AcDbEntity
  8
0
 62
     0
100
AcDbTrace
 10
9162.621241176463
 20
672.911915205762
 30
0.0
 11
9162.621241176463
 21
672.0785818724285
 31
0.0
 12
9165.121241176462
 22
672.4952485390954
 32
0.0
 13
9165.121241176462
 23
672.4952485390954
 33
0.0
  0
MTEXT
  5
2F2
330
2EB
100
AcDbEntity
  8
0
 62
     0
100
AcDbMText
 10
8903.121241176462
 20
678.1202485390954
 30
0.0
 40
10.0
 41
0.0
 46
0.0
 71
     5
 72
     1
  1
524
 73
     1
 44
1.0
  0
POINT
  5
2F3
330
2EB
100
AcDbEntity
  8
Defpoints
 62
     0
100
AcDbPoint
 10
8641.121241176461
 20
841.7438543927257
 30
0.0
  0
POINT
  5
2F4
330
2EB
100
AcDbEntity
  8
Defpoints
 62
     0
100
AcDbPoint
 10
9165.121241176462
 20
841.7438543927257
 30
0.0
  0
POINT
  5
2F5
330
2EB
100
AcDbEntity
  8
Defpoints
 62
     0
100
AcDbPoint
 10
9165.121241176462
 20
672.4952485390954
 30
0.0
  0
ENDBLK
  5
2F6
330
2EB
100
AcDbEntity
  8
0
 62
     3
100
AcDbBlockEnd
  0
BLOCK
  5
2F8
330
2F7
100
AcDbEntity
  8
0
 62
     3
100
AcDbBlockBegin
  2
*D40
 70
     1
 10
0.0
 20
0.0
 30
0.0
  3
*D40
  1

  0
LINE
  5
2F9
330
2F7
100
AcDbEntity
  8
0
 62
     0
370
    -2
100
AcDbLine
 10
9063.246241176463
 20
739.2438543927256
 30
0.0
 11
9255.678468621852
 21
739.2438543927256
 31
0.0
  0
LINE
  5
2FA
330
2F7
100
AcDbEntity
  8
0
 62
     0
370
    -2
100
AcDbLine
 10
9063.246241176463
 20
1263.243854392726
 30
0.0
 11
9255.678468621852
 21
1263.243854392726
 31
0.0
  0
LINE
  5
2FB
330
2F7
100
AcDbEntity
  8
0
 62
     0
370
    -2
100
AcDbLine
 10
9254.428468621853
 20
741.743854392726
 30
0.0
 11
9254.428468621853
 21
1260.743854392726
 31
0.0
  0
SOLID
  5
2FC
330
2F7
100
AcDbEntity
  8
0
 62
     0
100
AcDbTrace
 10
9254.011801955186
 20
741.743854392726
 30
0.0
 11
9254.845135288515
 21
741.743854392726
 31
0.0
 12
9254.428468621853
 22
739.2438543927256
 32
0.0
 13
9254.428468621853
 23
739.2438543927256
 33
0.0
  0
SOLID
  5
2FD
330
2F7
100
AcDbEntity
  8
0
 62
     0
100
AcDbTrace
 10
9254.011801955186
 20
1260.743854392726
 30
0.0
 11
9254.845135288515
 21
1260.743854392726
 31
0.0
 12
9254.428468621853
 22
1263.243854392726
 32
0.0
 13
9254.428468621853
 23
1263.243854392726
 33
0.0
  0
MTEXT
  5
2FE
330
2F7
100
AcDbEntity
  8
0
 62
     0
100
AcDbMText
 10
9248.803468621852
 20
1001.243854392727
 30
0.0
 40
10.0
 41
0.0
 46
0.0
 71
     5
 72
     1
  1
524
 11
0.0000000000000001
 21
1.0
 31
0.0
 73
     1
 44
1.0
  0
POINT
  5
2FF
330
2F7
100
AcDbEntity
  8
Defpoints
 62
     0
100
AcDbPoint
 10
9062.621241176463
 20
739.2438543927256
 30
0.0
  0
POINT
  5
300
330
2F7
100
AcDbEntity
  8
Defpoints
 62
     0
100
AcDbPoint
 10
9062.621241176463
 20
1263.243854392726
 30
0.0
  0
POINT
  5
301
330
2F7
100
AcDbEntity
  8
Defpoints
 62
     0
100
AcDbPoint
 10
9254.428468621853
 20
1263.243854392726
 30
0.0
  0
ENDBLK
  5
302
330
2F7
100
AcDbEntity
  8
0
 62
     3
100
AcDbBlockEnd
  0
BLOCK
  5
7B4
330
7AA
100
AcDbEntity
  8
0
100
AcDbBlockBegin
  2
*D41
 70
     1
 10
0.0
 20
0.0
 30
0.0
  3
*D41
  1

  0
LINE
  5
A25
330
7AA
100
AcDbEntity
  8
0
 62
     0
370
    -2
100
AcDbLine
 10
1332.050830348029
 20
1036.113745582855
 30
0.0
 11
1332.050830348029
 21
1052.511859474124
 31
0.0
  0
LINE
  5
A26
330
7AA
100
AcDbEntity
  8
0
 62
     0
370
    -2
100
AcDbLine
 10
1592.050830348029
 20
1036.113745582855
 30
0.0
 11
1592.050830348029
 21
1052.511859474124
 31
0.0
  0
LINE
  5
A27
330
7AA
100
AcDbEntity
  8
0
 62
     0
370
    -2
100
AcDbLine
 10
1334.550830348029
 20
1051.261859474124
 30
0.0
 11
1589.550830348029
 21
1051.261859474124
 31
0.0
  0
SOLID
  5
A28
330
7AA
100
AcDbEntity
  8
0
 62
     0
100
AcDbTrace
 10
1334.550830348029
 20
1051.678526140791
 30
0.0
 11
1334.550830348029
 21
1050.845192807457
 31
0.0
 12
1332.050830348029
 22
1051.261859474124
 32
0.0
 13
1332.050830348029
 23
1051.261859474124
 33
0.0
  0
SOLID
  5
A29
330
7AA
100
AcDbEntity
  8
0
 62
     0
100
AcDbTrace
 10
1589.550830348029
 20
1051.678526140791
 30
0.0
 11
1589.550830348029
 21
1050.845192807457
 31
0.0
 12
1592.050830348029
 22
1051.261859474124
 32
0.0
 13
1592.050830348029
 23
1051.261859474124
 33
0.0
  0
MTEXT
  5
A2A
330
7AA
100
AcDbEntity
  8
0
 62
     0
100
AcDbMText
 10
1462.050830348029
 20
1056.886859474124
 30
0.0
 40
10.0
 41
0.0
 46
0.0
 71
     5
 72
     1
  1
260
 73
     1
 44
1.0
  0
POINT
  5
A2B
330
7AA
100
AcDbEntity
  8
Defpoints
 62
     0
100
AcDbPoint
 10
1332.050830348029
 20
1035.488745582855
 30
0.0
  0
POINT
  5
A2C
330
7AA
100
AcDbEntity
  8
Defpoints
 62
     0
100
AcDbPoint
 10
1592.050830348029
 20
1035.488745582855
 30
0.0
  0
POINT
  5
A2D
330
7AA
100
AcDbEntity
  8
Defpoints
 62
     0
100
AcDbPoint
 10
1592.050830348029
 20
1051.261859474124
 30
0.0
  0
ENDBLK
  5
7B5
330
7AA
100
AcDbEntity
  8
0
100
AcDbBlockEnd
  0
BLOCK
  5
7C0
330
7B6
100
AcDbEntity
  8
0
100
AcDbBlockBegin
  2
*D42
 70
     1
 10
0.0
 20
0.0
 30
0.0
  3
*D42
  1

  0
LINE
  5
A1C
330
7B6
100
AcDbEntity
  8
0
 62
     0
370
    -2
100
AcDbLine
 10
1538.837277020192
 20
1165.488745582855
 30
0.0
 11
1536.668899026832
 21
1165.488745582855
 31
0.0
  0
LINE
  5
A1D
330
7B6
100
AcDbEntity
  8
0
 62
     0
370
    -2
100
AcDbLine
 10
1538.837277020192
 20
905.4887455828557
 30
0.0
 11
1536.668899026832
 21
905.4887455828557
 31
0.0
  0
LINE
  5
A1E
330
7B6
100
AcDbEntity
  8
0
 62
     0
370
    -2
100
AcDbLine
 10
1537.918899026832
 20
1162.988745582855
 30
0.0
 11
1537.918899026832
 21
907.9887455828556
 31
0.0
  0
SOLID
  5
A1F
330
7B6
100
AcDbEntity
  8
0
 62
     0
100
AcDbTrace
 10
1537.502232360165
 20
1162.988745582855
 30
0.0
 11
1538.335565693498
 21
1162.988745582855
 31
0.0
 12
1537.918899026832
 22
1165.488745582855
 32
0.0
 13
1537.918899026832
 23
1165.488745582855
 33
0.0
  0
SOLID
  5
A20
330
7B6
100
AcDbEntity
  8
0
 62
     0
100
AcDbTrace
 10
1537.502232360165
 20
907.9887455828556
 30
0.0
 11
1538.335565693498
 21
907.9887455828556
 31
0.0
 12
1537.918899026832
 22
905.4887455828557
 32
0.0
 13
1537.918899026832
 23
905.4887455828557
 33
0.0
  0
MTEXT
  5
A21
330
7B6
100
AcDbEntity
  8
0
 62
     0
100
AcDbMText
 10
1532.293899026831
 20
1035.488745582855
 30
0.0
 40
10.0
 41
0.0
 46
0.0
 71
     5
 72
     1
  1
260
 11
0.0000000000000001
 21
1.0
 31
0.0
 73
     1
 44
1.0
  0
POINT
  5
A22
330
7B6
100
AcDbEntity
  8
Defpoints
 62
     0
100
AcDbPoint
 10
1539.462277020192
 20
1165.488745582855
 30
0.0
  0
POINT
  5
A23
330
7B6
100
AcDbEntity
  8
Defpoints
 62
     0
100
AcDbPoint
 10
1539.462277020192
 20
905.4887455828557
 30
0.0
  0
POINT
  5
A24
330
7B6
100
AcDbEntity
  8
Defpoints
 62
     0
100
AcDbPoint
 10
1537.918899026832
 20
905.4887455828557
 30
0.0
  0
ENDBLK
  5
7C1
330
7B6
100
AcDbEntity
  8
0
100
AcDbBlockEnd
  0
BLOCK
  5
7CC
330
7C2
100
AcDbEntity
  8
0
100
AcDbBlockBegin
  2
*D43
 70
     1
 10
0.0
 20
0.0
 30
0.0
  3
*D43
  1

  0
LINE
  5
13FB
330
7C2
100
AcDbEntity
  8
0
 62
     0
370
    -2
100
AcDbLine
 10
1592.050830348029
 20
1103.349412242823
 30
0.0
 11
1592.050830348029
 21
1091.928052687197
 31
0.0
  0
LINE
  5
13FC
330
7C2
100
AcDbEntity
  8
0
 62
     0
370
    -2
100
AcDbLine
 10
1762.050830348029
 20
1110.032871905507
 30
0.0
 11
1762.050830348029
 21
1091.928052687197
 31
0.0
  0
LINE
  5
13FD
330
7C2
100
AcDbEntity
  8
0
 62
     0
370
    -2
100
AcDbLine
 10
1594.550830348029
 20
1093.178052687197
 30
0.0
 11
1759.550830348029
 21
1093.178052687197
 31
0.0
  0
SOLID
  5
13FE
330
7C2
100
AcDbEntity
  8
0
 62
     0
100
AcDbTrace
 10
1594.550830348029
 20
1093.594719353863
 30
0.0
 11
1594.550830348029
 21
1092.76138602053
 31
0.0
 12
1592.050830348029
 22
1093.178052687197
 32
0.0
 13
1592.050830348029
 23
1093.178052687197
 33
0.0
  0
SOLID
  5
13FF
330
7C2
100
AcDbEntity
  8
0
 62
     0
100
AcDbTrace
 10
1759.550830348029
 20
1093.594719353863
 30
0.0
 11
1759.550830348029
 21
1092.76138602053
 31
0.0
 12
1762.050830348029
 22
1093.178052687197
 32
0.0
 13
1762.050830348029
 23
1093.178052687197
 33
0.0
  0
MTEXT
  5
1400
330
7C2
100
AcDbEntity
  8
0
 62
     0
100
AcDbMText
 10
1677.050830348029
 20
1098.803052687197
 30
0.0
 40
10.0
 41
0.0
 46
0.0
 71
     5
 72
     1
  1
170
 73
     1
 44
1.0
  0
POINT
  5
1401
330
7C2
100
AcDbEntity
  8
Defpoints
 62
     0
100
AcDbPoint
 10
1592.050830348029
 20
1103.974412242823
 30
0.0
  0
POINT
  5
1402
330
7C2
100
AcDbEntity
  8
Defpoints
 62
     0
100
AcDbPoint
 10
1762.050830348029
 20
1110.657871905507
 30
0.0
  0
POINT
  5
1403
330
7C2
100
AcDbEntity
  8
Defpoints
 62
     0
100
AcDbPoint
 10
1762.050830348029
 20
1093.178052687197
 30
0.0
  0
ENDBLK
  5
7CD
330
7C2
100
AcDbEntity
  8
0
100
AcDbBlockEnd
  0
BLOCK
  5
7D8
330
7CE
100
AcDbEntity
  8
0
100
AcDbBlockBegin
  2
*D44
 70
     1
 10
0.0
 20
0.0
 30
0.0
  3
*D44
  1

  0
LINE
  5
140D
330
7CE
100
AcDbEntity
  8
0
 62
     0
370
    -2
100
AcDbLine
 10
1162.050830348028
 20
819.8637455828556
 30
0.0
 11
1162.050830348028
 21
683.4572678458052
 31
0.0
  0
LINE
  5
140E
330
7CE
100
AcDbEntity
  8
0
 62
     0
370
    -2
100
AcDbLine
 10
1762.050830348029
 20
819.8637455828556
 30
0.0
 11
1762.050830348029
 21
683.4572678458052
 31
0.0
  0
LINE
  5
140F
330
7CE
100
AcDbEntity
  8
0
 62
     0
370
    -2
100
AcDbLine
 10
1164.550830348028
 20
684.7072678458049
 30
0.0
 11
1759.550830348029
 21
684.7072678458049
 31
0.0
  0
SOLID
  5
1410
330
7CE
100
AcDbEntity
  8
0
 62
     0
100
AcDbTrace
 10
1164.550830348028
 20
685.1239345124715
 30
0.0
 11
1164.550830348028
 21
684.2906011791384
 31
0.0
 12
1162.050830348028
 22
684.7072678458049
 32
0.0
 13
1162.050830348028
 23
684.7072678458049
 33
0.0
  0
SOLID
  5
1411
330
7CE
100
AcDbEntity
  8
0
 62
     0
100
AcDbTrace
 10
1759.550830348029
 20
685.1239345124715
 30
0.0
 11
1759.550830348029
 21
684.2906011791384
 31
0.0
 12
1762.050830348029
 22
684.7072678458049
 32
0.0
 13
1762.050830348029
 23
684.7072678458049
 33
0.0
  0
MTEXT
  5
1412
330
7CE
100
AcDbEntity
  8
0
 62
     0
100
AcDbMText
 10
1462.050830348028
 20
690.332267845805
 30
0.0
 40
10.0
 41
0.0
 46
0.0
 71
     5
 72
     1
  1
600
 73
     1
 44
1.0
  0
POINT
  5
1413
330
7CE
100
AcDbEntity
  8
Defpoints
 62
     0
100
AcDbPoint
 10
1162.050830348028
 20
820.4887455828556
 30
0.0
  0
POINT
  5
1414
330
7CE
100
AcDbEntity
  8
Defpoints
 62
     0
100
AcDbPoint
 10
1762.050830348029
 20
820.4887455828556
 30
0.0
  0
POINT
  5
1415
330
7CE
100
AcDbEntity
  8
Defpoints
 62
     0
100
AcDbPoint
 10
1762.050830348029
 20
684.7072678458049
 30
0.0
  0
ENDBLK
  5
7D9
330
7CE
100
AcDbEntity
  8
0
100
AcDbBlockEnd
  0
BLOCK
  5
7E4
330
7DA
100
AcDbEntity
  8
0
100
AcDbBlockBegin
  2
*D45
 70
     1
 10
0.0
 20
0.0
 30
0.0
  3
*D45
  1

  0
LINE
  5
1404
330
7DA
100
AcDbEntity
  8
0
 62
     0
370
    -2
100
AcDbLine
 10
1331.425830348029
 20
735.4887455828556
 30
0.0
 11
1052.857783528378
 21
735.4887455828556
 31
0.0
  0
LINE
  5
1405
330
7DA
100
AcDbEntity
  8
0
 62
     0
370
    -2
100
AcDbLine
 10
1331.425830348029
 20
1335.488745582856
 30
0.0
 11
1052.857783528378
 21
1335.488745582856
 31
0.0
  0
LINE
  5
1406
330
7DA
100
AcDbEntity
  8
0
 62
     0
370
    -2
100
AcDbLine
 10
1054.107783528378
 20
737.9887455828557
 30
0.0
 11
1054.107783528378
 21
1332.988745582856
 31
0.0
  0
SOLID
  5
1407
330
7DA
100
AcDbEntity
  8
0
 62
     0
100
AcDbTrace
 10
1053.691116861711
 20
737.9887455828557
 30
0.0
 11
1054.524450195045
 21
737.9887455828557
 31
0.0
 12
1054.107783528378
 22
735.4887455828556
 32
0.0
 13
1054.107783528378
 23
735.4887455828556
 33
0.0
  0
SOLID
  5
1408
330
7DA
100
AcDbEntity
  8
0
 62
     0
100
AcDbTrace
 10
1053.691116861711
 20
1332.988745582856
 30
0.0
 11
1054.524450195045
 21
1332.988745582856
 31
0.0
 12
1054.107783528378
 22
1335.488745582856
 32
0.0
 13
1054.107783528378
 23
1335.488745582856
 33
0.0
  0
MTEXT
  5
1409
330
7DA
100
AcDbEntity
  8
0
 62
     0
100
AcDbMText
 10
1048.482783528378
 20
1035.488745582856
 30
0.0
 40
10.0
 41
0.0
 46
0.0
 71
     5
 72
     1
  1
600
 11
0.0000000000000001
 21
1.0
 31
0.0
 73
     1
 44
1.0
  0
POINT
  5
140A
330
7DA
100
AcDbEntity
  8
Defpoints
 62
     0
100
AcDbPoint
 10
1332.050830348029
 20
735.4887455828556
 30
0.0
  0
POINT
  5
140B
330
7DA
100
AcDbEntity
  8
Defpoints
 62
     0
100
AcDbPoint
 10
1332.050830348029
 20
1335.488745582856
 30
0.0
  0
POINT
  5
140C
330
7DA
100
AcDbEntity
  8
Defpoints
 62
     0
100
AcDbPoint
 10
1054.107783528378
 20
1335.488745582856
 30
0.0
  0
ENDBLK
  5
7E5
330
7DA
100
AcDbEntity
  8
0
100
AcDbBlockEnd
  0
BLOCK
  5
7F0
330
7E6
100
AcDbEntity
  8
0
100
AcDbBlockBegin
  2
*D46
 70
     1
 10
0.0
 20
0.0
 30
0.0
  3
*D46
  1

  0
LINE
  5
A52
330
7E6
100
AcDbEntity
  8
0
 62
     0
370
    -2
100
AcDbLine
 10
1905.604223962033
 20
1023.881934299221
 30
0.0
 11
1905.604223962033
 21
1024.506934299221
 31
0.0
  0
LINE
  5
A53
330
7E6
100
AcDbEntity
  8
0
 62
     0
370
    -2
100
AcDbLine
 10
2171.604223962033
 20
1023.881934299221
 30
0.0
 11
2171.604223962033
 21
1024.506934299221
 31
0.0
  0
LINE
  5
A54
330
7E6
100
AcDbEntity
  8
0
 62
     0
370
    -2
100
AcDbLine
 10
1908.104223962033
 20
1023.256934299221
 30
0.0
 11
2169.104223962033
 21
1023.256934299221
 31
0.0
  0
SOLID
  5
A55
330
7E6
100
AcDbEntity
  8
0
 62
     0
100
AcDbTrace
 10
1908.104223962033
 20
1023.673600965887
 30
0.0
 11
1908.104223962033
 21
1022.840267632554
 31
0.0
 12
1905.604223962033
 22
1023.256934299221
 32
0.0
 13
1905.604223962033
 23
1023.256934299221
 33
0.0
  0
SOLID
  5
A56
330
7E6
100
AcDbEntity
  8
0
 62
     0
100
AcDbTrace
 10
2169.104223962033
 20
1023.673600965887
 30
0.0
 11
2169.104223962033
 21
1022.840267632554
 31
0.0
 12
2171.604223962033
 22
1023.256934299221
 32
0.0
 13
2171.604223962033
 23
1023.256934299221
 33
0.0
  0
MTEXT
  5
A57
330
7E6
100
AcDbEntity
  8
0
 62
     0
100
AcDbMText
 10
2038.604223962034
 20
1028.881934299221
 30
0.0
 40
10.0
 41
0.0
 46
0.0
 71
     5
 72
     1
  1
266
 73
     1
 44
1.0
  0
POINT
  5
A58
330
7E6
100
AcDbEntity
  8
Defpoints
 62
     0
100
AcDbPoint
 10
1905.604223962033
 20
1023.256934299221
 30
0.0
  0
POINT
  5
A59
330
7E6
100
AcDbEntity
  8
Defpoints
 62
     0
100
AcDbPoint
 10
2171.604223962033
 20
1023.256934299221
 30
0.0
  0
POINT
  5
A5A
330
7E6
100
AcDbEntity
  8
Defpoints
 62
     0
100
AcDbPoint
 10
2171.604223962033
 20
1023.256934299221
 30
0.0
  0
ENDBLK
  5
7F1
330
7E6
100
AcDbEntity
  8
0
100
AcDbBlockEnd
  0
BLOCK
  5
7FC
330
7F2
100
AcDbEntity
  8
0
100
AcDbBlockBegin
  2
*D47
 70
     1
 10
0.0
 20
0.0
 30
0.0
  3
*D47
  1

  0
LINE
  5
A49
330
7F2
100
AcDbEntity
  8
0
 62
     0
370
    -2
100
AcDbLine
 10
2125.02217510757
 20
1172.120346887275
 30
0.0
 11
2134.857234136814
 21
1172.120346887275
 31
0.0
  0
LINE
  5
A4A
330
7F2
100
AcDbEntity
  8
0
 62
     0
370
    -2
100
AcDbLine
 10
2125.02217510757
 20
906.120346887276
 30
0.0
 11
2134.857234136813
 21
906.120346887276
 31
0.0
  0
LINE
  5
A4B
330
7F2
100
AcDbEntity
  8
0
 62
     0
370
    -2
100
AcDbLine
 10
2133.607234136814
 20
1169.620346887275
 30
0.0
 11
2133.607234136813
 21
908.620346887276
 31
0.0
  0
SOLID
  5
A4C
330
7F2
100
AcDbEntity
  8
0
 62
     0
100
AcDbTrace
 10
2133.190567470147
 20
1169.620346887275
 30
0.0
 11
2134.02390080348
 21
1169.620346887275
 31
0.0
 12
2133.607234136814
 22
1172.120346887275
 32
0.0
 13
2133.607234136814
 23
1172.120346887275
 33
0.0
  0
SOLID
  5
A4D
330
7F2
100
AcDbEntity
  8
0
 62
     0
100
AcDbTrace
 10
2133.190567470147
 20
908.620346887276
 30
0.0
 11
2134.02390080348
 21
908.620346887276
 31
0.0
 12
2133.607234136813
 22
906.120346887276
 32
0.0
 13
2133.607234136813
 23
906.120346887276
 33
0.0
  0
MTEXT
  5
A4E
330
7F2
100
AcDbEntity
  8
0
 62
     0
100
AcDbMText
 10
2127.982234136813
 20
1039.120346887275
 30
0.0
 40
10.0
 41
0.0
 46
0.0
 71
     5
 72
     1
  1
266
 11
0.0000000000000001
 21
1.0
 31
0.0
 73
     1
 44
1.0
  0
POINT
  5
A4F
330
7F2
100
AcDbEntity
  8
Defpoints
 62
     0
100
AcDbPoint
 10
2124.39717510757
 20
1172.120346887275
 30
0.0
  0
POINT
  5
A50
330
7F2
100
AcDbEntity
  8
Defpoints
 62
     0
100
AcDbPoint
 10
2124.39717510757
 20
906.120346887276
 30
0.0
  0
POINT
  5
A51
330
7F2
100
AcDbEntity
  8
Defpoints
 62
     0
100
AcDbPoint
 10
2133.607234136813
 20
906.120346887276
 30
0.0
  0
ENDBLK
  5
7FD
330
7F2
100
AcDbEntity
  8
0
100
AcDbBlockEnd
  0
BLOCK
  5
808
330
7FE
100
AcDbEntity
  8
0
100
AcDbBlockBegin
  2
*D48
 70
     1
 10
0.0
 20
0.0
 30
0.0
  3
*D48
  1

  0
LINE
  5
A5B
330
7FE
100
AcDbEntity
  8
0
 62
     0
370
    -2
100
AcDbLine
 10
2171.604223962033
 20
978.6635490328112
 30
0.0
 11
2171.604223962033
 21
979.2885490328112
 31
0.0
  0
LINE
  5
A5C
330
7FE
100
AcDbEntity
  8
0
 62
     0
370
    -2
100
AcDbLine
 10
2209.604223962033
 20
978.6635490328112
 30
0.0
 11
2209.604223962033
 21
979.2885490328112
 31
0.0
  0
LINE
  5
A5D
330
7FE
100
AcDbEntity
  8
0
 62
     0
370
    -2
100
AcDbLine
 10
2174.104223962034
 20
978.0385490328113
 30
0.0
 11
2207.104223962033
 21
978.0385490328113
 31
0.0
  0
SOLID
  5
A5E
330
7FE
100
AcDbEntity
  8
0
 62
     0
100
AcDbTrace
 10
2174.104223962034
 20
978.4552156994779
 30
0.0
 11
2174.104223962034
 21
977.6218823661444
 31
0.0
 12
2171.604223962033
 22
978.0385490328113
 32
0.0
 13
2171.604223962033
 23
978.0385490328113
 33
0.0
  0
SOLID
  5
A5F
330
7FE
100
AcDbEntity
  8
0
 62
     0
100
AcDbTrace
 10
2207.104223962033
 20
978.4552156994779
 30
0.0
 11
2207.104223962033
 21
977.6218823661444
 31
0.0
 12
2209.604223962033
 22
978.0385490328113
 32
0.0
 13
2209.604223962033
 23
978.0385490328113
 33
0.0
  0
MTEXT
  5
A60
330
7FE
100
AcDbEntity
  8
0
 62
     0
100
AcDbMText
 10
2190.604223962033
 20
983.6635490328113
 30
0.0
 40
10.0
 41
0.0
 46
0.0
 71
     5
 72
     1
  1
38
 73
     1
 44
1.0
  0
POINT
  5
A61
330
7FE
100
AcDbEntity
  8
Defpoints
 62
     0
100
AcDbPoint
 10
2171.604223962033
 20
978.0385490328113
 30
0.0
  0
POINT
  5
A62
330
7FE
100
AcDbEntity
  8
Defpoints
 62
     0
100
AcDbPoint
 10
2209.604223962033
 20
978.0385490328113
 30
0.0
  0
POINT
  5
A63
330
7FE
100
AcDbEntity
  8
Defpoints
 62
     0
100
AcDbPoint
 10
2209.604223962033
 20
978.0385490328113
 30
0.0
  0
ENDBLK
  5
809
330
7FE
100
AcDbEntity
  8
0
100
AcDbBlockEnd
  0
BLOCK
  5
814
330
80A
100
AcDbEntity
  8
0
100
AcDbBlockBegin
  2
*D49
 70
     1
 10
0.0
 20
0.0
 30
0.0
  3
*D49
  1

  0
LINE
  5
A40
330
80A
100
AcDbEntity
  8
0
 62
     0
370
    -2
100
AcDbLine
 10
1816.604223962032
 20
918.995346887276
 30
0.0
 11
1816.604223962032
 21
749.1217410336457
 31
0.0
  0
LINE
  5
A41
330
80A
100
AcDbEntity
  8
0
 62
     0
370
    -2
100
AcDbLine
 10
2260.604223962033
 20
918.995346887276
 30
0.0
 11
2260.604223962033
 21
749.1217410336457
 31
0.0
  0
LINE
  5
A42
330
80A
100
AcDbEntity
  8
0
 62
     0
370
    -2
100
AcDbLine
 10
1819.104223962032
 20
750.3717410336458
 30
0.0
 11
2258.104223962034
 21
750.3717410336458
 31
0.0
  0
SOLID
  5
A43
330
80A
100
AcDbEntity
  8
0
 62
     0
100
AcDbTrace
 10
1819.104223962032
 20
750.7884077003121
 30
0.0
 11
1819.104223962032
 21
749.955074366979
 31
0.0
 12
1816.604223962032
 22
750.3717410336458
 32
0.0
 13
1816.604223962032
 23
750.3717410336458
 33
0.0
  0
SOLID
  5
A44
330
80A
100
AcDbEntity
  8
0
 62
     0
100
AcDbTrace
 10
2258.104223962034
 20
750.7884077003121
 30
0.0
 11
2258.104223962034
 21
749.955074366979
 31
0.0
 12
2260.604223962033
 22
750.3717410336458
 32
0.0
 13
2260.604223962033
 23
750.3717410336458
 33
0.0
  0
MTEXT
  5
A45
330
80A
100
AcDbEntity
  8
0
 62
     0
100
AcDbMText
 10
2038.604223962033
 20
755.9967410336457
 30
0.0
 40
10.0
 41
0.0
 46
0.0
 71
     5
 72
     1
  1
444
 73
     1
 44
1.0
  0
POINT
  5
A46
330
80A
100
AcDbEntity
  8
Defpoints
 62
     0
100
AcDbPoint
 10
1816.604223962032
 20
919.6203468872759
 30
0.0
  0
POINT
  5
A47
330
80A
100
AcDbEntity
  8
Defpoints
 62
     0
100
AcDbPoint
 10
2260.604223962033
 20
919.6203468872759
 30
0.0
  0
POINT
  5
A48
330
80A
100
AcDbEntity
  8
Defpoints
 62
     0
100
AcDbPoint
 10
2260.604223962033
 20
750.3717410336458
 30
0.0
  0
ENDBLK
  5
815
330
80A
100
AcDbEntity
  8
0
100
AcDbBlockEnd
  0
BLOCK
  5
820
330
816
100
AcDbEntity
  8
0
100
AcDbBlockBegin
  2
*D50
 70
     1
 10
0.0
 20
0.0
 30
0.0
  3
*D50
  1

  0
LINE
  5
9AF
330
816
100
AcDbEntity
  8
0
 62
     0
370
    -2
100
AcDbLine
 10
2167.287881010944
 20
812.1790039361865
 30
0.0
 11
2359.720108456333
 21
812.1790039361865
 31
0.0
  0
LINE
  5
9B0
330
816
100
AcDbEntity
  8
0
 62
     0
370
    -2
100
AcDbLine
 10
2167.287881010945
 20
1266.061689838365
 30
0.0
 11
2359.720108456333
 21
1266.061689838365
 31
0.0
  0
LINE
  5
9B1
330
816
100
AcDbEntity
  8
0
 62
     0
370
    -2
100
AcDbLine
 10
2358.470108456333
 20
814.6790039361865
 30
0.0
 11
2358.470108456334
 21
1263.561689838365
 31
0.0
  0
SOLID
  5
9B2
330
816
100
AcDbEntity
  8
0
 62
     0
100
AcDbTrace
 10
2358.053441789667
 20
814.6790039361865
 30
0.0
 11
2358.886775123
 21
814.6790039361865
 31
0.0
 12
2358.470108456333
 22
812.1790039361865
 32
0.0
 13
2358.470108456333
 23
812.1790039361865
 33
0.0
  0
SOLID
  5
9B3
330
816
100
AcDbEntity
  8
0
 62
     0
100
AcDbTrace
 10
2358.053441789667
 20
1263.561689838365
 30
0.0
 11
2358.886775123
 21
1263.561689838365
 31
0.0
 12
2358.470108456334
 22
1266.061689838365
 32
0.0
 13
2358.470108456334
 23
1266.061689838365
 33
0.0
  0
MTEXT
  5
9B4
330
816
100
AcDbEntity
  8
0
 62
     0
100
AcDbMText
 10
2356.386775123
 20
1039.120346887276
 30
0.0
 40
2.5
 41
0.0
 46
0.0
 71
     5
 72
     1
  1
453,88
 11
0.0000000000000001
 21
1.0
 31
0.0
 73
     1
 44
1.0
  0
POINT
  5
9B5
330
816
100
AcDbEntity
  8
Defpoints
 62
     0
100
AcDbPoint
 10
2166.662881010944
 20
812.1790039361865
 30
0.0
  0
POINT
  5
9B6
330
816
100
AcDbEntity
  8
Defpoints
 62
     0
100
AcDbPoint
 10
2166.662881010945
 20
1266.061689838365
 30
0.0
  0
POINT
  5
9B7
330
816
100
AcDbEntity
  8
Defpoints
 62
     0
100
AcDbPoint
 10
2358.470108456334
 20
1266.061689838365
 30
0.0
  0
ENDBLK
  5
821
330
816
100
AcDbEntity
  8
0
100
AcDbBlockEnd
  0
BLOCK
  5
82C
330
822
100
AcDbEntity
  8
0
100
AcDbBlockBegin
  2
*D51
 70
     1
 10
0.0
 20
0.0
 30
0.0
  3
*D51
  1

  0
LINE
  5
823
330
822
100
AcDbEntity
  8
0
 62
     0
370
    -2
100
AcDbLine
 10
3149.058768510207
 20
1035.872093191806
 30
0.0
 11
3149.058768510207
 21
1052.270207083075
 31
0.0
  0
LINE
  5
824
330
822
100
AcDbEntity
  8
0
 62
     0
370
    -2
100
AcDbLine
 10
3424.058768510207
 20
1035.872093191806
 30
0.0
 11
3424.058768510207
 21
1052.270207083075
 31
0.0
  0
LINE
  5
825
330
822
100
AcDbEntity
  8
0
 62
     0
370
    -2
100
AcDbLine
 10
3151.558768510207
 20
1051.020207083075
 30
0.0
 11
3421.558768510209
 21
1051.020207083075
 31
0.0
  0
SOLID
  5
826
330
822
100
AcDbEntity
  8
0
 62
     0
100
AcDbTrace
 10
3151.558768510207
 20
1051.436873749742
 30
0.0
 11
3151.558768510207
 21
1050.603540416409
 31
0.0
 12
3149.058768510207
 22
1051.020207083075
 32
0.0
 13
3149.058768510207
 23
1051.020207083075
 33
0.0
  0
SOLID
  5
827
330
822
100
AcDbEntity
  8
0
 62
     0
100
AcDbTrace
 10
3421.558768510209
 20
1051.436873749742
 30
0.0
 11
3421.558768510209
 21
1050.603540416409
 31
0.0
 12
3424.058768510207
 22
1051.020207083075
 32
0.0
 13
3424.058768510207
 23
1051.020207083075
 33
0.0
  0
MTEXT
  5
828
330
822
100
AcDbEntity
  8
0
 62
     0
100
AcDbMText
 10
3286.558768510206
 20
1052.895207083075
 30
0.0
 40
2.5
 41
0.0
 46
0.0
 71
     5
 72
     1
  1
275
 73
     1
 44
1.0
  0
POINT
  5
829
330
822
100
AcDbEntity
  8
Defpoints
 62
     0
100
AcDbPoint
 10
3149.058768510207
 20
1035.247093191806
 30
0.0
  0
POINT
  5
82A
330
822
100
AcDbEntity
  8
Defpoints
 62
     0
100
AcDbPoint
 10
3424.058768510207
 20
1035.247093191806
 30
0.0
  0
POINT
  5
82B
330
822
100
AcDbEntity
  8
Defpoints
 62
     0
100
AcDbPoint
 10
3424.058768510207
 20
1051.020207083075
 30
0.0
  0
ENDBLK
  5
82D
330
822
100
AcDbEntity
  8
0
100
AcDbBlockEnd
  0
BLOCK
  5
838
330
82E
100
AcDbEntity
  8
0
100
AcDbBlockBegin
  2
*D52
 70
     1
 10
0.0
 20
0.0
 30
0.0
  3
*D52
  1

  0
LINE
  5
82F
330
82E
100
AcDbEntity
  8
0
 62
     0
370
    -2
100
AcDbLine
 10
3367.811260182686
 20
1172.747093191806
 30
0.0
 11
3365.642882189327
 21
1172.747093191806
 31
0.0
  0
LINE
  5
830
330
82E
100
AcDbEntity
  8
0
 62
     0
370
    -2
100
AcDbLine
 10
3367.811260182686
 20
897.7470931918061
 30
0.0
 11
3365.642882189326
 21
897.7470931918061
 31
0.0
  0
LINE
  5
831
330
82E
100
AcDbEntity
  8
0
 62
     0
370
    -2
100
AcDbLine
 10
3366.892882189327
 20
1170.247093191806
 30
0.0
 11
3366.892882189326
 21
900.2470931918065
 31
0.0
  0
SOLID
  5
832
330
82E
100
AcDbEntity
  8
0
 62
     0
100
AcDbTrace
 10
3366.47621552266
 20
1170.247093191806
 30
0.0
 11
3367.309548855993
 21
1170.247093191806
 31
0.0
 12
3366.892882189327
 22
1172.747093191806
 32
0.0
 13
3366.892882189327
 23
1172.747093191806
 33
0.0
  0
SOLID
  5
833
330
82E
100
AcDbEntity
  8
0
 62
     0
100
AcDbTrace
 10
3366.47621552266
 20
900.2470931918065
 30
0.0
 11
3367.309548855992
 21
900.2470931918065
 31
0.0
 12
3366.892882189326
 22
897.7470931918061
 32
0.0
 13
3366.892882189326
 23
897.7470931918061
 33
0.0
  0
MTEXT
  5
834
330
82E
100
AcDbEntity
  8
0
 62
     0
100
AcDbMText
 10
3365.017882189326
 20
1035.247093191807
 30
0.0
 40
2.5
 41
0.0
 46
0.0
 71
     5
 72
     1
  1
275
 11
0.0000000000000001
 21
1.0
 31
0.0
 73
     1
 44
1.0
  0
POINT
  5
835
330
82E
100
AcDbEntity
  8
Defpoints
 62
     0
100
AcDbPoint
 10
3368.436260182686
 20
1172.747093191806
 30
0.0
  0
POINT
  5
836
330
82E
100
AcDbEntity
  8
Defpoints
 62
     0
100
AcDbPoint
 10
3368.436260182686
 20
897.7470931918061
 30
0.0
  0
POINT
  5
837
330
82E
100
AcDbEntity
  8
Defpoints
 62
     0
100
AcDbPoint
 10
3366.892882189326
 20
897.7470931918061
 30
0.0
  0
ENDBLK
  5
839
330
82E
100
AcDbEntity
  8
0
100
AcDbBlockEnd
  0
BLOCK
  5
844
330
83A
100
AcDbEntity
  8
0
100
AcDbBlockBegin
  2
*D53
 70
     1
 10
0.0
 20
0.0
 30
0.0
  3
*D53
  1

  0
LINE
  5
83B
330
83A
100
AcDbEntity
  8
0
 62
     0
370
    -2
100
AcDbLine
 10
3424.058768510207
 20
1107.058856005234
 30
0.0
 11
3424.058768510207
 21
1095.637496449608
 31
0.0
  0
LINE
  5
83C
330
83A
100
AcDbEntity
  8
0
 62
     0
370
    -2
100
AcDbLine
 10
3589.058768510206
 20
1112.413398339667
 30
0.0
 11
3589.058768510206
 21
1095.637496449608
 31
0.0
  0
LINE
  5
83D
330
83A
100
AcDbEntity
  8
0
 62
     0
370
    -2
100
AcDbLine
 10
3426.558768510207
 20
1096.887496449608
 30
0.0
 11
3586.558768510207
 21
1096.887496449608
 31
0.0
  0
SOLID
  5
83E
330
83A
100
AcDbEntity
  8
0
 62
     0
100
AcDbTrace
 10
3426.558768510207
 20
1097.304163116275
 30
0.0
 11
3426.558768510207
 21
1096.470829782941
 31
0.0
 12
3424.058768510207
 22
1096.887496449608
 32
0.0
 13
3424.058768510207
 23
1096.887496449608
 33
0.0
  0
SOLID
  5
83F
330
83A
100
AcDbEntity
  8
0
 62
     0
100
AcDbTrace
 10
3586.558768510207
 20
1097.304163116275
 30
0.0
 11
3586.558768510207
 21
1096.470829782941
 31
0.0
 12
3589.058768510206
 22
1096.887496449608
 32
0.0
 13
3589.058768510206
 23
1096.887496449608
 33
0.0
  0
MTEXT
  5
840
330
83A
100
AcDbEntity
  8
0
 62
     0
100
AcDbMText
 10
3506.558768510205
 20
1098.762496449608
 30
0.0
 40
2.5
 41
0.0
 46
0.0
 71
     5
 72
     1
  1
165
 73
     1
 44
1.0
  0
POINT
  5
841
330
83A
100
AcDbEntity
  8
Defpoints
 62
     0
100
AcDbPoint
 10
3424.058768510207
 20
1107.683856005234
 30
0.0
  0
POINT
  5
842
330
83A
100
AcDbEntity
  8
Defpoints
 62
     0
100
AcDbPoint
 10
3589.058768510206
 20
1113.038398339667
 30
0.0
  0
POINT
  5
843
330
83A
100
AcDbEntity
  8
Defpoints
 62
     0
100
AcDbPoint
 10
3589.058768510206
 20
1096.887496449608
 30
0.0
  0
ENDBLK
  5
845
330
83A
100
AcDbEntity
  8
0
100
AcDbBlockEnd
  0
BLOCK
  5
850
330
846
100
AcDbEntity
  8
0
100
AcDbBlockBegin
  2
*D54
 70
     1
 10
0.0
 20
0.0
 30
0.0
  3
*D54
  1

  0
LINE
  5
847
330
846
100
AcDbEntity
  8
0
 62
     0
370
    -2
100
AcDbLine
 10
2984.058768510205
 20
812.1220931918065
 30
0.0
 11
2984.058768510205
 21
686.340615454756
 31
0.0
  0
LINE
  5
848
330
846
100
AcDbEntity
  8
0
 62
     0
370
    -2
100
AcDbLine
 10
3589.058768510206
 20
812.1220931918065
 30
0.0
 11
3589.058768510206
 21
686.340615454756
 31
0.0
  0
LINE
  5
849
330
846
100
AcDbEntity
  8
0
 62
     0
370
    -2
100
AcDbLine
 10
2986.558768510205
 20
687.5906154547561
 30
0.0
 11
3586.558768510207
 21
687.5906154547561
 31
0.0
  0
SOLID
  5
84A
330
846
100
AcDbEntity
  8
0
 62
     0
100
AcDbTrace
 10
2986.558768510205
 20
688.0072821214227
 30
0.0
 11
2986.558768510205
 21
687.1739487880891
 31
0.0
 12
2984.058768510205
 22
687.5906154547561
 32
0.0
 13
2984.058768510205
 23
687.5906154547561
 33
0.0
  0
SOLID
  5
84B
330
846
100
AcDbEntity
  8
0
 62
     0
100
AcDbTrace
 10
3586.558768510207
 20
688.0072821214227
 30
0.0
 11
3586.558768510207
 21
687.1739487880891
 31
0.0
 12
3589.058768510206
 22
687.5906154547561
 32
0.0
 13
3589.058768510206
 23
687.5906154547561
 33
0.0
  0
MTEXT
  5
84C
330
846
100
AcDbEntity
  8
0
 62
     0
100
AcDbMText
 10
3286.558768510206
 20
689.465615454756
 30
0.0
 40
2.5
 41
0.0
 46
0.0
 71
     5
 72
     1
  1
605
 73
     1
 44
1.0
  0
POINT
  5
84D
330
846
100
AcDbEntity
  8
Defpoints
 62
     0
100
AcDbPoint
 10
2984.058768510205
 20
812.7470931918065
 30
0.0
  0
POINT
  5
84E
330
846
100
AcDbEntity
  8
Defpoints
 62
     0
100
AcDbPoint
 10
3589.058768510206
 20
812.7470931918065
 30
0.0
  0
POINT
  5
84F
330
846
100
AcDbEntity
  8
Defpoints
 62
     0
100
AcDbPoint
 10
3589.058768510206
 20
687.5906154547561
 30
0.0
  0
ENDBLK
  5
851
330
846
100
AcDbEntity
  8
0
100
AcDbBlockEnd
  0
BLOCK
  5
85C
330
852
100
AcDbEntity
  8
0
100
AcDbBlockBegin
  2
*D55
 70
     1
 10
0.0
 20
0.0
 30
0.0
  3
*D55
  1

  0
LINE
  5
853
330
852
100
AcDbEntity
  8
0
 62
     0
370
    -2
100
AcDbLine
 10
3148.433768510205
 20
732.7470931918061
 30
0.0
 11
2889.865721690555
 21
732.7470931918061
 31
0.0
  0
LINE
  5
854
330
852
100
AcDbEntity
  8
0
 62
     0
370
    -2
100
AcDbLine
 10
3148.433768510205
 20
1337.747093191806
 30
0.0
 11
2889.865721690555
 21
1337.747093191806
 31
0.0
  0
LINE
  5
855
330
852
100
AcDbEntity
  8
0
 62
     0
370
    -2
100
AcDbLine
 10
2891.115721690555
 20
735.2470931918061
 30
0.0
 11
2891.115721690555
 21
1335.247093191806
 31
0.0
  0
SOLID
  5
856
330
852
100
AcDbEntity
  8
0
 62
     0
100
AcDbTrace
 10
2890.699055023888
 20
735.2470931918061
 30
0.0
 11
2891.532388357221
 21
735.2470931918061
 31
0.0
 12
2891.115721690555
 22
732.7470931918061
 32
0.0
 13
2891.115721690555
 23
732.7470931918061
 33
0.0
  0
SOLID
  5
857
330
852
100
AcDbEntity
  8
0
 62
     0
100
AcDbTrace
 10
2890.69905502389
 20
1335.247093191806
 30
0.0
 11
2891.532388357223
 21
1335.247093191806
 31
0.0
 12
2891.115721690555
 22
1337.747093191806
 32
0.0
 13
2891.115721690555
 23
1337.747093191806
 33
0.0
  0
MTEXT
  5
858
330
852
100
AcDbEntity
  8
0
 62
     0
100
AcDbMText
 10
2889.240721690555
 20
1035.247093191807
 30
0.0
 40
2.5
 41
0.0
 46
0.0
 71
     5
 72
     1
  1
605
 11
0.0000000000000001
 21
1.0
 31
0.0
 73
     1
 44
1.0
  0
POINT
  5
859
330
852
100
AcDbEntity
  8
Defpoints
 62
     0
100
AcDbPoint
 10
3149.058768510207
 20
732.7470931918061
 30
0.0
  0
POINT
  5
85A
330
852
100
AcDbEntity
  8
Defpoints
 62
     0
100
AcDbPoint
 10
3149.058768510207
 20
1337.747093191806
 30
0.0
  0
POINT
  5
85B
330
852
100
AcDbEntity
  8
Defpoints
 62
     0
100
AcDbPoint
 10
2891.115721690555
 20
1337.747093191806
 30
0.0
  0
ENDBLK
  5
85D
330
852
100
AcDbEntity
  8
0
100
AcDbBlockEnd
  0
BLOCK
  5
868
330
85E
100
AcDbEntity
  8
0
100
AcDbBlockBegin
  2
*D56
 70
     1
 10
0.0
 20
0.0
 30
0.0
  3
*D56
  1

  0
LINE
  5
85F
330
85E
100
AcDbEntity
  8
0
 62
     0
370
    -2
100
AcDbLine
 10
3730.112162124209
 20
1030.245728566741
 30
0.0
 11
3730.112162124209
 21
1030.87072856674
 31
0.0
  0
LINE
  5
860
330
85E
100
AcDbEntity
  8
0
 62
     0
370
    -2
100
AcDbLine
 10
4011.112162124208
 20
1030.245728566741
 30
0.0
 11
4011.112162124208
 21
1030.87072856674
 31
0.0
  0
LINE
  5
861
330
85E
100
AcDbEntity
  8
0
 62
     0
370
    -2
100
AcDbLine
 10
3732.61216212421
 20
1029.62072856674
 30
0.0
 11
4008.612162124209
 21
1029.62072856674
 31
0.0
  0
SOLID
  5
862
330
85E
100
AcDbEntity
  8
0
 62
     0
100
AcDbTrace
 10
3732.61216212421
 20
1030.037395233406
 30
0.0
 11
3732.61216212421
 21
1029.204061900074
 31
0.0
 12
3730.112162124209
 22
1029.62072856674
 32
0.0
 13
3730.112162124209
 23
1029.62072856674
 33
0.0
  0
SOLID
  5
863
330
85E
100
AcDbEntity
  8
0
 62
     0
100
AcDbTrace
 10
4008.612162124209
 20
1030.037395233406
 30
0.0
 11
4008.612162124209
 21
1029.204061900074
 31
0.0
 12
4011.112162124208
 22
1029.62072856674
 32
0.0
 13
4011.112162124208
 23
1029.62072856674
 33
0.0
  0
MTEXT
  5
864
330
85E
100
AcDbEntity
  8
0
 62
     0
100
AcDbMText
 10
3870.612162124209
 20
1031.49572856674
 30
0.0
 40
2.5
 41
0.0
 46
0.0
 71
     5
 72
     1
  1
281
 73
     1
 44
1.0
  0
POINT
  5
865
330
85E
100
AcDbEntity
  8
Defpoints
 62
     0
100
AcDbPoint
 10
3730.112162124209
 20
1029.62072856674
 30
0.0
  0
POINT
  5
866
330
85E
100
AcDbEntity
  8
Defpoints
 62
     0
100
AcDbPoint
 10
4011.112162124208
 20
1029.62072856674
 30
0.0
  0
POINT
  5
867
330
85E
100
AcDbEntity
  8
Defpoints
 62
     0
100
AcDbPoint
 10
4011.112162124208
 20
1029.62072856674
 30
0.0
  0
ENDBLK
  5
869
330
85E
100
AcDbEntity
  8
0
100
AcDbBlockEnd
  0
BLOCK
  5
874
330
86A
100
AcDbEntity
  8
0
100
AcDbBlockBegin
  2
*D57
 70
     1
 10
0.0
 20
0.0
 30
0.0
  3
*D57
  1

  0
LINE
  5
86B
330
86A
100
AcDbEntity
  8
0
 62
     0
370
    -2
100
AcDbLine
 10
3961.868061642615
 20
1186.878694496226
 30
0.0
 11
3971.703120671858
 21
1186.878694496226
 31
0.0
  0
LINE
  5
86C
330
86A
100
AcDbEntity
  8
0
 62
     0
370
    -2
100
AcDbLine
 10
3961.868061642615
 20
905.8786944962267
 30
0.0
 11
3971.703120671858
 21
905.8786944962267
 31
0.0
  0
LINE
  5
86D
330
86A
100
AcDbEntity
  8
0
 62
     0
370
    -2
100
AcDbLine
 10
3970.453120671858
 20
1184.378694496226
 30
0.0
 11
3970.453120671858
 21
908.3786944962268
 31
0.0
  0
SOLID
  5
86E
330
86A
100
AcDbEntity
  8
0
 62
     0
100
AcDbTrace
 10
3970.036454005192
 20
1184.378694496226
 30
0.0
 11
3970.869787338525
 21
1184.378694496226
 31
0.0
 12
3970.453120671858
 22
1186.878694496226
 32
0.0
 13
3970.453120671858
 23
1186.878694496226
 33
0.0
  0
SOLID
  5
86F
330
86A
100
AcDbEntity
  8
0
 62
     0
100
AcDbTrace
 10
3970.036454005191
 20
908.3786944962268
 30
0.0
 11
3970.869787338524
 21
908.3786944962268
 31
0.0
 12
3970.453120671858
 22
905.8786944962267
 32
0.0
 13
3970.453120671858
 23
905.8786944962267
 33
0.0
  0
MTEXT
  5
870
330
86A
100
AcDbEntity
  8
0
 62
     0
100
AcDbMText
 10
3968.578120671857
 20
1046.378694496227
 30
0.0
 40
2.5
 41
0.0
 46
0.0
 71
     5
 72
     1
  1
281
 11
0.0000000000000001
 21
1.0
 31
0.0
 73
     1
 44
1.0
  0
POINT
  5
871
330
86A
100
AcDbEntity
  8
Defpoints
 62
     0
100
AcDbPoint
 10
3961.243061642615
 20
1186.878694496226
 30
0.0
  0
POINT
  5
872
330
86A
100
AcDbEntity
  8
Defpoints
 62
     0
100
AcDbPoint
 10
3961.243061642615
 20
905.8786944962267
 30
0.0
  0
POINT
  5
873
330
86A
100
AcDbEntity
  8
Defpoints
 62
     0
100
AcDbPoint
 10
3970.453120671858
 20
905.8786944962267
 30
0.0
  0
ENDBLK
  5
875
330
86A
100
AcDbEntity
  8
0
100
AcDbBlockEnd
  0
BLOCK
  5
880
330
876
100
AcDbEntity
  8
0
100
AcDbBlockBegin
  2
*D58
 70
     1
 10
0.0
 20
0.0
 30
0.0
  3
*D58
  1

  0
LINE
  5
877
330
876
100
AcDbEntity
  8
0
 62
     0
370
    -2
100
AcDbLine
 10
4011.112162124208
 20
982.4774343567357
 30
0.0
 11
4011.112162124208
 21
983.1024343567356
 31
0.0
  0
LINE
  5
878
330
876
100
AcDbEntity
  8
0
 62
     0
370
    -2
100
AcDbLine
 10
4049.112162124209
 20
982.4774343567357
 30
0.0
 11
4049.112162124209
 21
983.1024343567356
 31
0.0
  0
LINE
  5
879
330
876
100
AcDbEntity
  8
0
 62
     0
370
    -2
100
AcDbLine
 10
4013.612162124209
 20
981.8524343567357
 30
0.0
 11
4046.612162124209
 21
981.8524343567357
 31
0.0
  0
SOLID
  5
87A
330
876
100
AcDbEntity
  8
0
 62
     0
100
AcDbTrace
 10
4013.612162124209
 20
982.2691010234024
 30
0.0
 11
4013.612162124209
 21
981.4357676900693
 31
0.0
 12
4011.112162124208
 22
981.8524343567357
 32
0.0
 13
4011.112162124208
 23
981.8524343567357
 33
0.0
  0
SOLID
  5
87B
330
876
100
AcDbEntity
  8
0
 62
     0
100
AcDbTrace
 10
4046.612162124209
 20
982.2691010234024
 30
0.0
 11
4046.612162124209
 21
981.4357676900693
 31
0.0
 12
4049.112162124209
 22
981.8524343567357
 32
0.0
 13
4049.112162124209
 23
981.8524343567357
 33
0.0
  0
MTEXT
  5
87C
330
876
100
AcDbEntity
  8
0
 62
     0
100
AcDbMText
 10
4030.112162124209
 20
983.7274343567356
 30
0.0
 40
2.5
 41
0.0
 46
0.0
 71
     5
 72
     1
  1
38
 73
     1
 44
1.0
  0
POINT
  5
87D
330
876
100
AcDbEntity
  8
Defpoints
 62
     0
100
AcDbPoint
 10
4011.112162124208
 20
981.8524343567357
 30
0.0
  0
POINT
  5
87E
330
876
100
AcDbEntity
  8
Defpoints
 62
     0
100
AcDbPoint
 10
4049.112162124209
 20
981.8524343567357
 30
0.0
  0
POINT
  5
87F
330
876
100
AcDbEntity
  8
Defpoints
 62
     0
100
AcDbPoint
 10
4049.112162124209
 20
981.8524343567357
 30
0.0
  0
ENDBLK
  5
881
330
876
100
AcDbEntity
  8
0
100
AcDbBlockEnd
  0
BLOCK
  5
88C
330
882
100
AcDbEntity
  8
0
100
AcDbBlockBegin
  2
*D59
 70
     1
 10
0.0
 20
0.0
 30
0.0
  3
*D59
  1

  0
LINE
  5
883
330
882
100
AcDbEntity
  8
0
 62
     0
370
    -2
100
AcDbLine
 10
3641.112162124211
 20
918.7536944962268
 30
0.0
 11
3641.112162124211
 21
748.8800886425964
 31
0.0
  0
LINE
  5
884
330
882
100
AcDbEntity
  8
0
 62
     0
370
    -2
100
AcDbLine
 10
4100.112162124209
 20
918.7536944962268
 30
0.0
 11
4100.112162124209
 21
748.8800886425964
 31
0.0
  0
LINE
  5
885
330
882
100
AcDbEntity
  8
0
 62
     0
370
    -2
100
AcDbLine
 10
3643.61216212421
 20
750.1300886425966
 30
0.0
 11
4097.612162124209
 21
750.1300886425966
 31
0.0
  0
SOLID
  5
886
330
882
100
AcDbEntity
  8
0
 62
     0
100
AcDbTrace
 10
3643.61216212421
 20
750.5467553092631
 30
0.0
 11
3643.61216212421
 21
749.7134219759299
 31
0.0
 12
3641.112162124211
 22
750.1300886425966
 32
0.0
 13
3641.112162124211
 23
750.1300886425966
 33
0.0
  0
SOLID
  5
887
330
882
100
AcDbEntity
  8
0
 62
     0
100
AcDbTrace
 10
4097.612162124209
 20
750.5467553092631
 30
0.0
 11
4097.612162124209
 21
749.7134219759299
 31
0.0
 12
4100.112162124209
 22
750.1300886425966
 32
0.0
 13
4100.112162124209
 23
750.1300886425966
 33
0.0
  0
MTEXT
  5
888
330
882
100
AcDbEntity
  8
0
 62
     0
100
AcDbMText
 10
3870.612162124209
 20
752.0050886425964
 30
0.0
 40
2.5
 41
0.0
 46
0.0
 71
     5
 72
     1
  1
459
 73
     1
 44
1.0
  0
POINT
  5
889
330
882
100
AcDbEntity
  8
Defpoints
 62
     0
100
AcDbPoint
 10
3641.112162124211
 20
919.3786944962267
 30
0.0
  0
POINT
  5
88A
330
882
100
AcDbEntity
  8
Defpoints
 62
     0
100
AcDbPoint
 10
4100.112162124209
 20
919.3786944962267
 30
0.0
  0
POINT
  5
88B
330
882
100
AcDbEntity
  8
Defpoints
 62
     0
100
AcDbPoint
 10
4100.112162124209
 20
750.1300886425966
 30
0.0
  0
ENDBLK
  5
88D
330
882
100
AcDbEntity
  8
0
100
AcDbBlockEnd
  0
BLOCK
  5
898
330
88E
100
AcDbEntity
  8
0
100
AcDbBlockBegin
  2
*D60
 70
     1
 10
0.0
 20
0.0
 30
0.0
  3
*D60
  1

  0
LINE
  5
88F
330
88E
100
AcDbEntity
  8
0
 62
     0
370
    -2
100
AcDbLine
 10
3998.23716212421
 20
816.878694496227
 30
0.0
 11
4190.669389569598
 21
816.878694496227
 31
0.0
  0
LINE
  5
890
330
88E
100
AcDbEntity
  8
0
 62
     0
370
    -2
100
AcDbLine
 10
3998.23716212421
 20
1275.878694496227
 30
0.0
 11
4190.669389569598
 21
1275.878694496227
 31
0.0
  0
LINE
  5
891
330
88E
100
AcDbEntity
  8
0
 62
     0
370
    -2
100
AcDbLine
 10
4189.419389569599
 20
819.3786944962271
 30
0.0
 11
4189.419389569599
 21
1273.378694496227
 31
0.0
  0
SOLID
  5
892
330
88E
100
AcDbEntity
  8
0
 62
     0
100
AcDbTrace
 10
4189.002722902932
 20
819.3786944962271
 30
0.0
 11
4189.836056236265
 21
819.3786944962271
 31
0.0
 12
4189.419389569599
 22
816.878694496227
 32
0.0
 13
4189.419389569599
 23
816.878694496227
 33
0.0
  0
SOLID
  5
893
330
88E
100
AcDbEntity
  8
0
 62
     0
100
AcDbTrace
 10
4189.002722902932
 20
1273.378694496227
 30
0.0
 11
4189.836056236265
 21
1273.378694496227
 31
0.0
 12
4189.419389569599
 22
1275.878694496227
 32
0.0
 13
4189.419389569599
 23
1275.878694496227
 33
0.0
  0
MTEXT
  5
894
330
88E
100
AcDbEntity
  8
0
 62
     0
100
AcDbMText
 10
4187.544389569597
 20
1046.378694496228
 30
0.0
 40
2.5
 41
0.0
 46
0.0
 71
     5
 72
     1
  1
459
 11
0.0000000000000001
 21
1.0
 31
0.0
 73
     1
 44
1.0
  0
POINT
  5
895
330
88E
100
AcDbEntity
  8
Defpoints
 62
     0
100
AcDbPoint
 10
3997.612162124209
 20
816.878694496227
 30
0.0
  0
POINT
  5
896
330
88E
100
AcDbEntity
  8
Defpoints
 62
     0
100
AcDbPoint
 10
3997.612162124209
 20
1275.878694496227
 30
0.0
  0
POINT
  5
897
330
88E
100
AcDbEntity
  8
Defpoints
 62
     0
100
AcDbPoint
 10
4189.419389569599
 20
1275.878694496227
 30
0.0
  0
ENDBLK
  5
899
330
88E
100
AcDbEntity
  8
0
100
AcDbBlockEnd
  0
BLOCK
  5
8A4
330
89A
100
AcDbEntity
  8
0
100
AcDbBlockBegin
  2
*D61
 70
     1
 10
0.0
 20
0.0
 30
0.0
  3
*D61
  1

  0
LINE
  5
89B
330
89A
100
AcDbEntity
  8
0
 62
     0
370
    -2
100
AcDbLine
 10
4862.677175831106
 20
1021.844188784619
 30
0.0
 11
4862.677175831106
 21
1038.242302675889
 31
0.0
  0
LINE
  5
89C
330
89A
100
AcDbEntity
  8
0
 62
     0
370
    -2
100
AcDbLine
 10
5177.677175831107
 20
1021.844188784619
 30
0.0
 11
5177.677175831107
 21
1038.242302675889
 31
0.0
  0
LINE
  5
89D
330
89A
100
AcDbEntity
  8
0
 62
     0
370
    -2
100
AcDbLine
 10
4865.177175831107
 20
1036.992302675889
 30
0.0
 11
5175.177175831106
 21
1036.992302675889
 31
0.0
  0
SOLID
  5
89E
330
89A
100
AcDbEntity
  8
0
 62
     0
100
AcDbTrace
 10
4865.177175831107
 20
1037.408969342555
 30
0.0
 11
4865.177175831107
 21
1036.575636009222
 31
0.0
 12
4862.677175831106
 22
1036.992302675889
 32
0.0
 13
4862.677175831106
 23
1036.992302675889
 33
0.0
  0
SOLID
  5
89F
330
89A
100
AcDbEntity
  8
0
 62
     0
100
AcDbTrace
 10
5175.177175831106
 20
1037.408969342555
 30
0.0
 11
5175.177175831106
 21
1036.575636009222
 31
0.0
 12
5177.677175831107
 22
1036.992302675889
 32
0.0
 13
5177.677175831107
 23
1036.992302675889
 33
0.0
  0
MTEXT
  5
8A0
330
89A
100
AcDbEntity
  8
0
 62
     0
100
AcDbMText
 10
5020.177175831106
 20
1038.867302675889
 30
0.0
 40
2.5
 41
0.0
 46
0.0
 71
     5
 72
     1
  1
315
 73
     1
 44
1.0
  0
POINT
  5
8A1
330
89A
100
AcDbEntity
  8
Defpoints
 62
     0
100
AcDbPoint
 10
4862.677175831106
 20
1021.21918878462
 30
0.0
  0
POINT
  5
8A2
330
89A
100
AcDbEntity
  8
Defpoints
 62
     0
100
AcDbPoint
 10
5177.677175831107
 20
1021.21918878462
 30
0.0
  0
POINT
  5
8A3
330
89A
100
AcDbEntity
  8
Defpoints
 62
     0
100
AcDbPoint
 10
5177.677175831107
 20
1036.992302675889
 30
0.0
  0
ENDBLK
  5
8A5
330
89A
100
AcDbEntity
  8
0
100
AcDbBlockEnd
  0
BLOCK
  5
8B0
330
8A6
100
AcDbEntity
  8
0
100
AcDbBlockBegin
  2
*D62
 70
     1
 10
0.0
 20
0.0
 30
0.0
  3
*D62
  1

  0
LINE
  5
8A7
330
8A6
100
AcDbEntity
  8
0
 62
     0
370
    -2
100
AcDbLine
 10
5113.339120837766
 20
1178.71918878462
 30
0.0
 11
5111.170742844406
 21
1178.71918878462
 31
0.0
  0
LINE
  5
8A8
330
8A6
100
AcDbEntity
  8
0
 62
     0
370
    -2
100
AcDbLine
 10
5113.339120837766
 20
863.7191887846197
 30
0.0
 11
5111.170742844406
 21
863.7191887846197
 31
0.0
  0
LINE
  5
8A9
330
8A6
100
AcDbEntity
  8
0
 62
     0
370
    -2
100
AcDbLine
 10
5112.420742844406
 20
1176.21918878462
 30
0.0
 11
5112.420742844406
 21
866.2191887846198
 31
0.0
  0
SOLID
  5
8AA
330
8A6
100
AcDbEntity
  8
0
 62
     0
100
AcDbTrace
 10
5112.004076177739
 20
1176.21918878462
 30
0.0
 11
5112.837409511072
 21
1176.21918878462
 31
0.0
 12
5112.420742844406
 22
1178.71918878462
 32
0.0
 13
5112.420742844406
 23
1178.71918878462
 33
0.0
  0
SOLID
  5
8AB
330
8A6
100
AcDbEntity
  8
0
 62
     0
100
AcDbTrace
 10
5112.004076177739
 20
866.2191887846198
 30
0.0
 11
5112.837409511072
 21
866.2191887846198
 31
0.0
 12
5112.420742844406
 22
863.7191887846197
 32
0.0
 13
5112.420742844406
 23
863.7191887846197
 33
0.0
  0
MTEXT
  5
8AC
330
8A6
100
AcDbEntity
  8
0
 62
     0
100
AcDbMText
 10
5110.545742844406
 20
1021.21918878462
 30
0.0
 40
2.5
 41
0.0
 46
0.0
 71
     5
 72
     1
  1
315
 11
0.0000000000000001
 21
1.0
 31
0.0
 73
     1
 44
1.0
  0
POINT
  5
8AD
330
8A6
100
AcDbEntity
  8
Defpoints
 62
     0
100
AcDbPoint
 10
5113.964120837766
 20
1178.71918878462
 30
0.0
  0
POINT
  5
8AE
330
8A6
100
AcDbEntity
  8
Defpoints
 62
     0
100
AcDbPoint
 10
5113.964120837766
 20
863.7191887846197
 30
0.0
  0
POINT
  5
8AF
330
8A6
100
AcDbEntity
  8
Defpoints
 62
     0
100
AcDbPoint
 10
5112.420742844406
 20
863.7191887846197
 30
0.0
  0
ENDBLK
  5
8B1
330
8A6
100
AcDbEntity
  8
0
100
AcDbBlockEnd
  0
BLOCK
  5
8BC
330
8B2
100
AcDbEntity
  8
0
100
AcDbBlockBegin
  2
*D63
 70
     1
 10
0.0
 20
0.0
 30
0.0
  3
*D63
  1

  0
LINE
  5
8B3
330
8B2
100
AcDbEntity
  8
0
 62
     0
370
    -2
100
AcDbLine
 10
5177.677175831107
 20
1103.567208007273
 30
0.0
 11
5177.677175831107
 21
1092.145848451644
 31
0.0
  0
LINE
  5
8B4
330
8B2
100
AcDbEntity
  8
0
 62
     0
370
    -2
100
AcDbLine
 10
5347.677175831106
 20
1105.377970799704
 30
0.0
 11
5347.677175831106
 21
1092.145848451644
 31
0.0
  0
LINE
  5
8B5
330
8B2
100
AcDbEntity
  8
0
 62
     0
370
    -2
100
AcDbLine
 10
5180.177175831106
 20
1093.395848451644
 30
0.0
 11
5345.177175831106
 21
1093.395848451644
 31
0.0
  0
SOLID
  5
8B6
330
8B2
100
AcDbEntity
  8
0
 62
     0
100
AcDbTrace
 10
5180.177175831106
 20
1093.812515118311
 30
0.0
 11
5180.177175831106
 21
1092.979181784977
 31
0.0
 12
5177.677175831107
 22
1093.395848451644
 32
0.0
 13
5177.677175831107
 23
1093.395848451644
 33
0.0
  0
SOLID
  5
8B7
330
8B2
100
AcDbEntity
  8
0
 62
     0
100
AcDbTrace
 10
5345.177175831106
 20
1093.812515118311
 30
0.0
 11
5345.177175831106
 21
1092.979181784977
 31
0.0
 12
5347.677175831106
 22
1093.395848451644
 32
0.0
 13
5347.677175831106
 23
1093.395848451644
 33
0.0
  0
MTEXT
  5
8B8
330
8B2
100
AcDbEntity
  8
0
 62
     0
100
AcDbMText
 10
5262.677175831107
 20
1095.270848451644
 30
0.0
 40
2.5
 41
0.0
 46
0.0
 71
     5
 72
     1
  1
170
 73
     1
 44
1.0
  0
POINT
  5
8B9
330
8B2
100
AcDbEntity
  8
Defpoints
 62
     0
100
AcDbPoint
 10
5177.677175831107
 20
1104.192208007273
 30
0.0
  0
POINT
  5
8BA
330
8B2
100
AcDbEntity
  8
Defpoints
 62
     0
100
AcDbPoint
 10
5347.677175831106
 20
1106.002970799703
 30
0.0
  0
POINT
  5
8BB
330
8B2
100
AcDbEntity
  8
Defpoints
 62
     0
100
AcDbPoint
 10
5347.677175831106
 20
1093.395848451644
 30
0.0
  0
ENDBLK
  5
8BD
330
8B2
100
AcDbEntity
  8
0
100
AcDbBlockEnd
  0
BLOCK
  5
8C8
330
8BE
100
AcDbEntity
  8
0
100
AcDbBlockBegin
  2
*D64
 70
     1
 10
0.0
 20
0.0
 30
0.0
  3
*D64
  1

  0
LINE
  5
8BF
330
8BE
100
AcDbEntity
  8
0
 62
     0
370
    -2
100
AcDbLine
 10
4692.677175831105
 20
778.0941887846197
 30
0.0
 11
4692.677175831105
 21
647.3127110475692
 31
0.0
  0
LINE
  5
8C0
330
8BE
100
AcDbEntity
  8
0
 62
     0
370
    -2
100
AcDbLine
 10
5347.677175831106
 20
778.0941887846197
 30
0.0
 11
5347.677175831106
 21
647.3127110475692
 31
0.0
  0
LINE
  5
8C1
330
8BE
100
AcDbEntity
  8
0
 62
     0
370
    -2
100
AcDbLine
 10
4695.177175831105
 20
648.5627110475692
 30
0.0
 11
5345.177175831106
 21
648.5627110475692
 31
0.0
  0
SOLID
  5
8C2
330
8BE
100
AcDbEntity
  8
0
 62
     0
100
AcDbTrace
 10
4695.177175831105
 20
648.9793777142359
 30
0.0
 11
4695.177175831105
 21
648.1460443809027
 31
0.0
 12
4692.677175831105
 22
648.5627110475692
 32
0.0
 13
4692.677175831105
 23
648.5627110475692
 33
0.0
  0
SOLID
  5
8C3
330
8BE
100
AcDbEntity
  8
0
 62
     0
100
AcDbTrace
 10
5345.177175831106
 20
648.9793777142359
 30
0.0
 11
5345.177175831106
 21
648.1460443809027
 31
0.0
 12
5347.677175831106
 22
648.5627110475692
 32
0.0
 13
5347.677175831106
 23
648.5627110475692
 33
0.0
  0
MTEXT
  5
8C4
330
8BE
100
AcDbEntity
  8
0
 62
     0
100
AcDbMText
 10
5020.177175831106
 20
650.4377110475692
 30
0.0
 40
2.5
 41
0.0
 46
0.0
 71
     5
 72
     1
  1
655
 73
     1
 44
1.0
  0
POINT
  5
8C5
330
8BE
100
AcDbEntity
  8
Defpoints
 62
     0
100
AcDbPoint
 10
4692.677175831105
 20
778.7191887846197
 30
0.0
  0
POINT
  5
8C6
330
8BE
100
AcDbEntity
  8
Defpoints
 62
     0
100
AcDbPoint
 10
5347.677175831106
 20
778.7191887846197
 30
0.0
  0
POINT
  5
8C7
330
8BE
100
AcDbEntity
  8
Defpoints
 62
     0
100
AcDbPoint
 10
5347.677175831106
 20
648.5627110475692
 30
0.0
  0
ENDBLK
  5
8C9
330
8BE
100
AcDbEntity
  8
0
100
AcDbBlockEnd
  0
BLOCK
  5
8D4
330
8CA
100
AcDbEntity
  8
0
100
AcDbBlockBegin
  2
*D65
 70
     1
 10
0.0
 20
0.0
 30
0.0
  3
*D65
  1

  0
LINE
  5
8CB
330
8CA
100
AcDbEntity
  8
0
 62
     0
370
    -2
100
AcDbLine
 10
4862.052175831106
 20
693.7191887846197
 30
0.0
 11
4598.484129011455
 21
693.7191887846197
 31
0.0
  0
LINE
  5
8CC
330
8CA
100
AcDbEntity
  8
0
 62
     0
370
    -2
100
AcDbLine
 10
4862.052175831106
 20
1348.71918878462
 30
0.0
 11
4598.484129011455
 21
1348.71918878462
 31
0.0
  0
LINE
  5
8CD
330
8CA
100
AcDbEntity
  8
0
 62
     0
370
    -2
100
AcDbLine
 10
4599.734129011455
 20
696.2191887846197
 30
0.0
 11
4599.734129011455
 21
1346.21918878462
 31
0.0
  0
SOLID
  5
8CE
330
8CA
100
AcDbEntity
  8
0
 62
     0
100
AcDbTrace
 10
4599.317462344788
 20
696.2191887846197
 30
0.0
 11
4600.15079567812
 21
696.2191887846197
 31
0.0
 12
4599.734129011455
 22
693.7191887846197
 32
0.0
 13
4599.734129011455
 23
693.7191887846197
 33
0.0
  0
SOLID
  5
8CF
330
8CA
100
AcDbEntity
  8
0
 62
     0
100
AcDbTrace
 10
4599.317462344788
 20
1346.21918878462
 30
0.0
 11
4600.15079567812
 21
1346.21918878462
 31
0.0
 12
4599.734129011455
 22
1348.71918878462
 32
0.0
 13
4599.734129011455
 23
1348.71918878462
 33
0.0
  0
MTEXT
  5
8D0
330
8CA
100
AcDbEntity
  8
0
 62
     0
100
AcDbMText
 10
4597.859129011456
 20
1021.21918878462
 30
0.0
 40
2.5
 41
0.0
 46
0.0
 71
     5
 72
     1
  1
655
 11
0.0000000000000001
 21
1.0
 31
0.0
 73
     1
 44
1.0
  0
POINT
  5
8D1
330
8CA
100
AcDbEntity
  8
Defpoints
 62
     0
100
AcDbPoint
 10
4862.677175831106
 20
693.7191887846197
 30
0.0
  0
POINT
  5
8D2
330
8CA
100
AcDbEntity
  8
Defpoints
 62
     0
100
AcDbPoint
 10
4862.677175831106
 20
1348.71918878462
 30
0.0
  0
POINT
  5
8D3
330
8CA
100
AcDbEntity
  8
Defpoints
 62
     0
100
AcDbPoint
 10
4599.734129011455
 20
1348.71918878462
 30
0.0
  0
ENDBLK
  5
8D5
330
8CA
100
AcDbEntity
  8
0
100
AcDbBlockEnd
  0
BLOCK
  5
8E0
330
8D6
100
AcDbEntity
  8
0
100
AcDbBlockBegin
  2
*D66
 70
     1
 10
0.0
 20
0.0
 30
0.0
  3
*D66
  1

  0
LINE
  5
8D7
330
8D6
100
AcDbEntity
  8
0
 62
     0
370
    -2
100
AcDbLine
 10
5483.73056944511
 20
1033.832348582403
 30
0.0
 11
5483.73056944511
 21
1034.457348582403
 31
0.0
  0
LINE
  5
8D8
330
8D6
100
AcDbEntity
  8
0
 62
     0
370
    -2
100
AcDbLine
 10
5804.730569445109
 20
1033.832348582403
 30
0.0
 11
5804.730569445109
 21
1034.457348582403
 31
0.0
  0
LINE
  5
8D9
330
8D6
100
AcDbEntity
  8
0
 62
     0
370
    -2
100
AcDbLine
 10
5486.230569445108
 20
1033.207348582402
 30
0.0
 11
5802.23056944511
 21
1033.207348582402
 31
0.0
  0
SOLID
  5
8DA
330
8D6
100
AcDbEntity
  8
0
 62
     0
100
AcDbTrace
 10
5486.230569445108
 20
1033.624015249069
 30
0.0
 11
5486.230569445108
 21
1032.790681915736
 31
0.0
 12
5483.73056944511
 22
1033.207348582402
 32
0.0
 13
5483.73056944511
 23
1033.207348582402
 33
0.0
  0
SOLID
  5
8DB
330
8D6
100
AcDbEntity
  8
0
 62
     0
100
AcDbTrace
 10
5802.23056944511
 20
1033.624015249069
 30
0.0
 11
5802.23056944511
 21
1032.790681915736
 31
0.0
 12
5804.730569445109
 22
1033.207348582402
 32
0.0
 13
5804.730569445109
 23
1033.207348582402
 33
0.0
  0
MTEXT
  5
8DC
330
8D6
100
AcDbEntity
  8
0
 62
     0
100
AcDbMText
 10
5644.23056944511
 20
1035.082348582403
 30
0.0
 40
2.5
 41
0.0
 46
0.0
 71
     5
 72
     1
  1
321
 73
     1
 44
1.0
  0
POINT
  5
8DD
330
8D6
100
AcDbEntity
  8
Defpoints
 62
     0
100
AcDbPoint
 10
5483.73056944511
 20
1033.207348582402
 30
0.0
  0
POINT
  5
8DE
330
8D6
100
AcDbEntity
  8
Defpoints
 62
     0
100
AcDbPoint
 10
5804.730569445109
 20
1033.207348582402
 30
0.0
  0
POINT
  5
8DF
330
8D6
100
AcDbEntity
  8
Defpoints
 62
     0
100
AcDbPoint
 10
5804.730569445109
 20
1033.207348582402
 30
0.0
  0
ENDBLK
  5
8E1
330
8D6
100
AcDbEntity
  8
0
100
AcDbBlockEnd
  0
BLOCK
  5
8EC
330
8E2
100
AcDbEntity
  8
0
100
AcDbBlockBegin
  2
*D67
 70
     1
 10
0.0
 20
0.0
 30
0.0
  3
*D67
  1

  0
LINE
  5
8E3
330
8E2
100
AcDbEntity
  8
0
 62
     0
370
    -2
100
AcDbLine
 10
5748.387664624498
 20
1212.85079008904
 30
0.0
 11
5758.222723653741
 21
1212.85079008904
 31
0.0
  0
LINE
  5
8E4
330
8E2
100
AcDbEntity
  8
0
 62
     0
370
    -2
100
AcDbLine
 10
5748.387664624498
 20
891.8507900890402
 30
0.0
 11
5758.222723653741
 21
891.8507900890402
 31
0.0
  0
LINE
  5
8E5
330
8E2
100
AcDbEntity
  8
0
 62
     0
370
    -2
100
AcDbLine
 10
5756.972723653741
 20
1210.35079008904
 30
0.0
 11
5756.972723653741
 21
894.3507900890402
 31
0.0
  0
SOLID
  5
8E6
330
8E2
100
AcDbEntity
  8
0
 62
     0
100
AcDbTrace
 10
5756.556056987074
 20
1210.35079008904
 30
0.0
 11
5757.389390320408
 21
1210.35079008904
 31
0.0
 12
5756.972723653741
 22
1212.85079008904
 32
0.0
 13
5756.972723653741
 23
1212.85079008904
 33
0.0
  0
SOLID
  5
8E7
330
8E2
100
AcDbEntity
  8
0
 62
     0
100
AcDbTrace
 10
5756.556056987074
 20
894.3507900890402
 30
0.0
 11
5757.389390320408
 21
894.3507900890402
 31
0.0
 12
5756.972723653741
 22
891.8507900890402
 32
0.0
 13
5756.972723653741
 23
891.8507900890402
 33
0.0
  0
MTEXT
  5
8E8
330
8E2
100
AcDbEntity
  8
0
 62
     0
100
AcDbMText
 10
5755.097723653741
 20
1052.35079008904
 30
0.0
 40
2.5
 41
0.0
 46
0.0
 71
     5
 72
     1
  1
321
 11
0.0000000000000001
 21
1.0
 31
0.0
 73
     1
 44
1.0
  0
POINT
  5
8E9
330
8E2
100
AcDbEntity
  8
Defpoints
 62
     0
100
AcDbPoint
 10
5747.762664624498
 20
1212.85079008904
 30
0.0
  0
POINT
  5
8EA
330
8E2
100
AcDbEntity
  8
Defpoints
 62
     0
100
AcDbPoint
 10
5747.762664624498
 20
891.8507900890402
 30
0.0
  0
POINT
  5
8EB
330
8E2
100
AcDbEntity
  8
Defpoints
 62
     0
100
AcDbPoint
 10
5756.972723653741
 20
891.8507900890402
 30
0.0
  0
ENDBLK
  5
8ED
330
8E2
100
AcDbEntity
  8
0
100
AcDbBlockEnd
  0
BLOCK
  5
8F8
330
8EE
100
AcDbEntity
  8
0
100
AcDbBlockBegin
  2
*D68
 70
     1
 10
0.0
 20
0.0
 30
0.0
  3
*D68
  1

  0
LINE
  5
8EF
330
8EE
100
AcDbEntity
  8
0
 62
     0
370
    -2
100
AcDbLine
 10
5804.730569445109
 20
979.2642971894791
 30
0.0
 11
5804.730569445109
 21
979.8892971894792
 31
0.0
  0
LINE
  5
8F0
330
8EE
100
AcDbEntity
  8
0
 62
     0
370
    -2
100
AcDbLine
 10
5842.73056944511
 20
979.2642971894791
 30
0.0
 11
5842.73056944511
 21
979.8892971894792
 31
0.0
  0
LINE
  5
8F1
330
8EE
100
AcDbEntity
  8
0
 62
     0
370
    -2
100
AcDbLine
 10
5807.23056944511
 20
978.6392971894791
 30
0.0
 11
5840.23056944511
 21
978.6392971894791
 31
0.0
  0
SOLID
  5
8F2
330
8EE
100
AcDbEntity
  8
0
 62
     0
100
AcDbTrace
 10
5807.23056944511
 20
979.0559638561456
 30
0.0
 11
5807.23056944511
 21
978.2226305228123
 31
0.0
 12
5804.730569445109
 22
978.6392971894791
 32
0.0
 13
5804.730569445109
 23
978.6392971894791
 33
0.0
  0
SOLID
  5
8F3
330
8EE
100
AcDbEntity
  8
0
 62
     0
100
AcDbTrace
 10
5840.23056944511
 20
979.0559638561456
 30
0.0
 11
5840.23056944511
 21
978.2226305228123
 31
0.0
 12
5842.73056944511
 22
978.6392971894791
 32
0.0
 13
5842.73056944511
 23
978.6392971894791
 33
0.0
  0
MTEXT
  5
8F4
330
8EE
100
AcDbEntity
  8
0
 62
     0
100
AcDbMText
 10
5823.73056944511
 20
980.5142971894792
 30
0.0
 40
2.5
 41
0.0
 46
0.0
 71
     5
 72
     1
  1
38
 73
     1
 44
1.0
  0
POINT
  5
8F5
330
8EE
100
AcDbEntity
  8
Defpoints
 62
     0
100
AcDbPoint
 10
5804.730569445109
 20
978.6392971894791
 30
0.0
  0
POINT
  5
8F6
330
8EE
100
AcDbEntity
  8
Defpoints
 62
     0
100
AcDbPoint
 10
5842.73056944511
 20
978.6392971894791
 30
0.0
  0
POINT
  5
8F7
330
8EE
100
AcDbEntity
  8
Defpoints
 62
     0
100
AcDbPoint
 10
5842.73056944511
 20
978.6392971894791
 30
0.0
  0
ENDBLK
  5
8F9
330
8EE
100
AcDbEntity
  8
0
100
AcDbBlockEnd
  0
BLOCK
  5
904
330
8FA
100
AcDbEntity
  8
0
100
AcDbBlockBegin
  2
*D69
 70
     1
 10
0.0
 20
0.0
 30
0.0
  3
*D69
  1

  0
LINE
  5
8FB
330
8FA
100
AcDbEntity
  8
0
 62
     0
370
    -2
100
AcDbLine
 10
5394.730569445108
 20
904.72579008904
 30
0.0
 11
5394.730569445108
 21
734.8521842354097
 31
0.0
  0
LINE
  5
8FC
330
8FA
100
AcDbEntity
  8
0
 62
     0
370
    -2
100
AcDbLine
 10
5893.73056944511
 20
904.72579008904
 30
0.0
 11
5893.73056944511
 21
734.8521842354097
 31
0.0
  0
LINE
  5
8FD
330
8FA
100
AcDbEntity
  8
0
 62
     0
370
    -2
100
AcDbLine
 10
5397.23056944511
 20
736.1021842354097
 30
0.0
 11
5891.230569445109
 21
736.1021842354097
 31
0.0
  0
SOLID
  5
8FE
330
8FA
100
AcDbEntity
  8
0
 62
     0
100
AcDbTrace
 10
5397.23056944511
 20
736.5188509020764
 30
0.0
 11
5397.23056944511
 21
735.6855175687432
 31
0.0
 12
5394.730569445108
 22
736.1021842354097
 32
0.0
 13
5394.730569445108
 23
736.1021842354097
 33
0.0
  0
SOLID
  5
8FF
330
8FA
100
AcDbEntity
  8
0
 62
     0
100
AcDbTrace
 10
5891.230569445109
 20
736.5188509020764
 30
0.0
 11
5891.230569445109
 21
735.6855175687432
 31
0.0
 12
5893.73056944511
 22
736.1021842354097
 32
0.0
 13
5893.73056944511
 23
736.1021842354097
 33
0.0
  0
MTEXT
  5
900
330
8FA
100
AcDbEntity
  8
0
 62
     0
100
AcDbMText
 10
5644.23056944511
 20
737.9771842354097
 30
0.0
 40
2.5
 41
0.0
 46
0.0
 71
     5
 72
     1
  1
499
 73
     1
 44
1.0
  0
POINT
  5
901
330
8FA
100
AcDbEntity
  8
Defpoints
 62
     0
100
AcDbPoint
 10
5394.730569445108
 20
905.35079008904
 30
0.0
  0
POINT
  5
902
330
8FA
100
AcDbEntity
  8
Defpoints
 62
     0
100
AcDbPoint
 10
5893.73056944511
 20
905.35079008904
 30
0.0
  0
POINT
  5
903
330
8FA
100
AcDbEntity
  8
Defpoints
 62
     0
100
AcDbPoint
 10
5893.73056944511
 20
736.1021842354097
 30
0.0
  0
ENDBLK
  5
905
330
8FA
100
AcDbEntity
  8
0
100
AcDbBlockEnd
  0
BLOCK
  5
910
330
906
100
AcDbEntity
  8
0
100
AcDbBlockBegin
  2
*D70
 70
     1
 10
0.0
 20
0.0
 30
0.0
  3
*D70
  1

  0
LINE
  5
907
330
906
100
AcDbEntity
  8
0
 62
     0
370
    -2
100
AcDbLine
 10
5791.85556944511
 20
802.8507900890399
 30
0.0
 11
5984.287796890499
 21
802.8507900890399
 31
0.0
  0
LINE
  5
908
330
906
100
AcDbEntity
  8
0
 62
     0
370
    -2
100
AcDbLine
 10
5791.85556944511
 20
1301.850790089041
 30
0.0
 11
5984.287796890499
 21
1301.850790089041
 31
0.0
  0
LINE
  5
909
330
906
100
AcDbEntity
  8
0
 62
     0
370
    -2
100
AcDbLine
 10
5983.037796890499
 20
805.3507900890402
 30
0.0
 11
5983.037796890499
 21
1299.350790089041
 31
0.0
  0
SOLID
  5
90A
330
906
100
AcDbEntity
  8
0
 62
     0
100
AcDbTrace
 10
5982.621130223833
 20
805.3507900890402
 30
0.0
 11
5983.454463557166
 21
805.3507900890402
 31
0.0
 12
5983.037796890499
 22
802.8507900890399
 32
0.0
 13
5983.037796890499
 23
802.8507900890399
 33
0.0
  0
SOLID
  5
90B
330
906
100
AcDbEntity
  8
0
 62
     0
100
AcDbTrace
 10
5982.621130223833
 20
1299.350790089041
 30
0.0
 11
5983.454463557166
 21
1299.350790089041
 31
0.0
 12
5983.037796890499
 22
1301.850790089041
 32
0.0
 13
5983.037796890499
 23
1301.850790089041
 33
0.0
  0
MTEXT
  5
90C
330
906
100
AcDbEntity
  8
0
 62
     0
100
AcDbMText
 10
5981.162796890499
 20
1052.350790089041
 30
0.0
 40
2.5
 41
0.0
 46
0.0
 71
     5
 72
     1
  1
499
 11
0.0000000000000001
 21
1.0
 31
0.0
 73
     1
 44
1.0
  0
POINT
  5
90D
330
906
100
AcDbEntity
  8
Defpoints
 62
     0
100
AcDbPoint
 10
5791.23056944511
 20
802.8507900890399
 30
0.0
  0
POINT
  5
90E
330
906
100
AcDbEntity
  8
Defpoints
 62
     0
100
AcDbPoint
 10
5791.23056944511
 20
1301.850790089041
 30
0.0
  0
POINT
  5
90F
330
906
100
AcDbEntity
  8
Defpoints
 62
     0
100
AcDbPoint
 10
5983.037796890499
 20
1301.850790089041
 30
0.0
  0
ENDBLK
  5
911
330
906
100
AcDbEntity
  8
0
100
AcDbBlockEnd
  0
BLOCK
  5
91C
330
912
100
AcDbEntity
  8
0
100
AcDbBlockBegin
  2
*D71
 70
     1
 10
0.0
 20
0.0
 30
0.0
  3
*D71
  1

  0
LINE
  5
913
330
912
100
AcDbEntity
  8
0
 62
     0
370
    -2
100
AcDbLine
 10
6706.076977086467
 20
1020.313677762844
 30
0.0
 11
6706.076977086467
 21
1036.711791654113
 31
0.0
  0
LINE
  5
914
330
912
100
AcDbEntity
  8
0
 62
     0
370
    -2
100
AcDbLine
 10
7046.076977086466
 20
1020.313677762844
 30
0.0
 11
7046.076977086466
 21
1036.711791654113
 31
0.0
  0
LINE
  5
915
330
912
100
AcDbEntity
  8
0
 62
     0
370
    -2
100
AcDbLine
 10
6708.576977086463
 20
1035.461791654113
 30
0.0
 11
7043.576977086466
 21
1035.461791654113
 31
0.0
  0
SOLID
  5
916
330
912
100
AcDbEntity
  8
0
 62
     0
100
AcDbTrace
 10
6708.576977086463
 20
1035.878458320779
 30
0.0
 11
6708.576977086463
 21
1035.045124987446
 31
0.0
 12
6706.076977086467
 22
1035.461791654113
 32
0.0
 13
6706.076977086467
 23
1035.461791654113
 33
0.0
  0
SOLID
  5
917
330
912
100
AcDbEntity
  8
0
 62
     0
100
AcDbTrace
 10
7043.576977086466
 20
1035.878458320779
 30
0.0
 11
7043.576977086466
 21
1035.045124987446
 31
0.0
 12
7046.076977086466
 22
1035.461791654113
 32
0.0
 13
7046.076977086466
 23
1035.461791654113
 33
0.0
  0
MTEXT
  5
918
330
912
100
AcDbEntity
  8
0
 62
     0
100
AcDbMText
 10
6876.076977086467
 20
1037.336791654113
 30
0.0
 40
2.5
 41
0.0
 46
0.0
 71
     5
 72
     1
  1
340
 73
     1
 44
1.0
  0
POINT
  5
919
330
912
100
AcDbEntity
  8
Defpoints
 62
     0
100
AcDbPoint
 10
6706.076977086467
 20
1019.688677762843
 30
0.0
  0
POINT
  5
91A
330
912
100
AcDbEntity
  8
Defpoints
 62
     0
100
AcDbPoint
 10
7046.076977086466
 20
1019.688677762843
 30
0.0
  0
POINT
  5
91B
330
912
100
AcDbEntity
  8
Defpoints
 62
     0
100
AcDbPoint
 10
7046.076977086466
 20
1035.461791654113
 30
0.0
  0
ENDBLK
  5
91D
330
912
100
AcDbEntity
  8
0
100
AcDbBlockEnd
  0
BLOCK
  5
928
330
91E
100
AcDbEntity
  8
0
100
AcDbBlockBegin
  2
*D72
 70
     1
 10
0.0
 20
0.0
 30
0.0
  3
*D72
  1

  0
LINE
  5
91F
330
91E
100
AcDbEntity
  8
0
 62
     0
370
    -2
100
AcDbLine
 10
6976.682330426989
 20
1189.688677762844
 30
0.0
 11
6974.513952433627
 21
1189.688677762844
 31
0.0
  0
LINE
  5
920
330
91E
100
AcDbEntity
  8
0
 62
     0
370
    -2
100
AcDbLine
 10
6976.682330426989
 20
849.6886777628438
 30
0.0
 11
6974.513952433627
 21
849.6886777628438
 31
0.0
  0
LINE
  5
921
330
91E
100
AcDbEntity
  8
0
 62
     0
370
    -2
100
AcDbLine
 10
6975.763952433627
 20
1187.188677762843
 30
0.0
 11
6975.763952433627
 21
852.1886777628438
 31
0.0
  0
SOLID
  5
922
330
91E
100
AcDbEntity
  8
0
 62
     0
100
AcDbTrace
 10
6975.347285766959
 20
1187.188677762843
 30
0.0
 11
6976.180619100293
 21
1187.188677762843
 31
0.0
 12
6975.763952433627
 22
1189.688677762844
 32
0.0
 13
6975.763952433627
 23
1189.688677762844
 33
0.0
  0
SOLID
  5
923
330
91E
100
AcDbEntity
  8
0
 62
     0
100
AcDbTrace
 10
6975.347285766959
 20
852.1886777628438
 30
0.0
 11
6976.180619100293
 21
852.1886777628438
 31
0.0
 12
6975.763952433627
 22
849.6886777628438
 32
0.0
 13
6975.763952433627
 23
849.6886777628438
 33
0.0
  0
MTEXT
  5
924
330
91E
100
AcDbEntity
  8
0
 62
     0
100
AcDbMText
 10
6973.888952433627
 20
1019.688677762845
 30
0.0
 40
2.5
 41
0.0
 46
0.0
 71
     5
 72
     1
  1
340
 11
0.0000000000000001
 21
1.0
 31
0.0
 73
     1
 44
1.0
  0
POINT
  5
925
330
91E
100
AcDbEntity
  8
Defpoints
 62
     0
100
AcDbPoint
 10
6977.307330426987
 20
1189.688677762844
 30
0.0
  0
POINT
  5
926
330
91E
100
AcDbEntity
  8
Defpoints
 62
     0
100
AcDbPoint
 10
6977.307330426987
 20
849.6886777628438
 30
0.0
  0
POINT
  5
927
330
91E
100
AcDbEntity
  8
Defpoints
 62
     0
100
AcDbPoint
 10
6975.763952433627
 20
849.6886777628438
 30
0.0
  0
ENDBLK
  5
929
330
91E
100
AcDbEntity
  8
0
100
AcDbBlockEnd
  0
BLOCK
  5
934
330
92A
100
AcDbEntity
  8
0
100
AcDbBlockBegin
  2
*D73
 70
     1
 10
0.0
 20
0.0
 30
0.0
  3
*D73
  1

  0
LINE
  5
92B
330
92A
100
AcDbEntity
  8
0
 62
     0
370
    -2
100
AcDbLine
 10
7046.076977086466
 20
1108.621857241263
 30
0.0
 11
7046.076977086466
 21
1096.796398264314
 31
0.0
  0
LINE
  5
92C
330
92A
100
AcDbEntity
  8
0
 62
     0
370
    -2
100
AcDbLine
 10
7226.076977086467
 20
1108.217757819942
 30
0.0
 11
7226.076977086467
 21
1096.796398264314
 31
0.0
  0
LINE
  5
92D
330
92A
100
AcDbEntity
  8
0
 62
     0
370
    -2
100
AcDbLine
 10
7048.576977086466
 20
1098.046398264314
 30
0.0
 11
7223.576977086466
 21
1098.046398264314
 31
0.0
  0
SOLID
  5
92E
330
92A
100
AcDbEntity
  8
0
 62
     0
100
AcDbTrace
 10
7048.576977086466
 20
1098.463064930981
 30
0.0
 11
7048.576977086466
 21
1097.629731597647
 31
0.0
 12
7046.076977086466
 22
1098.046398264314
 32
0.0
 13
7046.076977086466
 23
1098.046398264314
 33
0.0
  0
SOLID
  5
92F
330
92A
100
AcDbEntity
  8
0
 62
     0
100
AcDbTrace
 10
7223.576977086466
 20
1098.463064930981
 30
0.0
 11
7223.576977086466
 21
1097.629731597647
 31
0.0
 12
7226.076977086467
 22
1098.046398264314
 32
0.0
 13
7226.076977086467
 23
1098.046398264314
 33
0.0
  0
MTEXT
  5
930
330
92A
100
AcDbEntity
  8
0
 62
     0
100
AcDbMText
 10
7136.076977086466
 20
1099.921398264314
 30
0.0
 40
2.5
 41
0.0
 46
0.0
 71
     5
 72
     1
  1
180
 73
     1
 44
1.0
  0
POINT
  5
931
330
92A
100
AcDbEntity
  8
Defpoints
 62
     0
100
AcDbPoint
 10
7046.076977086466
 20
1109.246857241263
 30
0.0
  0
POINT
  5
932
330
92A
100
AcDbEntity
  8
Defpoints
 62
     0
100
AcDbPoint
 10
7226.076977086467
 20
1108.842757819942
 30
0.0
  0
POINT
  5
933
330
92A
100
AcDbEntity
  8
Defpoints
 62
     0
100
AcDbPoint
 10
7226.076977086467
 20
1098.046398264314
 30
0.0
  0
ENDBLK
  5
935
330
92A
100
AcDbEntity
  8
0
100
AcDbBlockEnd
  0
BLOCK
  5
940
330
936
100
AcDbEntity
  8
0
100
AcDbBlockBegin
  2
*D74
 70
     1
 10
0.0
 20
0.0
 30
0.0
  3
*D74
  1

  0
LINE
  5
937
330
936
100
AcDbEntity
  8
0
 62
     0
370
    -2
100
AcDbLine
 10
6526.076977086464
 20
764.0636777628437
 30
0.0
 11
6526.076977086464
 21
623.2822000257932
 31
0.0
  0
LINE
  5
938
330
936
100
AcDbEntity
  8
0
 62
     0
370
    -2
100
AcDbLine
 10
7226.076977086467
 20
764.0636777628437
 30
0.0
 11
7226.076977086467
 21
623.2822000257932
 31
0.0
  0
LINE
  5
939
330
936
100
AcDbEntity
  8
0
 62
     0
370
    -2
100
AcDbLine
 10
6528.576977086466
 20
624.5322000257933
 30
0.0
 11
7223.576977086466
 21
624.5322000257933
 31
0.0
  0
SOLID
  5
93A
330
936
100
AcDbEntity
  8
0
 62
     0
100
AcDbTrace
 10
6528.576977086466
 20
624.94886669246
 30
0.0
 11
6528.576977086466
 21
624.1155333591267
 31
0.0
 12
6526.076977086464
 22
624.5322000257933
 32
0.0
 13
6526.076977086464
 23
624.5322000257933
 33
0.0
  0
SOLID
  5
93B
330
936
100
AcDbEntity
  8
0
 62
     0
100
AcDbTrace
 10
7223.576977086466
 20
624.94886669246
 30
0.0
 11
7223.576977086466
 21
624.1155333591267
 31
0.0
 12
7226.076977086467
 22
624.5322000257933
 32
0.0
 13
7226.076977086467
 23
624.5322000257933
 33
0.0
  0
MTEXT
  5
93C
330
936
100
AcDbEntity
  8
0
 62
     0
100
AcDbMText
 10
6876.076977086467
 20
626.4072000257932
 30
0.0
 40
2.5
 41
0.0
 46
0.0
 71
     5
 72
     1
  1
700
 73
     1
 44
1.0
  0
POINT
  5
93D
330
936
100
AcDbEntity
  8
Defpoints
 62
     0
100
AcDbPoint
 10
6526.076977086464
 20
764.6886777628438
 30
0.0
  0
POINT
  5
93E
330
936
100
AcDbEntity
  8
Defpoints
 62
     0
100
AcDbPoint
 10
7226.076977086467
 20
764.6886777628438
 30
0.0
  0
POINT
  5
93F
330
936
100
AcDbEntity
  8
Defpoints
 62
     0
100
AcDbPoint
 10
7226.076977086467
 20
624.5322000257933
 30
0.0
  0
ENDBLK
  5
941
330
936
100
AcDbEntity
  8
0
100
AcDbBlockEnd
  0
BLOCK
  5
94C
330
942
100
AcDbEntity
  8
0
100
AcDbBlockBegin
  2
*D75
 70
     1
 10
0.0
 20
0.0
 30
0.0
  3
*D75
  1

  0
LINE
  5
943
330
942
100
AcDbEntity
  8
0
 62
     0
370
    -2
100
AcDbLine
 10
6705.451977086466
 20
669.6886777628438
 30
0.0
 11
6431.883930266815
 21
669.6886777628438
 31
0.0
  0
LINE
  5
944
330
942
100
AcDbEntity
  8
0
 62
     0
370
    -2
100
AcDbLine
 10
6705.451977086466
 20
1369.688677762844
 30
0.0
 11
6431.883930266815
 21
1369.688677762844
 31
0.0
  0
LINE
  5
945
330
942
100
AcDbEntity
  8
0
 62
     0
370
    -2
100
AcDbLine
 10
6433.133930266817
 20
672.1886777628437
 30
0.0
 11
6433.133930266817
 21
1367.188677762844
 31
0.0
  0
SOLID
  5
946
330
942
100
AcDbEntity
  8
0
 62
     0
100
AcDbTrace
 10
6432.717263600149
 20
672.1886777628437
 30
0.0
 11
6433.550596933483
 21
672.1886777628437
 31
0.0
 12
6433.133930266817
 22
669.6886777628438
 32
0.0
 13
6433.133930266817
 23
669.6886777628438
 33
0.0
  0
SOLID
  5
947
330
942
100
AcDbEntity
  8
0
 62
     0
100
AcDbTrace
 10
6432.717263600149
 20
1367.188677762844
 30
0.0
 11
6433.550596933483
 21
1367.188677762844
 31
0.0
 12
6433.133930266817
 22
1369.688677762844
 32
0.0
 13
6433.133930266817
 23
1369.688677762844
 33
0.0
  0
MTEXT
  5
948
330
942
100
AcDbEntity
  8
0
 62
     0
100
AcDbMText
 10
6431.258930266817
 20
1019.688677762845
 30
0.0
 40
2.5
 41
0.0
 46
0.0
 71
     5
 72
     1
  1
700
 11
0.0000000000000001
 21
1.0
 31
0.0
 73
     1
 44
1.0
  0
POINT
  5
949
330
942
100
AcDbEntity
  8
Defpoints
 62
     0
100
AcDbPoint
 10
6706.076977086467
 20
669.6886777628438
 30
0.0
  0
POINT
  5
94A
330
942
100
AcDbEntity
  8
Defpoints
 62
     0
100
AcDbPoint
 10
6706.076977086467
 20
1369.688677762844
 30
0.0
  0
POINT
  5
94B
330
942
100
AcDbEntity
  8
Defpoints
 62
     0
100
AcDbPoint
 10
6433.133930266817
 20
1369.688677762844
 30
0.0
  0
ENDBLK
  5
94D
330
942
100
AcDbEntity
  8
0
100
AcDbBlockEnd
  0
BLOCK
  5
958
330
94E
100
AcDbEntity
  8
0
100
AcDbBlockBegin
  2
*D76
 70
     1
 10
0.0
 20
0.0
 30
0.0
  3
*D76
  1

  0
LINE
  5
94F
330
94E
100
AcDbEntity
  8
0
 62
     0
370
    -2
100
AcDbLine
 10
7352.130370700471
 20
1043.310915324907
 30
0.0
 11
7352.130370700471
 21
1043.935915324907
 31
0.0
  0
LINE
  5
950
330
94E
100
AcDbEntity
  8
0
 62
     0
370
    -2
100
AcDbLine
 10
7698.13037070047
 20
1043.310915324907
 30
0.0
 11
7698.13037070047
 21
1043.935915324907
 31
0.0
  0
LINE
  5
951
330
94E
100
AcDbEntity
  8
0
 62
     0
370
    -2
100
AcDbLine
 10
7354.630370700469
 20
1042.685915324907
 30
0.0
 11
7695.63037070047
 21
1042.685915324907
 31
0.0
  0
SOLID
  5
952
330
94E
100
AcDbEntity
  8
0
 62
     0
100
AcDbTrace
 10
7354.630370700469
 20
1043.102581991574
 30
0.0
 11
7354.630370700469
 21
1042.26924865824
 31
0.0
 12
7352.130370700471
 22
1042.685915324907
 32
0.0
 13
7352.130370700471
 23
1042.685915324907
 33
0.0
  0
SOLID
  5
953
330
94E
100
AcDbEntity
  8
0
 62
     0
100
AcDbTrace
 10
7695.63037070047
 20
1043.102581991574
 30
0.0
 11
7695.63037070047
 21
1042.26924865824
 31
0.0
 12
7698.13037070047
 22
1042.685915324907
 32
0.0
 13
7698.13037070047
 23
1042.685915324907
 33
0.0
  0
MTEXT
  5
954
330
94E
100
AcDbEntity
  8
0
 62
     0
100
AcDbMText
 10
7525.13037070047
 20
1044.560915324907
 30
0.0
 40
2.5
 41
0.0
 46
0.0
 71
     5
 72
     1
  1
346
 73
     1
 44
1.0
  0
POINT
  5
955
330
94E
100
AcDbEntity
  8
Defpoints
 62
     0
100
AcDbPoint
 10
7352.130370700471
 20
1042.685915324907
 30
0.0
  0
POINT
  5
956
330
94E
100
AcDbEntity
  8
Defpoints
 62
     0
100
AcDbPoint
 10
7698.13037070047
 20
1042.685915324907
 30
0.0
  0
POINT
  5
957
330
94E
100
AcDbEntity
  8
Defpoints
 62
     0
100
AcDbPoint
 10
7698.13037070047
 20
1042.685915324907
 30
0.0
  0
ENDBLK
  5
959
330
94E
100
AcDbEntity
  8
0
100
AcDbBlockEnd
  0
BLOCK
  5
964
330
95A
100
AcDbEntity
  8
0
100
AcDbBlockBegin
  2
*D77
 70
     1
 10
0.0
 20
0.0
 30
0.0
  3
*D77
  1

  0
LINE
  5
95B
330
95A
100
AcDbEntity
  8
0
 62
     0
370
    -2
100
AcDbLine
 10
7637.350713167973
 20
1236.320279067264
 30
0.0
 11
7647.185772197215
 21
1236.320279067264
 31
0.0
  0
LINE
  5
95C
330
95A
100
AcDbEntity
  8
0
 62
     0
370
    -2
100
AcDbLine
 10
7637.350713167973
 20
890.3202790672642
 30
0.0
 11
7647.185772197215
 21
890.3202790672642
 31
0.0
  0
LINE
  5
95D
330
95A
100
AcDbEntity
  8
0
 62
     0
370
    -2
100
AcDbLine
 10
7645.935772197216
 20
1233.820279067264
 30
0.0
 11
7645.935772197216
 21
892.8202790672642
 31
0.0
  0
SOLID
  5
95E
330
95A
100
AcDbEntity
  8
0
 62
     0
100
AcDbTrace
 10
7645.519105530549
 20
1233.820279067264
 30
0.0
 11
7646.352438863883
 21
1233.820279067264
 31
0.0
 12
7645.935772197216
 22
1236.320279067264
 32
0.0
 13
7645.935772197216
 23
1236.320279067264
 33
0.0
  0
SOLID
  5
95F
330
95A
100
AcDbEntity
  8
0
 62
     0
100
AcDbTrace
 10
7645.519105530549
 20
892.8202790672642
 30
0.0
 11
7646.352438863883
 21
892.8202790672642
 31
0.0
 12
7645.935772197216
 22
890.3202790672642
 32
0.0
 13
7645.935772197216
 23
890.3202790672642
 33
0.0
  0
MTEXT
  5
960
330
95A
100
AcDbEntity
  8
0
 62
     0
100
AcDbMText
 10
7644.060772197216
 20
1063.320279067265
 30
0.0
 40
2.5
 41
0.0
 46
0.0
 71
     5
 72
     1
  1
346
 11
0.0000000000000001
 21
1.0
 31
0.0
 73
     1
 44
1.0
  0
POINT
  5
961
330
95A
100
AcDbEntity
  8
Defpoints
 62
     0
100
AcDbPoint
 10
7636.725713167972
 20
1236.320279067264
 30
0.0
  0
POINT
  5
962
330
95A
100
AcDbEntity
  8
Defpoints
 62
     0
100
AcDbPoint
 10
7636.725713167972
 20
890.3202790672642
 30
0.0
  0
POINT
  5
963
330
95A
100
AcDbEntity
  8
Defpoints
 62
     0
100
AcDbPoint
 10
7645.935772197216
 20
890.3202790672642
 30
0.0
  0
ENDBLK
  5
965
330
95A
100
AcDbEntity
  8
0
100
AcDbBlockEnd
  0
BLOCK
  5
970
330
966
100
AcDbEntity
  8
0
100
AcDbBlockBegin
  2
*D78
 70
     1
 10
0.0
 20
0.0
 30
0.0
  3
*D78
  1

  0
LINE
  5
967
330
966
100
AcDbEntity
  8
0
 62
     0
370
    -2
100
AcDbLine
 10
7698.13037070047
 20
984.4930156926595
 30
0.0
 11
7698.13037070047
 21
985.1180156926595
 31
0.0
  0
LINE
  5
968
330
966
100
AcDbEntity
  8
0
 62
     0
370
    -2
100
AcDbLine
 10
7736.130370700469
 20
984.4930156926595
 30
0.0
 11
7736.130370700469
 21
985.1180156926595
 31
0.0
  0
LINE
  5
969
330
966
100
AcDbEntity
  8
0
 62
     0
370
    -2
100
AcDbLine
 10
7700.63037070047
 20
983.8680156926596
 30
0.0
 11
7733.63037070047
 21
983.8680156926596
 31
0.0
  0
SOLID
  5
96A
330
966
100
AcDbEntity
  8
0
 62
     0
100
AcDbTrace
 10
7700.63037070047
 20
984.2846823593262
 30
0.0
 11
7700.63037070047
 21
983.4513490259928
 31
0.0
 12
7698.13037070047
 22
983.8680156926596
 32
0.0
 13
7698.13037070047
 23
983.8680156926596
 33
0.0
  0
SOLID
  5
96B
330
966
100
AcDbEntity
  8
0
 62
     0
100
AcDbTrace
 10
7733.63037070047
 20
984.2846823593262
 30
0.0
 11
7733.63037070047
 21
983.4513490259928
 31
0.0
 12
7736.130370700469
 22
983.8680156926596
 32
0.0
 13
7736.130370700469
 23
983.8680156926596
 33
0.0
  0
MTEXT
  5
96C
330
966
100
AcDbEntity
  8
0
 62
     0
100
AcDbMText
 10
7717.13037070047
 20
985.7430156926595
 30
0.0
 40
2.5
 41
0.0
 46
0.0
 71
     5
 72
     1
  1
38
 73
     1
 44
1.0
  0
POINT
  5
96D
330
966
100
AcDbEntity
  8
Defpoints
 62
     0
100
AcDbPoint
 10
7698.13037070047
 20
983.8680156926596
 30
0.0
  0
POINT
  5
96E
330
966
100
AcDbEntity
  8
Defpoints
 62
     0
100
AcDbPoint
 10
7736.130370700469
 20
983.8680156926596
 30
0.0
  0
POINT
  5
96F
330
966
100
AcDbEntity
  8
Defpoints
 62
     0
100
AcDbPoint
 10
7736.130370700469
 20
983.8680156926596
 30
0.0
  0
ENDBLK
  5
971
330
966
100
AcDbEntity
  8
0
100
AcDbBlockEnd
  0
BLOCK
  5
97C
330
972
100
AcDbEntity
  8
0
100
AcDbBlockBegin
  2
*D79
 70
     1
 10
0.0
 20
0.0
 30
0.0
  3
*D79
  1

  0
LINE
  5
973
330
972
100
AcDbEntity
  8
0
 62
     0
370
    -2
100
AcDbLine
 10
7263.13037070047
 20
903.195279067264
 30
0.0
 11
7263.13037070047
 21
733.3216732136337
 31
0.0
  0
LINE
  5
974
330
972
100
AcDbEntity
  8
0
 62
     0
370
    -2
100
AcDbLine
 10
7787.13037070047
 20
903.195279067264
 30
0.0
 11
7787.13037070047
 21
733.3216732136337
 31
0.0
  0
LINE
  5
975
330
972
100
AcDbEntity
  8
0
 62
     0
370
    -2
100
AcDbLine
 10
7265.63037070047
 20
734.5716732136337
 30
0.0
 11
7784.630370700471
 21
734.5716732136337
 31
0.0
  0
SOLID
  5
976
330
972
100
AcDbEntity
  8
0
 62
     0
100
AcDbTrace
 10
7265.63037070047
 20
734.9883398803005
 30
0.0
 11
7265.63037070047
 21
734.1550065469673
 31
0.0
 12
7263.13037070047
 22
734.5716732136337
 32
0.0
 13
7263.13037070047
 23
734.5716732136337
 33
0.0
  0
SOLID
  5
977
330
972
100
AcDbEntity
  8
0
 62
     0
100
AcDbTrace
 10
7784.630370700471
 20
734.9883398803005
 30
0.0
 11
7784.630370700471
 21
734.1550065469673
 31
0.0
 12
7787.13037070047
 22
734.5716732136337
 32
0.0
 13
7787.13037070047
 23
734.5716732136337
 33
0.0
  0
MTEXT
  5
978
330
972
100
AcDbEntity
  8
0
 62
     0
100
AcDbMText
 10
7525.13037070047
 20
736.4466732136337
 30
0.0
 40
2.5
 41
0.0
 46
0.0
 71
     5
 72
     1
  1
524
 73
     1
 44
1.0
  0
POINT
  5
979
330
972
100
AcDbEntity
  8
Defpoints
 62
     0
100
AcDbPoint
 10
7263.13037070047
 20
903.820279067264
 30
0.0
  0
POINT
  5
97A
330
972
100
AcDbEntity
  8
Defpoints
 62
     0
100
AcDbPoint
 10
7787.13037070047
 20
903.820279067264
 30
0.0
  0
POINT
  5
97B
330
972
100
AcDbEntity
  8
Defpoints
 62
     0
100
AcDbPoint
 10
7787.13037070047
 20
734.5716732136337
 30
0.0
  0
ENDBLK
  5
97D
330
972
100
AcDbEntity
  8
0
100
AcDbBlockEnd
  0
BLOCK
  5
988
330
97E
100
AcDbEntity
  8
0
100
AcDbBlockBegin
  2
*D80
 70
     1
 10
0.0
 20
0.0
 30
0.0
  3
*D80
  1

  0
LINE
  5
97F
330
97E
100
AcDbEntity
  8
0
 62
     0
370
    -2
100
AcDbLine
 10
7685.25537070047
 20
801.3202790672645
 30
0.0
 11
7877.68759814586
 21
801.3202790672645
 31
0.0
  0
LINE
  5
980
330
97E
100
AcDbEntity
  8
0
 62
     0
370
    -2
100
AcDbLine
 10
7685.25537070047
 20
1325.320279067265
 30
0.0
 11
7877.68759814586
 21
1325.320279067265
 31
0.0
  0
LINE
  5
981
330
97E
100
AcDbEntity
  8
0
 62
     0
370
    -2
100
AcDbLine
 10
7876.43759814586
 20
803.8202790672642
 30
0.0
 11
7876.43759814586
 21
1322.820279067264
 31
0.0
  0
SOLID
  5
982
330
97E
100
AcDbEntity
  8
0
 62
     0
100
AcDbTrace
 10
7876.020931479193
 20
803.8202790672642
 30
0.0
 11
7876.854264812526
 21
803.8202790672642
 31
0.0
 12
7876.43759814586
 22
801.3202790672645
 32
0.0
 13
7876.43759814586
 23
801.3202790672645
 33
0.0
  0
SOLID
  5
983
330
97E
100
AcDbEntity
  8
0
 62
     0
100
AcDbTrace
 10
7876.020931479193
 20
1322.820279067264
 30
0.0
 11
7876.854264812526
 21
1322.820279067264
 31
0.0
 12
7876.43759814586
 22
1325.320279067265
 32
0.0
 13
7876.43759814586
 23
1325.320279067265
 33
0.0
  0
MTEXT
  5
984
330
97E
100
AcDbEntity
  8
0
 62
     0
100
AcDbMText
 10
7874.56259814586
 20
1063.320279067266
 30
0.0
 40
2.5
 41
0.0
 46
0.0
 71
     5
 72
     1
  1
524
 11
0.0000000000000001
 21
1.0
 31
0.0
 73
     1
 44
1.0
  0
POINT
  5
985
330
97E
100
AcDbEntity
  8
Defpoints
 62
     0
100
AcDbPoint
 10
7684.630370700471
 20
801.3202790672645
 30
0.0
  0
POINT
  5
986
330
97E
100
AcDbEntity
  8
Defpoints
 62
     0
100
AcDbPoint
 10
7684.630370700471
 20
1325.320279067265
 30
0.0
  0
POINT
  5
987
330
97E
100
AcDbEntity
  8
Defpoints
 62
     0
100
AcDbPoint
 10
7876.43759814586
 20
1325.320279067265
 30
0.0
  0
ENDBLK
  5
989
330
97E
100
AcDbEntity
  8
0
100
AcDbBlockEnd
  0
BLOCK
  5
A65
330
A64
100
AcDbEntity
  8
0
100
AcDbBlockBegin
  2
*D81
 70
     1
 10
0.0
 20
0.0
 30
0.0
  3
*D81
  1

  0
LINE
  5
A66
330
A64
100
AcDbEntity
  8
0
 62
     0
370
    -2
100
AcDbLine
 10
1395.76702272058
 20
189.9247583905949
 30
0.0
 11
1395.76702272058
 21
123.9764122257432
 31
0.0
  0
LINE
  5
A67
330
A64
100
AcDbEntity
  8
0
 62
     0
370
    -2
100
AcDbLine
 10
1645.76702272058
 20
189.9247583905949
 30
0.0
 11
1645.76702272058
 21
123.9764122257432
 31
0.0
  0
LINE
  5
A68
330
A64
100
AcDbEntity
  8
0
 62
     0
370
    -2
100
AcDbLine
 10
1395.94702272058
 20
124.1564122257432
 30
0.0
 11
1493.17702272058
 21
124.1564122257432
 31
0.0
  0
LINE
  5
A69
330
A64
100
AcDbEntity
  8
0
 62
     0
370
    -2
100
AcDbLine
 10
1645.58702272058
 20
124.1564122257432
 30
0.0
 11
1548.35702272058
 21
124.1564122257432
 31
0.0
  0
SOLID
  5
A6A
330
A64
100
AcDbEntity
  8
0
 62
     0
100
AcDbTrace
 10
1395.94702272058
 20
124.1864122257432
 30
0.0
 11
1395.94702272058
 21
124.1264122257432
 31
0.0
 12
1395.76702272058
 22
124.1564122257432
 32
0.0
 13
1395.76702272058
 23
124.1564122257432
 33
0.0
  0
SOLID
  5
A6B
330
A64
100
AcDbEntity
  8
0
 62
     0
100
AcDbTrace
 10
1645.58702272058
 20
124.1864122257432
 30
0.0
 11
1645.58702272058
 21
124.1264122257432
 31
0.0
 12
1645.76702272058
 22
124.1564122257432
 32
0.0
 13
1645.76702272058
 23
124.1564122257432
 33
0.0
  0
MTEXT
  5
A6C
330
A64
100
AcDbEntity
  8
0
 62
     0
100
AcDbMText
 10
1520.76702272058
 20
124.1564122257432
 30
0.0
 40
15.0
 41
0.0
 46
0.0
 71
     5
 72
     1
  1
\A1;250.0
 73
     1
 44
1.0
  0
POINT
  5
A6D
330
A64
100
AcDbEntity
  8
Defpoints
 62
     0
100
AcDbPoint
 10
1395.76702272058
 20
189.9872583905949
 30
0.0
  0
POINT
  5
A6E
330
A64
100
AcDbEntity
  8
Defpoints
 62
     0
100
AcDbPoint
 10
1645.76702272058
 20
189.9872583905949
 30
0.0
  0
POINT
  5
A6F
330
A64
100
AcDbEntity
  8
Defpoints
 62
     0
100
AcDbPoint
 10
1645.76702272058
 20
124.1564122257432
 30
0.0
  0
ENDBLK
  5
A70
330
A64
100
AcDbEntity
  8
0
100
AcDbBlockEnd
  0
BLOCK
  5
A72
330
A71
100
AcDbEntity
  8
0
100
AcDbBlockBegin
  2
*D82
 70
     1
 10
0.0
 20
0.0
 30
0.0
  3
*D82
  1

  0
LINE
  5
A73
330
A71
100
AcDbEntity
  8
0
 62
     0
370
    -2
100
AcDbLine
 10
1608.32952272058
 20
152.4872583905954
 30
0.0
 11
1687.550703218826
 21
152.4872583905954
 31
0.0
  0
LINE
  5
A74
330
A71
100
AcDbEntity
  8
0
 62
     0
370
    -2
100
AcDbLine
 10
1608.32952272058
 20
402.4872583905946
 30
0.0
 11
1687.550703218826
 21
402.4872583905946
 31
0.0
  0
LINE
  5
A75
330
A71
100
AcDbEntity
  8
0
 62
     0
370
    -2
100
AcDbLine
 10
1687.370703218826
 20
152.6672583905954
 30
0.0
 11
1687.370703218826
 21
269.8972583905951
 31
0.0
  0
LINE
  5
A76
330
A71
100
AcDbEntity
  8
0
 62
     0
370
    -2
100
AcDbLine
 10
1687.370703218826
 20
402.3072583905947
 30
0.0
 11
1687.370703218826
 21
285.077258390595
 31
0.0
  0
SOLID
  5
A77
330
A71
100
AcDbEntity
  8
0
 62
     0
100
AcDbTrace
 10
1687.340703218826
 20
152.6672583905954
 30
0.0
 11
1687.400703218826
 21
152.6672583905954
 31
0.0
 12
1687.370703218826
 22
152.4872583905954
 32
0.0
 13
1687.370703218826
 23
152.4872583905954
 33
0.0
  0
SOLID
  5
A78
330
A71
100
AcDbEntity
  8
0
 62
     0
100
AcDbTrace
 10
1687.340703218826
 20
402.3072583905947
 30
0.0
 11
1687.400703218826
 21
402.3072583905947
 31
0.0
 12
1687.370703218826
 22
402.4872583905946
 32
0.0
 13
1687.370703218826
 23
402.4872583905946
 33
0.0
  0
MTEXT
  5
A79
330
A71
100
AcDbEntity
  8
0
 62
     0
100
AcDbMText
 10
1687.370703218826
 20
277.4872583905954
 30
0.0
 40
15.0
 41
0.0
 46
0.0
 71
     5
 72
     1
  1
\A1;250.0
 73
     1
 44
1.0
  0
POINT
  5
A7A
330
A71
100
AcDbEntity
  8
Defpoints
 62
     0
100
AcDbPoint
 10
1608.26702272058
 20
152.4872583905954
 30
0.0
  0
POINT
  5
A7B
330
A71
100
AcDbEntity
  8
Defpoints
 62
     0
100
AcDbPoint
 10
1608.26702272058
 20
402.4872583905946
 30
0.0
  0
POINT
  5
A7C
330
A71
100
AcDbEntity
  8
Defpoints
 62
     0
100
AcDbPoint
 10
1687.370703218826
 20
402.4872583905946
 30
0.0
  0
ENDBLK
  5
A7D
330
A71
100
AcDbEntity
  8
0
100
AcDbBlockEnd
  0
BLOCK
  5
B2B
330
B20
100
AcDbEntity
  8
0
100
AcDbBlockBegin
  2
*D83
 70
     1
 10
0.0
 20
0.0
 30
0.0
  3
*D83
  1

  0
LINE
  5
B21
330
B20
100
AcDbEntity
  8
0
 62
     0
370
    -2
100
AcDbLine
 10
2415.40457353103
 20
901.5543647541104
 30
0.0
 11
2415.40457353103
 21
835.6060185892586
 31
0.0
  0
LINE
  5
B22
330
B20
100
AcDbEntity
  8
0
 62
     0
370
    -2
100
AcDbLine
 10
2665.40457353103
 20
901.5543647541104
 30
0.0
 11
2665.40457353103
 21
835.6060185892586
 31
0.0
  0
LINE
  5
B23
330
B20
100
AcDbEntity
  8
0
 62
     0
370
    -2
100
AcDbLine
 10
2415.58457353103
 20
835.7860185892587
 30
0.0
 11
2512.81457353103
 21
835.7860185892587
 31
0.0
  0
LINE
  5
B24
330
B20
100
AcDbEntity
  8
0
 62
     0
370
    -2
100
AcDbLine
 10
2665.22457353103
 20
835.7860185892587
 30
0.0
 11
2567.99457353103
 21
835.7860185892587
 31
0.0
  0
SOLID
  5
B25
330
B20
100
AcDbEntity
  8
0
 62
     0
100
AcDbTrace
 10
2415.58457353103
 20
835.8160185892584
 30
0.0
 11
2415.58457353103
 21
835.7560185892587
 31
0.0
 12
2415.40457353103
 22
835.7860185892587
 32
0.0
 13
2415.40457353103
 23
835.7860185892587
 33
0.0
  0
SOLID
  5
B26
330
B20
100
AcDbEntity
  8
0
 62
     0
100
AcDbTrace
 10
2665.22457353103
 20
835.8160185892584
 30
0.0
 11
2665.22457353103
 21
835.7560185892587
 31
0.0
 12
2665.40457353103
 22
835.7860185892587
 32
0.0
 13
2665.40457353103
 23
835.7860185892587
 33
0.0
  0
MTEXT
  5
B27
330
B20
100
AcDbEntity
  8
0
 62
     0
100
AcDbMText
 10
2540.40457353103
 20
835.7860185892587
 30
0.0
 40
15.0
 41
0.0
 46
0.0
 71
     5
 72
     1
  1
\A1;250.0
 73
     1
 44
1.0
  0
POINT
  5
B28
330
B20
100
AcDbEntity
  8
Defpoints
 62
     0
100
AcDbPoint
 10
2415.40457353103
 20
901.6168647541105
 30
0.0
  0
POINT
  5
B29
330
B20
100
AcDbEntity
  8
Defpoints
 62
     0
100
AcDbPoint
 10
2665.40457353103
 20
901.6168647541105
 30
0.0
  0
POINT
  5
B2A
330
B20
100
AcDbEntity
  8
Defpoints
 62
     0
100
AcDbPoint
 10
2665.40457353103
 20
835.7860185892587
 30
0.0
  0
ENDBLK
  5
B2C
330
B20
100
AcDbEntity
  8
0
100
AcDbBlockEnd
  0
BLOCK
  5
B38
330
B2D
100
AcDbEntity
  8
0
100
AcDbBlockBegin
  2
*D84
 70
     1
 10
0.0
 20
0.0
 30
0.0
  3
*D84
  1

  0
LINE
  5
B2E
330
B2D
100
AcDbEntity
  8
0
 62
     0
370
    -2
100
AcDbLine
 10
2627.96707353103
 20
864.1168647541107
 30
0.0
 11
2707.188254029276
 21
864.1168647541107
 31
0.0
  0
LINE
  5
B2F
330
B2D
100
AcDbEntity
  8
0
 62
     0
370
    -2
100
AcDbLine
 10
2627.96707353103
 20
1114.11686475411
 30
0.0
 11
2707.188254029276
 21
1114.11686475411
 31
0.0
  0
LINE
  5
B30
330
B2D
100
AcDbEntity
  8
0
 62
     0
370
    -2
100
AcDbLine
 10
2707.008254029276
 20
864.2968647541108
 30
0.0
 11
2707.008254029276
 21
981.5268647541104
 31
0.0
  0
LINE
  5
B31
330
B2D
100
AcDbEntity
  8
0
 62
     0
370
    -2
100
AcDbLine
 10
2707.008254029276
 20
1113.93686475411
 30
0.0
 11
2707.008254029276
 21
996.7068647541106
 31
0.0
  0
SOLID
  5
B32
330
B2D
100
AcDbEntity
  8
0
 62
     0
100
AcDbTrace
 10
2706.978254029275
 20
864.2968647541108
 30
0.0
 11
2707.038254029277
 21
864.2968647541108
 31
0.0
 12
2707.008254029276
 22
864.1168647541107
 32
0.0
 13
2707.008254029276
 23
864.1168647541107
 33
0.0
  0
SOLID
  5
B33
330
B2D
100
AcDbEntity
  8
0
 62
     0
100
AcDbTrace
 10
2706.978254029277
 20
1113.93686475411
 30
0.0
 11
2707.038254029277
 21
1113.93686475411
 31
0.0
 12
2707.008254029276
 22
1114.11686475411
 32
0.0
 13
2707.008254029276
 23
1114.11686475411
 33
0.0
  0
MTEXT
  5
B34
330
B2D
100
AcDbEntity
  8
0
 62
     0
100
AcDbMText
 10
2707.008254029276
 20
989.116864754111
 30
0.0
 40
15.0
 41
0.0
 46
0.0
 71
     5
 72
     1
  1
\A1;250.0
 73
     1
 44
1.0
  0
POINT
  5
B35
330
B2D
100
AcDbEntity
  8
Defpoints
 62
     0
100
AcDbPoint
 10
2627.90457353103
 20
864.1168647541107
 30
0.0
  0
POINT
  5
B36
330
B2D
100
AcDbEntity
  8
Defpoints
 62
     0
100
AcDbPoint
 10
2627.90457353103
 20
1114.11686475411
 30
0.0
  0
POINT
  5
B37
330
B2D
100
AcDbEntity
  8
Defpoints
 62
     0
100
AcDbPoint
 10
2707.008254029276
 20
1114.11686475411
 30
0.0
  0
ENDBLK
  5
B39
330
B2D
100
AcDbEntity
  8
0
100
AcDbBlockEnd
  0
BLOCK
  5
B4A
330
B40
100
AcDbEntity
  8
0
100
AcDbBlockBegin
  2
*D85
 70
     1
 10
0.0
 20
0.0
 30
0.0
  3
*D85
  1

  0
LINE
  5
13CE
330
B40
100
AcDbEntity
  8
0
 62
     0
370
    -2
100
AcDbLine
 10
1493.595724235591
 20
1165.488745582855
 30
0.0
 11
1500.552958839741
 21
1165.488745582855
 31
0.0
  0
LINE
  5
13CF
330
B40
100
AcDbEntity
  8
0
 62
     0
370
    -2
100
AcDbLine
 10
1493.595724235591
 20
1335.488745582856
 30
0.0
 11
1500.552958839741
 21
1335.488745582856
 31
0.0
  0
LINE
  5
13D0
330
B40
100
AcDbEntity
  8
0
 62
     0
370
    -2
100
AcDbLine
 10
1499.30295883974
 20
1167.988745582855
 30
0.0
 11
1499.30295883974
 21
1332.988745582856
 31
0.0
  0
SOLID
  5
13D1
330
B40
100
AcDbEntity
  8
0
 62
     0
100
AcDbTrace
 10
1498.886292173074
 20
1167.988745582855
 30
0.0
 11
1499.719625506407
 21
1167.988745582855
 31
0.0
 12
1499.30295883974
 22
1165.488745582855
 32
0.0
 13
1499.30295883974
 23
1165.488745582855
 33
0.0
  0
SOLID
  5
13D2
330
B40
100
AcDbEntity
  8
0
 62
     0
100
AcDbTrace
 10
1498.886292173074
 20
1332.988745582856
 30
0.0
 11
1499.719625506407
 21
1332.988745582856
 31
0.0
 12
1499.30295883974
 22
1335.488745582856
 32
0.0
 13
1499.30295883974
 23
1335.488745582856
 33
0.0
  0
MTEXT
  5
13D3
330
B40
100
AcDbEntity
  8
0
 62
     0
100
AcDbMText
 10
1493.67795883974
 20
1250.488745582855
 30
0.0
 40
10.0
 41
0.0
 46
0.0
 71
     5
 72
     1
  1
170
 11
0.0000000000000001
 21
1.0
 31
0.0
 73
     1
 44
1.0
  0
POINT
  5
13D4
330
B40
100
AcDbEntity
  8
Defpoints
 62
     0
100
AcDbPoint
 10
1492.970724235592
 20
1165.488745582855
 30
0.0
  0
POINT
  5
13D5
330
B40
100
AcDbEntity
  8
Defpoints
 62
     0
100
AcDbPoint
 10
1492.970724235592
 20
1335.488745582856
 30
0.0
  0
POINT
  5
13D6
330
B40
100
AcDbEntity
  8
Defpoints
 62
     0
100
AcDbPoint
 10
1499.30295883974
 20
1335.488745582856
 30
0.0
  0
ENDBLK
  5
B4B
330
B40
100
AcDbEntity
  8
0
100
AcDbBlockEnd
  0
BLOCK
  5
BD4
330
BD3
100
AcDbEntity
  8
0
 62
     3
100
AcDbBlockBegin
  2
*D86
 70
     1
 10
0.0
 20
0.0
 30
0.0
  3
*D86
  1

  0
LINE
  5
BD5
330
BD3
100
AcDbEntity
  8
0
 62
     0
370
    -2
100
AcDbLine
 10
2111.166963569663
 20
817.8475078926593
 30
0.0
 11
2111.166963569663
 21
765.0653309607776
 31
0.0
  0
LINE
  5
BD6
330
BD3
100
AcDbEntity
  8
0
 62
     0
370
    -2
100
AcDbLine
 10
2311.166963569664
 20
817.8475078926593
 30
0.0
 11
2311.166963569664
 21
765.0653309607776
 31
0.0
  0
LINE
  5
BD7
330
BD3
100
AcDbEntity
  8
0
 62
     0
370
    -2
100
AcDbLine
 10
2111.346963569664
 20
765.2453309607778
 30
0.0
 11
2184.826963569664
 21
765.2453309607778
 31
0.0
  0
LINE
  5
BD8
330
BD3
100
AcDbEntity
  8
0
 62
     0
370
    -2
100
AcDbLine
 10
2310.986963569664
 20
765.2453309607778
 30
0.0
 11
2237.506963569664
 21
765.2453309607778
 31
0.0
  0
SOLID
  5
BD9
330
BD3
100
AcDbEntity
  8
0
 62
     0
100
AcDbTrace
 10
2111.346963569664
 20
765.2753309607776
 30
0.0
 11
2111.346963569664
 21
765.2153309607776
 31
0.0
 12
2111.166963569663
 22
765.2453309607778
 32
0.0
 13
2111.166963569663
 23
765.2453309607778
 33
0.0
  0
SOLID
  5
BDA
330
BD3
100
AcDbEntity
  8
0
 62
     0
100
AcDbTrace
 10
2310.986963569664
 20
765.2753309607776
 30
0.0
 11
2310.986963569664
 21
765.2153309607776
 31
0.0
 12
2311.166963569664
 22
765.2453309607778
 32
0.0
 13
2311.166963569664
 23
765.2453309607778
 33
0.0
  0
MTEXT
  5
BDB
330
BD3
100
AcDbEntity
  8
0
 62
     0
100
AcDbMText
 10
2211.166963569664
 20
765.2453309607778
 30
0.0
 40
15.0
 41
0.0
 46
0.0
 71
     5
 72
     1
  1
\A1;200.0
 73
     1
 44
1.0
  0
POINT
  5
BDC
330
BD3
100
AcDbEntity
  8
Defpoints
 62
     0
100
AcDbPoint
 10
2111.166963569663
 20
817.9100078926591
 30
0.0
  0
POINT
  5
BDD
330
BD3
100
AcDbEntity
  8
Defpoints
 62
     0
100
AcDbPoint
 10
2311.166963569664
 20
817.9100078926591
 30
0.0
  0
POINT
  5
BDE
330
BD3
100
AcDbEntity
  8
Defpoints
 62
     0
100
AcDbPoint
 10
2311.166963569664
 20
765.2453309607778
 30
0.0
  0
ENDBLK
  5
BDF
330
BD3
100
AcDbEntity
  8
0
 62
     3
100
AcDbBlockEnd
  0
BLOCK
  5
BE1
330
BE0
100
AcDbEntity
  8
0
 62
     3
100
AcDbBlockBegin
  2
*D87
 70
     1
 10
0.0
 20
0.0
 30
0.0
  3
*D87
  1

  0
LINE
  5
BE2
330
BE0
100
AcDbEntity
  8
0
 62
     0
370
    -2
100
AcDbLine
 10
2281.229463569664
 20
787.9100078926593
 30
0.0
 11
2344.62990796826
 21
787.9100078926593
 31
0.0
  0
LINE
  5
BE3
330
BE0
100
AcDbEntity
  8
0
 62
     0
370
    -2
100
AcDbLine
 10
2281.229463569664
 20
987.9100078926587
 30
0.0
 11
2344.62990796826
 21
987.9100078926583
 31
0.0
  0
LINE
  5
BE4
330
BE0
100
AcDbEntity
  8
0
 62
     0
370
    -2
100
AcDbLine
 10
2344.44990796826
 20
788.0900078926591
 30
0.0
 11
2344.44990796826
 21
880.3200078926588
 31
0.0
  0
LINE
  5
BE5
330
BE0
100
AcDbEntity
  8
0
 62
     0
370
    -2
100
AcDbLine
 10
2344.44990796826
 20
987.7300078926587
 30
0.0
 11
2344.44990796826
 21
895.5000078926586
 31
0.0
  0
SOLID
  5
BE6
330
BE0
100
AcDbEntity
  8
0
 62
     0
100
AcDbTrace
 10
2344.41990796826
 20
788.0900078926591
 30
0.0
 11
2344.47990796826
 21
788.0900078926591
 31
0.0
 12
2344.44990796826
 22
787.9100078926593
 32
0.0
 13
2344.44990796826
 23
787.9100078926593
 33
0.0
  0
SOLID
  5
BE7
330
BE0
100
AcDbEntity
  8
0
 62
     0
100
AcDbTrace
 10
2344.41990796826
 20
987.7300078926587
 30
0.0
 11
2344.47990796826
 21
987.7300078926587
 31
0.0
 12
2344.44990796826
 22
987.9100078926583
 32
0.0
 13
2344.44990796826
 23
987.9100078926583
 33
0.0
  0
MTEXT
  5
BE8
330
BE0
100
AcDbEntity
  8
0
 62
     0
100
AcDbMText
 10
2344.44990796826
 20
887.9100078926594
 30
0.0
 40
15.0
 41
0.0
 46
0.0
 71
     5
 72
     1
  1
\A1;200.0
 73
     1
 44
1.0
  0
POINT
  5
BE9
330
BE0
100
AcDbEntity
  8
Defpoints
 62
     0
100
AcDbPoint
 10
2281.166963569663
 20
787.9100078926593
 30
0.0
  0
POINT
  5
BEA
330
BE0
100
AcDbEntity
  8
Defpoints
 62
     0
100
AcDbPoint
 10
2281.166963569663
 20
987.9100078926587
 30
0.0
  0
POINT
  5
BEB
330
BE0
100
AcDbEntity
  8
Defpoints
 62
     0
100
AcDbPoint
 10
2344.44990796826
 20
987.9100078926583
 30
0.0
  0
ENDBLK
  5
BEC
330
BE0
100
AcDbEntity
  8
0
 62
     3
100
AcDbBlockEnd
  0
BLOCK
  5
CCC
330
CC1
100
AcDbEntity
  8
0
100
AcDbBlockBegin
  2
*D88
 70
     1
 10
0.0
 20
0.0
 30
0.0
  3
*D88
  1

  0
LINE
  5
CEF
330
CC1
100
AcDbEntity
  8
0
 62
     0
370
    -2
100
AcDbLine
 10
2433.996804131634
 20
872.9587454448465
 30
0.0
 11
2433.996804131634
 21
807.0103992799948
 31
0.0
  0
LINE
  5
CF0
330
CC1
100
AcDbEntity
  8
0
 62
     0
370
    -2
100
AcDbLine
 10
2683.996804131634
 20
872.9587454448465
 30
0.0
 11
2683.996804131634
 21
807.0103992799948
 31
0.0
  0
LINE
  5
CF1
330
CC1
100
AcDbEntity
  8
0
 62
     0
370
    -2
100
AcDbLine
 10
2434.176804131634
 20
807.1903992799947
 30
0.0
 11
2531.406804131635
 21
807.1903992799947
 31
0.0
  0
LINE
  5
CF2
330
CC1
100
AcDbEntity
  8
0
 62
     0
370
    -2
100
AcDbLine
 10
2683.816804131634
 20
807.1903992799947
 30
0.0
 11
2586.586804131634
 21
807.1903992799947
 31
0.0
  0
SOLID
  5
CF3
330
CC1
100
AcDbEntity
  8
0
 62
     0
100
AcDbTrace
 10
2434.176804131634
 20
807.2203992799948
 30
0.0
 11
2434.176804131634
 21
807.1603992799948
 31
0.0
 12
2433.996804131634
 22
807.1903992799947
 32
0.0
 13
2433.996804131634
 23
807.1903992799947
 33
0.0
  0
SOLID
  5
CF4
330
CC1
100
AcDbEntity
  8
0
 62
     0
100
AcDbTrace
 10
2683.816804131634
 20
807.2203992799948
 30
0.0
 11
2683.816804131634
 21
807.1603992799948
 31
0.0
 12
2683.996804131634
 22
807.1903992799947
 32
0.0
 13
2683.996804131634
 23
807.1903992799947
 33
0.0
  0
MTEXT
  5
CF5
330
CC1
100
AcDbEntity
  8
0
 62
     0
100
AcDbMText
 10
2558.996804131634
 20
807.1903992799947
 30
0.0
 40
15.0
 41
0.0
 46
0.0
 71
     5
 72
     1
  1
\A1;250.0
 73
     1
 44
1.0
  0
POINT
  5
CF6
330
CC1
100
AcDbEntity
  8
Defpoints
 62
     0
100
AcDbPoint
 10
2433.996804131634
 20
873.0212454448464
 30
0.0
  0
POINT
  5
CF7
330
CC1
100
AcDbEntity
  8
Defpoints
 62
     0
100
AcDbPoint
 10
2683.996804131634
 20
873.0212454448464
 30
0.0
  0
POINT
  5
CF8
330
CC1
100
AcDbEntity
  8
Defpoints
 62
     0
100
AcDbPoint
 10
2683.996804131634
 20
807.1903992799947
 30
0.0
  0
ENDBLK
  5
CCD
330
CC1
100
AcDbEntity
  8
0
100
AcDbBlockEnd
  0
BLOCK
  5
CD9
330
CCE
100
AcDbEntity
  8
0
100
AcDbBlockBegin
  2
*D89
 70
     1
 10
0.0
 20
0.0
 30
0.0
  3
*D89
  1

  0
LINE
  5
CF9
330
CCE
100
AcDbEntity
  8
0
 62
     0
370
    -2
100
AcDbLine
 10
2646.559304131634
 20
835.5212454448468
 30
0.0
 11
2725.78048462988
 21
835.5212454448468
 31
0.0
  0
LINE
  5
CFA
330
CCE
100
AcDbEntity
  8
0
 62
     0
370
    -2
100
AcDbLine
 10
2646.559304131634
 20
1085.521245444846
 30
0.0
 11
2725.78048462988
 21
1085.521245444846
 31
0.0
  0
LINE
  5
CFB
330
CCE
100
AcDbEntity
  8
0
 62
     0
370
    -2
100
AcDbLine
 10
2725.600484629879
 20
835.7012454448467
 30
0.0
 11
2725.600484629879
 21
952.9312454448463
 31
0.0
  0
LINE
  5
CFC
330
CCE
100
AcDbEntity
  8
0
 62
     0
370
    -2
100
AcDbLine
 10
2725.600484629879
 20
1085.341245444846
 30
0.0
 11
2725.600484629879
 21
968.1112454448463
 31
0.0
  0
SOLID
  5
CFD
330
CCE
100
AcDbEntity
  8
0
 62
     0
100
AcDbTrace
 10
2725.570484629879
 20
835.7012454448467
 30
0.0
 11
2725.630484629879
 21
835.7012454448467
 31
0.0
 12
2725.600484629879
 22
835.5212454448468
 32
0.0
 13
2725.600484629879
 23
835.5212454448468
 33
0.0
  0
SOLID
  5
CFE
330
CCE
100
AcDbEntity
  8
0
 62
     0
100
AcDbTrace
 10
2725.570484629879
 20
1085.341245444846
 30
0.0
 11
2725.63048462988
 21
1085.341245444846
 31
0.0
 12
2725.600484629879
 22
1085.521245444846
 32
0.0
 13
2725.600484629879
 23
1085.521245444846
 33
0.0
  0
MTEXT
  5
CFF
330
CCE
100
AcDbEntity
  8
0
 62
     0
100
AcDbMText
 10
2725.600484629879
 20
960.5212454448468
 30
0.0
 40
15.0
 41
0.0
 46
0.0
 71
     5
 72
     1
  1
\A1;250.0
 73
     1
 44
1.0
  0
POINT
  5
D00
330
CCE
100
AcDbEntity
  8
Defpoints
 62
     0
100
AcDbPoint
 10
2646.496804131634
 20
835.5212454448468
 30
0.0
  0
POINT
  5
D01
330
CCE
100
AcDbEntity
  8
Defpoints
 62
     0
100
AcDbPoint
 10
2646.496804131634
 20
1085.521245444846
 30
0.0
  0
POINT
  5
D02
330
CCE
100
AcDbEntity
  8
Defpoints
 62
     0
100
AcDbPoint
 10
2725.600484629879
 20
1085.521245444846
 30
0.0
  0
ENDBLK
  5
CDA
330
CCE
100
AcDbEntity
  8
0
100
AcDbBlockEnd
  0
BLOCK
  5
D0F
330
D04
100
AcDbEntity
  8
0
100
AcDbBlockBegin
  2
*D90
 70
     1
 10
0.0
 20
0.0
 30
0.0
  3
*D90
  1

  0
LINE
  5
D12
330
D04
100
AcDbEntity
  8
0
 62
     0
370
    -2
100
AcDbLine
 10
2564.823067554445
 20
950.8677350264196
 30
0.0
 11
2564.198067554445
 21
950.8677350264196
 31
0.0
  0
LINE
  5
D13
330
D04
100
AcDbEntity
  8
0
 62
     0
370
    -2
100
AcDbLine
 10
2564.823067554445
 20
925.5212454448468
 30
0.0
 11
2564.198067554445
 21
925.5212454448468
 31
0.0
  0
LINE
  5
D14
330
D04
100
AcDbEntity
  8
0
 62
     0
370
    -2
100
AcDbLine
 10
2565.448067554445
 20
948.3677350264198
 30
0.0
 11
2565.448067554445
 21
928.0212454448468
 31
0.0
  0
LINE
  5
D15
330
D04
100
AcDbEntity
  8
0
 62
     0
370
    -2
100
AcDbLine
 10
2565.448067554445
 20
925.5212454448468
 30
0.0
 11
2565.448067554445
 21
890.1045787781802
 31
0.0
  0
SOLID
  5
D16
330
D04
100
AcDbEntity
  8
0
 62
     0
100
AcDbTrace
 10
2565.031400887779
 20
948.3677350264198
 30
0.0
 11
2565.864734221112
 21
948.3677350264198
 31
0.0
 12
2565.448067554445
 22
950.8677350264196
 32
0.0
 13
2565.448067554445
 23
950.8677350264196
 33
0.0
  0
SOLID
  5
D17
330
D04
100
AcDbEntity
  8
0
 62
     0
100
AcDbTrace
 10
2565.031400887779
 20
928.0212454448468
 30
0.0
 11
2565.864734221112
 21
928.0212454448468
 31
0.0
 12
2565.448067554445
 22
925.5212454448468
 32
0.0
 13
2565.448067554445
 23
925.5212454448468
 33
0.0
  0
MTEXT
  5
D18
330
D04
100
AcDbEntity
  8
0
 62
     0
100
AcDbMText
 10
2558.989734221112
 20
906.5629121115138
 30
0.0
 40
10.0
 41
0.0
 46
0.0
 71
     5
 72
     1
  1
25,3
 11
0.0000000000000001
 21
1.0
 31
0.0
 73
     1
 44
1.0
  0
POINT
  5
D19
330
D04
100
AcDbEntity
  8
Defpoints
 62
     0
100
AcDbPoint
 10
2565.448067554445
 20
950.8677350264196
 30
0.0
  0
POINT
  5
D1A
330
D04
100
AcDbEntity
  8
Defpoints
 62
     0
100
AcDbPoint
 10
2565.448067554445
 20
925.5212454448468
 30
0.0
  0
POINT
  5
D1B
330
D04
100
AcDbEntity
  8
Defpoints
 62
     0
100
AcDbPoint
 10
2565.448067554445
 20
925.5212454448468
 30
0.0
  0
ENDBLK
  5
D10
330
D04
100
AcDbEntity
  8
0
100
AcDbBlockEnd
  0
BLOCK
  5
D29
330
D1E
100
AcDbEntity
  8
0
100
AcDbBlockBegin
  2
*D91
 70
     1
 10
0.0
 20
0.0
 30
0.0
  3
*D91
  1

  0
LINE
  5
D2C
330
D1E
100
AcDbEntity
  8
0
 62
     0
370
    -2
100
AcDbLine
 10
2566.009666097248
 20
969.9567013642058
 30
0.0
 11
2565.384666097248
 21
969.9567013642058
 31
0.0
  0
LINE
  5
D2D
330
D1E
100
AcDbEntity
  8
0
 62
     0
370
    -2
100
AcDbLine
 10
2566.009666097248
 20
995.5212454448455
 30
0.0
 11
2565.384666097248
 21
995.5212454448455
 31
0.0
  0
LINE
  5
D2E
330
D1E
100
AcDbEntity
  8
0
 62
     0
370
    -2
100
AcDbLine
 10
2566.634666097248
 20
972.4567013642056
 30
0.0
 11
2566.634666097248
 21
993.021245444846
 31
0.0
  0
LINE
  5
D2F
330
D1E
100
AcDbEntity
  8
0
 62
     0
370
    -2
100
AcDbLine
 10
2566.634666097248
 20
995.5212454448455
 30
0.0
 11
2566.634666097249
 21
1030.937912111512
 31
0.0
  0
SOLID
  5
D30
330
D1E
100
AcDbEntity
  8
0
 62
     0
100
AcDbTrace
 10
2566.217999430582
 20
972.4567013642056
 30
0.0
 11
2567.051332763915
 21
972.4567013642056
 31
0.0
 12
2566.634666097248
 22
969.9567013642058
 32
0.0
 13
2566.634666097248
 23
969.9567013642058
 33
0.0
  0
SOLID
  5
D31
330
D1E
100
AcDbEntity
  8
0
 62
     0
100
AcDbTrace
 10
2566.217999430582
 20
993.021245444846
 30
0.0
 11
2567.051332763915
 21
993.021245444846
 31
0.0
 12
2566.634666097248
 22
995.5212454448455
 32
0.0
 13
2566.634666097248
 23
995.5212454448455
 33
0.0
  0
MTEXT
  5
D32
330
D1E
100
AcDbEntity
  8
0
 62
     0
100
AcDbMText
 10
2560.176332763915
 20
1014.479578778179
 30
0.0
 40
10.0
 41
0.0
 46
0.0
 71
     5
 72
     1
  1
25,6
 11
0.0000000000000001
 21
1.0
 31
0.0
 73
     1
 44
1.0
  0
POINT
  5
D33
330
D1E
100
AcDbEntity
  8
Defpoints
 62
     0
100
AcDbPoint
 10
2566.634666097248
 20
969.9567013642058
 30
0.0
  0
POINT
  5
D34
330
D1E
100
AcDbEntity
  8
Defpoints
 62
     0
100
AcDbPoint
 10
2566.634666097248
 20
995.5212454448455
 30
0.0
  0
POINT
  5
D35
330
D1E
100
AcDbEntity
  8
Defpoints
 62
     0
100
AcDbPoint
 10
2566.634666097248
 20
995.5212454448455
 30
0.0
  0
ENDBLK
  5
D2A
330
D1E
100
AcDbEntity
  8
0
100
AcDbBlockEnd
  0
BLOCK
  5
D43
330
D38
100
AcDbEntity
  8
0
100
AcDbBlockBegin
  2
*D92
 70
     1
 10
0.0
 20
0.0
 30
0.0
  3
*D92
  1

  0
LINE
  5
D6B
330
D38
100
AcDbEntity
  8
0
 62
     0
370
    -2
100
AcDbLine
 10
2564.823067554445
 20
973.0177350264197
 30
0.0
 11
2563.45840389309
 21
973.0177350264197
 31
0.0
  0
LINE
  5
D6C
330
D38
100
AcDbEntity
  8
0
 62
     0
370
    -2
100
AcDbLine
 10
2564.823067554445
 20
995.5212454448455
 30
0.0
 11
2563.45840389309
 21
995.5212454448455
 31
0.0
  0
LINE
  5
D6D
330
D38
100
AcDbEntity
  8
0
 62
     0
370
    -2
100
AcDbLine
 10
2564.70840389309
 20
975.5177350264197
 30
0.0
 11
2564.70840389309
 21
993.021245444846
 31
0.0
  0
LINE
  5
D6E
330
D38
100
AcDbEntity
  8
0
 62
     0
370
    -2
100
AcDbLine
 10
2564.70840389309
 20
995.5212454448455
 30
0.0
 11
2564.708403893091
 21
1030.937912111512
 31
0.0
  0
SOLID
  5
D6F
330
D38
100
AcDbEntity
  8
0
 62
     0
100
AcDbTrace
 10
2564.291737226425
 20
975.5177350264197
 30
0.0
 11
2565.125070559757
 21
975.5177350264197
 31
0.0
 12
2564.70840389309
 22
973.0177350264197
 32
0.0
 13
2564.70840389309
 23
973.0177350264197
 33
0.0
  0
SOLID
  5
D70
330
D38
100
AcDbEntity
  8
0
 62
     0
100
AcDbTrace
 10
2564.291737226425
 20
993.021245444846
 30
0.0
 11
2565.125070559757
 21
993.021245444846
 31
0.0
 12
2564.70840389309
 22
995.5212454448455
 32
0.0
 13
2564.70840389309
 23
995.5212454448455
 33
0.0
  0
MTEXT
  5
D71
330
D38
100
AcDbEntity
  8
0
 62
     0
100
AcDbMText
 10
2558.250070559757
 20
1014.479578778179
 30
0.0
 40
10.0
 41
0.0
 46
0.0
 71
     5
 72
     1
  1
22,5
 11
0.0000000000000001
 21
1.0
 31
0.0
 73
     1
 44
1.0
  0
POINT
  5
D72
330
D38
100
AcDbEntity
  8
Defpoints
 62
     0
100
AcDbPoint
 10
2565.448067554445
 20
973.0177350264197
 30
0.0
  0
POINT
  5
D73
330
D38
100
AcDbEntity
  8
Defpoints
 62
     0
100
AcDbPoint
 10
2565.448067554445
 20
995.5212454448455
 30
0.0
  0
POINT
  5
D74
330
D38
100
AcDbEntity
  8
Defpoints
 62
     0
100
AcDbPoint
 10
2564.70840389309
 20
995.5212454448455
 30
0.0
  0
ENDBLK
  5
D44
330
D38
100
AcDbEntity
  8
0
100
AcDbBlockEnd
  0
BLOCK
  5
D5D
330
D52
100
AcDbEntity
  8
0
100
AcDbBlockBegin
  2
*D93
 70
     1
 10
0.0
 20
0.0
 30
0.0
  3
*D93
  1

  0
LINE
  5
D75
330
D52
100
AcDbEntity
  8
0
 62
     0
370
    -2
100
AcDbLine
 10
2564.823067554445
 20
948.0177350264197
 30
0.0
 11
2564.198067554445
 21
948.0177350264197
 31
0.0
  0
LINE
  5
D76
330
D52
100
AcDbEntity
  8
0
 62
     0
370
    -2
100
AcDbLine
 10
2564.823067554445
 20
925.5212454448468
 30
0.0
 11
2564.198067554445
 21
925.5212454448468
 31
0.0
  0
LINE
  5
D77
330
D52
100
AcDbEntity
  8
0
 62
     0
370
    -2
100
AcDbLine
 10
2565.448067554445
 20
945.5177350264197
 30
0.0
 11
2565.448067554445
 21
928.0212454448468
 31
0.0
  0
LINE
  5
D78
330
D52
100
AcDbEntity
  8
0
 62
     0
370
    -2
100
AcDbLine
 10
2565.448067554445
 20
925.5212454448468
 30
0.0
 11
2565.448067554445
 21
890.1045787781802
 31
0.0
  0
SOLID
  5
D79
330
D52
100
AcDbEntity
  8
0
 62
     0
100
AcDbTrace
 10
2565.031400887779
 20
945.5177350264197
 30
0.0
 11
2565.864734221112
 21
945.5177350264197
 31
0.0
 12
2565.448067554445
 22
948.0177350264197
 32
0.0
 13
2565.448067554445
 23
948.0177350264197
 33
0.0
  0
SOLID
  5
D7A
330
D52
100
AcDbEntity
  8
0
 62
     0
100
AcDbTrace
 10
2565.031400887779
 20
928.0212454448468
 30
0.0
 11
2565.864734221112
 21
928.0212454448468
 31
0.0
 12
2565.448067554445
 22
925.5212454448468
 32
0.0
 13
2565.448067554445
 23
925.5212454448468
 33
0.0
  0
MTEXT
  5
D7B
330
D52
100
AcDbEntity
  8
0
 62
     0
100
AcDbMText
 10
2558.989734221112
 20
906.5629121115138
 30
0.0
 40
10.0
 41
0.0
 46
0.0
 71
     5
 72
     1
  1
22,5
 11
0.0000000000000001
 21
1.0
 31
0.0
 73
     1
 44
1.0
  0
POINT
  5
D7C
330
D52
100
AcDbEntity
  8
Defpoints
 62
     0
100
AcDbPoint
 10
2565.448067554445
 20
948.0177350264197
 30
0.0
  0
POINT
  5
D7D
330
D52
100
AcDbEntity
  8
Defpoints
 62
     0
100
AcDbPoint
 10
2565.448067554445
 20
925.5212454448468
 30
0.0
  0
POINT
  5
D7E
330
D52
100
AcDbEntity
  8
Defpoints
 62
     0
100
AcDbPoint
 10
2565.448067554445
 20
925.5212454448468
 30
0.0
  0
ENDBLK
  5
D5E
330
D52
100
AcDbEntity
  8
0
100
AcDbBlockEnd
  0
BLOCK
  5
D8B
330
D80
100
AcDbEntity
  8
0
100
AcDbBlockBegin
  2
*D94
 70
     1
 10
0.0
 20
0.0
 30
0.0
  3
*D94
  1

  0
LINE
  5
D8E
330
D80
100
AcDbEntity
  8
0
 62
     0
370
    -2
100
AcDbLine
 10
2552.53850565896
 20
948.6427350264197
 30
0.0
 11
2552.53850565896
 21
949.2677350264196
 31
0.0
  0
LINE
  5
D8F
330
D80
100
AcDbEntity
  8
0
 62
     0
370
    -2
100
AcDbLine
 10
2523.996804131634
 20
948.6427350264197
 30
0.0
 11
2523.996804131634
 21
949.2677350264196
 31
0.0
  0
LINE
  5
D90
330
D80
100
AcDbEntity
  8
0
 62
     0
370
    -2
100
AcDbLine
 10
2550.038505658961
 20
948.0177350264197
 30
0.0
 11
2526.496804131634
 21
948.0177350264197
 31
0.0
  0
LINE
  5
D91
330
D80
100
AcDbEntity
  8
0
 62
     0
370
    -2
100
AcDbLine
 10
2523.996804131634
 20
948.0177350264197
 30
0.0
 11
2488.580137464968
 21
948.0177350264197
 31
0.0
  0
SOLID
  5
D92
330
D80
100
AcDbEntity
  8
0
 62
     0
100
AcDbTrace
 10
2550.038505658961
 20
948.4344016930863
 30
0.0
 11
2550.038505658961
 21
947.6010683597532
 31
0.0
 12
2552.53850565896
 22
948.0177350264197
 32
0.0
 13
2552.53850565896
 23
948.0177350264197
 33
0.0
  0
SOLID
  5
D93
330
D80
100
AcDbEntity
  8
0
 62
     0
100
AcDbTrace
 10
2526.496804131634
 20
948.4344016930863
 30
0.0
 11
2526.496804131634
 21
947.6010683597532
 31
0.0
 12
2523.996804131634
 22
948.0177350264197
 32
0.0
 13
2523.996804131634
 23
948.0177350264197
 33
0.0
  0
MTEXT
  5
D94
330
D80
100
AcDbEntity
  8
0
 62
     0
100
AcDbMText
 10
2505.038470798301
 20
954.4760683597528
 30
0.0
 40
10.0
 41
0.0
 46
0.0
 71
     5
 72
     1
  1
28,5
 73
     1
 44
1.0
  0
POINT
  5
D95
330
D80
100
AcDbEntity
  8
Defpoints
 62
     0
100
AcDbPoint
 10
2552.53850565896
 20
948.0177350264197
 30
0.0
  0
POINT
  5
D96
330
D80
100
AcDbEntity
  8
Defpoints
 62
     0
100
AcDbPoint
 10
2523.996804131634
 20
948.0177350264197
 30
0.0
  0
POINT
  5
D97
330
D80
100
AcDbEntity
  8
Defpoints
 62
     0
100
AcDbPoint
 10
2523.996804131634
 20
948.0177350264197
 30
0.0
  0
ENDBLK
  5
D8C
330
D80
100
AcDbEntity
  8
0
100
AcDbBlockEnd
  0
BLOCK
  5
DA5
330
D9A
100
AcDbEntity
  8
0
100
AcDbBlockBegin
  2
*D95
 70
     1
 10
0.0
 20
0.0
 30
0.0
  3
*D95
  1

  0
LINE
  5
DA8
330
D9A
100
AcDbEntity
  8
0
 62
     0
370
    -2
100
AcDbLine
 10
2551.913505658961
 20
948.0177350264197
 30
0.0
 11
2548.549236862601
 21
948.0177350264197
 31
0.0
  0
LINE
  5
DA9
330
D9A
100
AcDbEntity
  8
0
 62
     0
370
    -2
100
AcDbLine
 10
2551.913505658961
 20
925.5212454448468
 30
0.0
 11
2548.549236862601
 21
925.5212454448468
 31
0.0
  0
LINE
  5
DAA
330
D9A
100
AcDbEntity
  8
0
 62
     0
370
    -2
100
AcDbLine
 10
2549.799236862601
 20
945.5177350264197
 30
0.0
 11
2549.799236862601
 21
928.0212454448468
 31
0.0
  0
LINE
  5
DAB
330
D9A
100
AcDbEntity
  8
0
 62
     0
370
    -2
100
AcDbLine
 10
2549.799236862601
 20
925.5212454448468
 30
0.0
 11
2549.799236862601
 21
890.1045787781802
 31
0.0
  0
SOLID
  5
DAC
330
D9A
100
AcDbEntity
  8
0
 62
     0
100
AcDbTrace
 10
2549.382570195934
 20
945.5177350264197
 30
0.0
 11
2550.215903529267
 21
945.5177350264197
 31
0.0
 12
2549.799236862601
 22
948.0177350264197
 32
0.0
 13
2549.799236862601
 23
948.0177350264197
 33
0.0
  0
SOLID
  5
DAD
330
D9A
100
AcDbEntity
  8
0
 62
     0
100
AcDbTrace
 10
2549.382570195934
 20
928.0212454448468
 30
0.0
 11
2550.215903529267
 21
928.0212454448468
 31
0.0
 12
2549.799236862601
 22
925.5212454448468
 32
0.0
 13
2549.799236862601
 23
925.5212454448468
 33
0.0
  0
MTEXT
  5
DAE
330
D9A
100
AcDbEntity
  8
0
 62
     0
100
AcDbMText
 10
2543.340903529267
 20
906.5629121115138
 30
0.0
 40
10.0
 41
0.0
 46
0.0
 71
     5
 72
     1
  1
22,5
 11
0.0000000000000001
 21
1.0
 31
0.0
 73
     1
 44
1.0
  0
POINT
  5
DAF
330
D9A
100
AcDbEntity
  8
Defpoints
 62
     0
100
AcDbPoint
 10
2552.53850565896
 20
948.0177350264197
 30
0.0
  0
POINT
  5
DB0
330
D9A
100
AcDbEntity
  8
Defpoints
 62
     0
100
AcDbPoint
 10
2552.53850565896
 20
925.5212454448468
 30
0.0
  0
POINT
  5
DB1
330
D9A
100
AcDbEntity
  8
Defpoints
 62
     0
100
AcDbPoint
 10
2549.799236862601
 20
925.5212454448468
 30
0.0
  0
ENDBLK
  5
DA6
330
D9A
100
AcDbEntity
  8
0
100
AcDbBlockEnd
  0
BLOCK
  5
DBF
330
DB4
100
AcDbEntity
  8
0
100
AcDbBlockBegin
  2
*D96
 70
     1
 10
0.0
 20
0.0
 30
0.0
  3
*D96
  1

  0
LINE
  5
DC2
330
DB4
100
AcDbEntity
  8
0
 62
     0
370
    -2
100
AcDbLine
 10
2552.53850565896
 20
973.6427350264197
 30
0.0
 11
2552.53850565896
 21
975.5257411728644
 31
0.0
  0
LINE
  5
DC3
330
DB4
100
AcDbEntity
  8
0
 62
     0
370
    -2
100
AcDbLine
 10
2523.996804131634
 20
973.6427350264197
 30
0.0
 11
2523.996804131634
 21
975.5257411728644
 31
0.0
  0
LINE
  5
DC4
330
DB4
100
AcDbEntity
  8
0
 62
     0
370
    -2
100
AcDbLine
 10
2550.038505658961
 20
974.2757411728645
 30
0.0
 11
2526.496804131634
 21
974.2757411728645
 31
0.0
  0
LINE
  5
DC5
330
DB4
100
AcDbEntity
  8
0
 62
     0
370
    -2
100
AcDbLine
 10
2523.996804131634
 20
974.2757411728645
 30
0.0
 11
2488.580137464968
 21
974.2757411728645
 31
0.0
  0
SOLID
  5
DC6
330
DB4
100
AcDbEntity
  8
0
 62
     0
100
AcDbTrace
 10
2550.038505658961
 20
974.6924078395307
 30
0.0
 11
2550.038505658961
 21
973.8590745061978
 31
0.0
 12
2552.53850565896
 22
974.2757411728645
 32
0.0
 13
2552.53850565896
 23
974.2757411728645
 33
0.0
  0
SOLID
  5
DC7
330
DB4
100
AcDbEntity
  8
0
 62
     0
100
AcDbTrace
 10
2526.496804131634
 20
974.6924078395307
 30
0.0
 11
2526.496804131634
 21
973.8590745061978
 31
0.0
 12
2523.996804131634
 22
974.2757411728645
 32
0.0
 13
2523.996804131634
 23
974.2757411728645
 33
0.0
  0
MTEXT
  5
DC8
330
DB4
100
AcDbEntity
  8
0
 62
     0
100
AcDbMText
 10
2505.038470798301
 20
980.7340745061978
 30
0.0
 40
10.0
 41
0.0
 46
0.0
 71
     5
 72
     1
  1
28,5
 73
     1
 44
1.0
  0
POINT
  5
DC9
330
DB4
100
AcDbEntity
  8
Defpoints
 62
     0
100
AcDbPoint
 10
2552.53850565896
 20
973.0177350264197
 30
0.0
  0
POINT
  5
DCA
330
DB4
100
AcDbEntity
  8
Defpoints
 62
     0
100
AcDbPoint
 10
2523.996804131634
 20
973.0177350264197
 30
0.0
  0
POINT
  5
DCB
330
DB4
100
AcDbEntity
  8
Defpoints
 62
     0
100
AcDbPoint
 10
2523.996804131634
 20
974.2757411728645
 30
0.0
  0
ENDBLK
  5
DC0
330
DB4
100
AcDbEntity
  8
0
100
AcDbBlockEnd
  0
BLOCK
  5
DEC
330
DE1
100
AcDbEntity
  8
0
100
AcDbBlockBegin
  2
*D97
 70
     1
 10
0.0
 20
0.0
 30
0.0
  3
*D97
  1

  0
LINE
  5
E14
330
DE1
100
AcDbEntity
  8
0
 62
     0
370
    -2
100
AcDbLine
 10
2562.277482609832
 20
946.4930920810079
 30
0.0
 11
2561.652482609832
 21
946.4930920810079
 31
0.0
  0
LINE
  5
E15
330
DE1
100
AcDbEntity
  8
0
 62
     0
370
    -2
100
AcDbLine
 10
2562.277482609832
 20
925.5212454448468
 30
0.0
 11
2561.652482609832
 21
925.5212454448468
 31
0.0
  0
LINE
  5
E16
330
DE1
100
AcDbEntity
  8
0
 62
     0
370
    -2
100
AcDbLine
 10
2562.902482609832
 20
943.9930920810079
 30
0.0
 11
2562.902482609832
 21
928.0212454448468
 31
0.0
  0
SOLID
  5
E17
330
DE1
100
AcDbEntity
  8
0
 62
     0
100
AcDbTrace
 10
2562.485815943166
 20
943.9930920810079
 30
0.0
 11
2563.319149276499
 21
943.9930920810079
 31
0.0
 12
2562.902482609832
 22
946.4930920810079
 32
0.0
 13
2562.902482609832
 23
946.4930920810079
 33
0.0
  0
SOLID
  5
E18
330
DE1
100
AcDbEntity
  8
0
 62
     0
100
AcDbTrace
 10
2562.485815943166
 20
928.0212454448468
 30
0.0
 11
2563.319149276499
 21
928.0212454448468
 31
0.0
 12
2562.902482609832
 22
925.5212454448468
 32
0.0
 13
2562.902482609832
 23
925.5212454448468
 33
0.0
  0
MTEXT
  5
E19
330
DE1
100
AcDbEntity
  8
0
 62
     0
100
AcDbMText
 10
2557.277482609832
 20
936.0071687629281
 30
0.0
 40
10.0
 41
0.0
 46
0.0
 71
     5
 72
     1
  1
21
 11
0.0000000000000001
 21
1.0
 31
0.0
 73
     1
 44
1.0
  0
POINT
  5
E1A
330
DE1
100
AcDbEntity
  8
Defpoints
 62
     0
100
AcDbPoint
 10
2562.902482609832
 20
946.4930920810079
 30
0.0
  0
POINT
  5
E1B
330
DE1
100
AcDbEntity
  8
Defpoints
 62
     0
100
AcDbPoint
 10
2562.902482609832
 20
925.5212454448468
 30
0.0
  0
POINT
  5
E1C
330
DE1
100
AcDbEntity
  8
Defpoints
 62
     0
100
AcDbPoint
 10
2562.902482609832
 20
925.5212454448468
 30
0.0
  0
ENDBLK
  5
DED
330
DE1
100
AcDbEntity
  8
0
100
AcDbBlockEnd
  0
BLOCK
  5
E06
330
DFB
100
AcDbEntity
  8
0
100
AcDbBlockBegin
  2
*D98
 70
     1
 10
0.0
 20
0.0
 30
0.0
  3
*D98
  1

  0
LINE
  5
E1D
330
DFB
100
AcDbEntity
  8
0
 62
     0
370
    -2
100
AcDbLine
 10
2563.527482609832
 20
974.4930920810077
 30
0.0
 11
2564.643826640467
 21
974.4930920810077
 31
0.0
  0
LINE
  5
E1E
330
DFB
100
AcDbEntity
  8
0
 62
     0
370
    -2
100
AcDbLine
 10
2563.527482609832
 20
995.5212454448455
 30
0.0
 11
2564.643826640467
 21
995.5212454448455
 31
0.0
  0
LINE
  5
E1F
330
DFB
100
AcDbEntity
  8
0
 62
     0
370
    -2
100
AcDbLine
 10
2563.393826640467
 20
976.9930920810079
 30
0.0
 11
2563.393826640467
 21
993.021245444846
 31
0.0
  0
SOLID
  5
E20
330
DFB
100
AcDbEntity
  8
0
 62
     0
100
AcDbTrace
 10
2562.977159973801
 20
976.9930920810079
 30
0.0
 11
2563.810493307134
 21
976.9930920810079
 31
0.0
 12
2563.393826640467
 22
974.4930920810077
 32
0.0
 13
2563.393826640467
 23
974.4930920810077
 33
0.0
  0
SOLID
  5
E21
330
DFB
100
AcDbEntity
  8
0
 62
     0
100
AcDbTrace
 10
2562.977159973801
 20
993.021245444846
 30
0.0
 11
2563.810493307134
 21
993.021245444846
 31
0.0
 12
2563.393826640467
 22
995.5212454448455
 32
0.0
 13
2563.393826640467
 23
995.5212454448455
 33
0.0
  0
MTEXT
  5
E22
330
DFB
100
AcDbEntity
  8
0
 62
     0
100
AcDbMText
 10
2557.768826640467
 20
985.0071687629274
 30
0.0
 40
10.0
 41
0.0
 46
0.0
 71
     5
 72
     1
  1
21
 11
0.0000000000000001
 21
1.0
 31
0.0
 73
     1
 44
1.0
  0
POINT
  5
E23
330
DFB
100
AcDbEntity
  8
Defpoints
 62
     0
100
AcDbPoint
 10
2562.902482609832
 20
974.4930920810077
 30
0.0
  0
POINT
  5
E24
330
DFB
100
AcDbEntity
  8
Defpoints
 62
     0
100
AcDbPoint
 10
2562.902482609832
 20
995.5212454448455
 30
0.0
  0
POINT
  5
E25
330
DFB
100
AcDbEntity
  8
Defpoints
 62
     0
100
AcDbPoint
 10
2563.393826640467
 20
995.5212454448455
 30
0.0
  0
ENDBLK
  5
E07
330
DFB
100
AcDbEntity
  8
0
100
AcDbBlockEnd
  0
BLOCK
  5
E32
330
E27
100
AcDbEntity
  8
0
100
AcDbBlockBegin
  2
*D99
 70
     1
 10
0.0
 20
0.0
 30
0.0
  3
*D99
  1

  0
LINE
  5
E90
330
E27
100
AcDbEntity
  8
0
 62
     0
370
    -2
100
AcDbLine
 10
2549.898117453858
 20
973.8680920810079
 30
0.0
 11
2549.898117453858
 21
970.7220146374581
 31
0.0
  0
LINE
  5
E91
330
E27
100
AcDbEntity
  8
0
 62
     0
370
    -2
100
AcDbLine
 10
2523.996804131634
 20
973.8680920810079
 30
0.0
 11
2523.996804131634
 21
970.7220146374581
 31
0.0
  0
LINE
  5
E92
330
E27
100
AcDbEntity
  8
0
 62
     0
370
    -2
100
AcDbLine
 10
2547.398117453858
 20
971.972014637458
 30
0.0
 11
2526.496804131634
 21
971.972014637458
 31
0.0
  0
LINE
  5
E93
330
E27
100
AcDbEntity
  8
0
 62
     0
370
    -2
100
AcDbLine
 10
2523.996804131634
 20
971.972014637458
 30
0.0
 11
2488.580137464968
 21
971.972014637458
 31
0.0
  0
SOLID
  5
E94
330
E27
100
AcDbEntity
  8
0
 62
     0
100
AcDbTrace
 10
2547.398117453858
 20
972.3886813041245
 30
0.0
 11
2547.398117453858
 21
971.5553479707914
 31
0.0
 12
2549.898117453858
 22
971.972014637458
 32
0.0
 13
2549.898117453858
 23
971.972014637458
 33
0.0
  0
SOLID
  5
E95
330
E27
100
AcDbEntity
  8
0
 62
     0
100
AcDbTrace
 10
2526.496804131634
 20
972.3886813041245
 30
0.0
 11
2526.496804131634
 21
971.5553479707914
 31
0.0
 12
2523.996804131634
 22
971.972014637458
 32
0.0
 13
2523.996804131634
 23
971.972014637458
 33
0.0
  0
MTEXT
  5
E96
330
E27
100
AcDbEntity
  8
0
 62
     0
100
AcDbMText
 10
2505.038470798301
 20
978.4303479707913
 30
0.0
 40
10.0
 41
0.0
 46
0.0
 71
     5
 72
     1
  1
25,9
 73
     1
 44
1.0
  0
POINT
  5
E97
330
E27
100
AcDbEntity
  8
Defpoints
 62
     0
100
AcDbPoint
 10
2549.898117453858
 20
974.4930920810077
 30
0.0
  0
POINT
  5
E98
330
E27
100
AcDbEntity
  8
Defpoints
 62
     0
100
AcDbPoint
 10
2523.996804131634
 20
974.4930920810077
 30
0.0
  0
POINT
  5
E99
330
E27
100
AcDbEntity
  8
Defpoints
 62
     0
100
AcDbPoint
 10
2523.996804131634
 20
971.972014637458
 30
0.0
  0
ENDBLK
  5
E33
330
E27
100
AcDbEntity
  8
0
100
AcDbBlockEnd
  0
BLOCK
  5
E4B
330
E41
100
AcDbEntity
  8
0
100
AcDbBlockBegin
  2
*D100
 70
     1
 10
0.0
 20
0.0
 30
0.0
  3
*D100
  1

  0
LINE
  5
E4E
330
E41
100
AcDbEntity
  8
0
 62
     0
370
    -2
100
AcDbLine
 10
2562.902482609832
 20
975.118092081008
 30
0.0
 11
2562.902482609832
 21
979.4448822362893
 31
0.0
  0
LINE
  5
E4F
330
E41
100
AcDbEntity
  8
0
 62
     0
370
    -2
100
AcDbLine
 10
2593.996804131634
 20
975.118092081008
 30
0.0
 11
2593.996804131634
 21
979.4448822362893
 31
0.0
  0
LINE
  5
E50
330
E41
100
AcDbEntity
  8
0
 62
     0
370
    -2
100
AcDbLine
 10
2565.402482609832
 20
978.1948822362892
 30
0.0
 11
2591.496804131634
 21
978.1948822362892
 31
0.0
  0
SOLID
  5
E51
330
E41
100
AcDbEntity
  8
0
 62
     0
100
AcDbTrace
 10
2565.402482609832
 20
978.6115489029556
 30
0.0
 11
2565.402482609832
 21
977.7782155696224
 31
0.0
 12
2562.902482609832
 22
978.1948822362892
 32
0.0
 13
2562.902482609832
 23
978.1948822362892
 33
0.0
  0
SOLID
  5
E52
330
E41
100
AcDbEntity
  8
0
 62
     0
100
AcDbTrace
 10
2591.496804131634
 20
978.6115489029556
 30
0.0
 11
2591.496804131634
 21
977.7782155696224
 31
0.0
 12
2593.996804131634
 22
978.1948822362892
 32
0.0
 13
2593.996804131634
 23
978.1948822362892
 33
0.0
  0
MTEXT
  5
E53
330
E41
100
AcDbEntity
  8
0
 62
     0
100
AcDbMText
 10
2578.449643370734
 20
984.6532155696223
 30
0.0
 40
10.0
 41
0.0
 46
0.0
 71
     5
 72
     1
  1
31,1
 73
     1
 44
1.0
  0
POINT
  5
E54
330
E41
100
AcDbEntity
  8
Defpoints
 62
     0
100
AcDbPoint
 10
2562.902482609832
 20
974.4930920810077
 30
0.0
  0
POINT
  5
E55
330
E41
100
AcDbEntity
  8
Defpoints
 62
     0
100
AcDbPoint
 10
2593.996804131634
 20
974.4930920810077
 30
0.0
  0
POINT
  5
E56
330
E41
100
AcDbEntity
  8
Defpoints
 62
     0
100
AcDbPoint
 10
2593.996804131634
 20
978.1948822362892
 30
0.0
  0
ENDBLK
  5
E4C
330
E41
100
AcDbEntity
  8
0
100
AcDbBlockEnd
  0
BLOCK
  5
E70
330
E66
100
AcDbEntity
  8
0
100
AcDbBlockBegin
  2
*D101
 70
     1
 10
0.0
 20
0.0
 30
0.0
  3
*D101
  1

  0
LINE
  5
E73
330
E66
100
AcDbEntity
  8
0
 62
     0
370
    -2
100
AcDbLine
 10
2558.996804131634
 20
947.1180920810079
 30
0.0
 11
2558.996804131634
 21
947.7430920810077
 31
0.0
  0
LINE
  5
E74
330
E66
100
AcDbEntity
  8
0
 62
     0
370
    -2
100
AcDbLine
 10
2593.996804131634
 20
947.1180920810079
 30
0.0
 11
2593.996804131634
 21
947.7430920810077
 31
0.0
  0
LINE
  5
E75
330
E66
100
AcDbEntity
  8
0
 62
     0
370
    -2
100
AcDbLine
 10
2561.496804131634
 20
946.4930920810079
 30
0.0
 11
2591.496804131634
 21
946.4930920810079
 31
0.0
  0
SOLID
  5
E76
330
E66
100
AcDbEntity
  8
0
 62
     0
100
AcDbTrace
 10
2561.496804131634
 20
946.9097587476747
 30
0.0
 11
2561.496804131634
 21
946.0764254143414
 31
0.0
 12
2558.996804131634
 22
946.4930920810079
 32
0.0
 13
2558.996804131634
 23
946.4930920810079
 33
0.0
  0
SOLID
  5
E77
330
E66
100
AcDbEntity
  8
0
 62
     0
100
AcDbTrace
 10
2591.496804131634
 20
946.9097587476747
 30
0.0
 11
2591.496804131634
 21
946.0764254143414
 31
0.0
 12
2593.996804131634
 22
946.4930920810079
 32
0.0
 13
2593.996804131634
 23
946.4930920810079
 33
0.0
  0
MTEXT
  5
E78
330
E66
100
AcDbEntity
  8
0
 62
     0
100
AcDbMText
 10
2576.496804131634
 20
952.1180920810079
 30
0.0
 40
10.0
 41
0.0
 46
0.0
 71
     5
 72
     1
  1
35
 73
     1
 44
1.0
  0
POINT
  5
E79
330
E66
100
AcDbEntity
  8
Defpoints
 62
     0
100
AcDbPoint
 10
2558.996804131634
 20
946.4930920810079
 30
0.0
  0
POINT
  5
E7A
330
E66
100
AcDbEntity
  8
Defpoints
 62
     0
100
AcDbPoint
 10
2593.996804131634
 20
946.4930920810079
 30
0.0
  0
POINT
  5
E7B
330
E66
100
AcDbEntity
  8
Defpoints
 62
     0
100
AcDbPoint
 10
2593.996804131634
 20
946.4930920810079
 30
0.0
  0
ENDBLK
  5
E71
330
E66
100
AcDbEntity
  8
0
100
AcDbBlockEnd
  0
BLOCK
  5
10A9
330
109F
100
AcDbEntity
  8
0
100
AcDbBlockBegin
  2
*D102
 70
     1
 10
0.0
 20
0.0
 30
0.0
  3
*D102
  1

  0
LINE
  5
1293
330
109F
100
AcDbEntity
  8
0
 62
     0
370
    -2
100
AcDbLine
 10
2138.495596657289
 20
1135.837864136519
 30
0.0
 11
2139.120596657289
 21
1135.837864136519
 31
0.0
  0
LINE
  5
1294
330
109F
100
AcDbEntity
  8
0
 62
     0
370
    -2
100
AcDbLine
 10
2137.245596657289
 20
869.8378641365202
 30
0.0
 11
2136.620596657289
 21
869.8378641365202
 31
0.0
  0
LINE
  5
1295
330
109F
100
AcDbEntity
  8
0
 62
     0
370
    -2
100
AcDbLine
 10
2137.87059665729
 20
1133.337864136519
 30
0.0
 11
2137.87059665729
 21
872.3378641365203
 31
0.0
  0
SOLID
  5
1296
330
109F
100
AcDbEntity
  8
0
 62
     0
100
AcDbTrace
 10
2137.453929990623
 20
1133.337864136519
 30
0.0
 11
2138.287263323956
 21
1133.337864136519
 31
0.0
 12
2137.87059665729
 22
1135.837864136519
 32
0.0
 13
2137.87059665729
 23
1135.837864136519
 33
0.0
  0
SOLID
  5
1297
330
109F
100
AcDbEntity
  8
0
 62
     0
100
AcDbTrace
 10
2137.453929990623
 20
872.3378641365203
 30
0.0
 11
2138.287263323956
 21
872.3378641365203
 31
0.0
 12
2137.87059665729
 22
869.8378641365202
 32
0.0
 13
2137.87059665729
 23
869.8378641365202
 33
0.0
  0
MTEXT
  5
1298
330
109F
100
AcDbEntity
  8
0
 62
     0
100
AcDbMText
 10
2132.245596657289
 20
1002.83786413652
 30
0.0
 40
10.0
 41
0.0
 46
0.0
 71
     5
 72
     1
  1
266
 11
0.0000000000000001
 21
1.0
 31
0.0
 73
     1
 44
1.0
  0
POINT
  5
1299
330
109F
100
AcDbEntity
  8
Defpoints
 62
     0
100
AcDbPoint
 10
2137.87059665729
 20
1135.837864136519
 30
0.0
  0
POINT
  5
129A
330
109F
100
AcDbEntity
  8
Defpoints
 62
     0
100
AcDbPoint
 10
2137.87059665729
 20
869.8378641365202
 30
0.0
  0
POINT
  5
129B
330
109F
100
AcDbEntity
  8
Defpoints
 62
     0
100
AcDbPoint
 10
2137.87059665729
 20
869.8378641365202
 30
0.0
  0
ENDBLK
  5
10AA
330
109F
100
AcDbEntity
  8
0
100
AcDbBlockEnd
  0
BLOCK
  5
10C1
330
10B7
100
AcDbEntity
  8
0
100
AcDbBlockBegin
  2
*D103
 70
     1
 10
0.0
 20
0.0
 30
0.0
  3
*D103
  1

  0
LINE
  5
129C
330
10B7
100
AcDbEntity
  8
0
 62
     0
370
    -2
100
AcDbLine
 10
1921.834079398511
 20
1091.306683022028
 30
0.0
 11
1921.834079398511
 21
1091.931683022028
 31
0.0
  0
LINE
  5
129D
330
10B7
100
AcDbEntity
  8
0
 62
     0
370
    -2
100
AcDbLine
 10
2187.83407939851
 20
1091.306683022028
 30
0.0
 11
2187.83407939851
 21
1091.931683022028
 31
0.0
  0
LINE
  5
129E
330
10B7
100
AcDbEntity
  8
0
 62
     0
370
    -2
100
AcDbLine
 10
1924.334079398511
 20
1090.681683022028
 30
0.0
 11
2185.33407939851
 21
1090.681683022028
 31
0.0
  0
SOLID
  5
129F
330
10B7
100
AcDbEntity
  8
0
 62
     0
100
AcDbTrace
 10
1924.334079398511
 20
1091.098349688695
 30
0.0
 11
1924.334079398511
 21
1090.265016355362
 31
0.0
 12
1921.834079398511
 22
1090.681683022028
 32
0.0
 13
1921.834079398511
 23
1090.681683022028
 33
0.0
  0
SOLID
  5
12A0
330
10B7
100
AcDbEntity
  8
0
 62
     0
100
AcDbTrace
 10
2185.33407939851
 20
1091.098349688695
 30
0.0
 11
2185.33407939851
 21
1090.265016355362
 31
0.0
 12
2187.83407939851
 22
1090.681683022028
 32
0.0
 13
2187.83407939851
 23
1090.681683022028
 33
0.0
  0
MTEXT
  5
12A1
330
10B7
100
AcDbEntity
  8
0
 62
     0
100
AcDbMText
 10
2054.83407939851
 20
1096.306683022028
 30
0.0
 40
10.0
 41
0.0
 46
0.0
 71
     5
 72
     1
  1
266
 73
     1
 44
1.0
  0
POINT
  5
12A2
330
10B7
100
AcDbEntity
  8
Defpoints
 62
     0
100
AcDbPoint
 10
1921.834079398511
 20
1090.681683022028
 30
0.0
  0
POINT
  5
12A3
330
10B7
100
AcDbEntity
  8
Defpoints
 62
     0
100
AcDbPoint
 10
2187.83407939851
 20
1090.681683022028
 30
0.0
  0
POINT
  5
12A4
330
10B7
100
AcDbEntity
  8
Defpoints
 62
     0
100
AcDbPoint
 10
2187.83407939851
 20
1090.681683022028
 30
0.0
  0
ENDBLK
  5
10C2
330
10B7
100
AcDbEntity
  8
0
100
AcDbBlockEnd
  0
BLOCK
  5
11FC
330
11F2
100
AcDbEntity
  8
0
100
AcDbBlockBegin
  2
*D104
 70
     1
 10
0.0
 20
0.0
 30
0.0
  3
*D104
  1

  0
LINE
  5
12A5
330
11F2
100
AcDbEntity
  8
0
 62
     0
370
    -2
100
AcDbLine
 10
2187.83407939851
 20
968.1245894153096
 30
0.0
 11
2187.83407939851
 21
968.7495894153098
 31
0.0
  0
LINE
  5
12A6
330
11F2
100
AcDbEntity
  8
0
 62
     0
370
    -2
100
AcDbLine
 10
2225.83407939851
 20
968.1245894153096
 30
0.0
 11
2225.83407939851
 21
968.7495894153098
 31
0.0
  0
LINE
  5
12A7
330
11F2
100
AcDbEntity
  8
0
 62
     0
370
    -2
100
AcDbLine
 10
2190.33407939851
 20
967.49958941531
 30
0.0
 11
2223.33407939851
 21
967.49958941531
 31
0.0
  0
SOLID
  5
12A8
330
11F2
100
AcDbEntity
  8
0
 62
     0
100
AcDbTrace
 10
2190.33407939851
 20
967.9162560819763
 30
0.0
 11
2190.33407939851
 21
967.0829227486432
 31
0.0
 12
2187.83407939851
 22
967.49958941531
 32
0.0
 13
2187.83407939851
 23
967.49958941531
 33
0.0
  0
SOLID
  5
12A9
330
11F2
100
AcDbEntity
  8
0
 62
     0
100
AcDbTrace
 10
2223.33407939851
 20
967.9162560819763
 30
0.0
 11
2223.33407939851
 21
967.0829227486432
 31
0.0
 12
2225.83407939851
 22
967.49958941531
 32
0.0
 13
2225.83407939851
 23
967.49958941531
 33
0.0
  0
MTEXT
  5
12AA
330
11F2
100
AcDbEntity
  8
0
 62
     0
100
AcDbMText
 10
2206.834079398511
 20
973.1245894153101
 30
0.0
 40
10.0
 41
0.0
 46
0.0
 71
     5
 72
     1
  1
38
 73
     1
 44
1.0
  0
POINT
  5
12AB
330
11F2
100
AcDbEntity
  8
Defpoints
 62
     0
100
AcDbPoint
 10
2187.83407939851
 20
967.49958941531
 30
0.0
  0
POINT
  5
12AC
330
11F2
100
AcDbEntity
  8
Defpoints
 62
     0
100
AcDbPoint
 10
2225.83407939851
 20
967.49958941531
 30
0.0
  0
POINT
  5
12AD
330
11F2
100
AcDbEntity
  8
Defpoints
 62
     0
100
AcDbPoint
 10
2225.83407939851
 20
967.49958941531
 30
0.0
  0
ENDBLK
  5
11FD
330
11F2
100
AcDbEntity
  8
0
100
AcDbBlockEnd
  0
BLOCK
  5
1214
330
120A
100
AcDbEntity
  8
0
100
AcDbBlockBegin
  2
*D105
 70
     1
 10
0.0
 20
0.0
 30
0.0
  3
*D105
  1

  0
LINE
  5
12F9
330
120A
100
AcDbEntity
  8
0
 62
     0
370
    -2
100
AcDbLine
 10
1829.334079398511
 20
1096.712864136519
 30
0.0
 11
1829.334079398511
 21
1284.037113691855
 31
0.0
  0
LINE
  5
12FA
330
120A
100
AcDbEntity
  8
0
 62
     0
370
    -2
100
AcDbLine
 10
2280.33407939851
 20
1101.712864136519
 30
0.0
 11
2280.33407939851
 21
1284.037113691855
 31
0.0
  0
LINE
  5
12FB
330
120A
100
AcDbEntity
  8
0
 62
     0
370
    -2
100
AcDbLine
 10
1831.834079398511
 20
1282.787113691855
 30
0.0
 11
2277.834079398511
 21
1282.787113691855
 31
0.0
  0
SOLID
  5
12FC
330
120A
100
AcDbEntity
  8
0
 62
     0
100
AcDbTrace
 10
1831.834079398511
 20
1283.203780358522
 30
0.0
 11
1831.834079398511
 21
1282.370447025188
 31
0.0
 12
1829.334079398511
 22
1282.787113691855
 32
0.0
 13
1829.334079398511
 23
1282.787113691855
 33
0.0
  0
SOLID
  5
12FD
330
120A
100
AcDbEntity
  8
0
 62
     0
100
AcDbTrace
 10
2277.834079398511
 20
1283.203780358522
 30
0.0
 11
2277.834079398511
 21
1282.370447025188
 31
0.0
 12
2280.33407939851
 22
1282.787113691855
 32
0.0
 13
2280.33407939851
 23
1282.787113691855
 33
0.0
  0
MTEXT
  5
12FE
330
120A
100
AcDbEntity
  8
0
 62
     0
100
AcDbMText
 10
2054.834079398511
 20
1288.412113691855
 30
0.0
 40
10.0
 41
0.0
 46
0.0
 71
     5
 72
     1
  1
451
 73
     1
 44
1.0
  0
POINT
  5
12FF
330
120A
100
AcDbEntity
  8
Defpoints
 62
     0
100
AcDbPoint
 10
1829.334079398511
 20
1096.087864136519
 30
0.0
  0
POINT
  5
1300
330
120A
100
AcDbEntity
  8
Defpoints
 62
     0
100
AcDbPoint
 10
2280.33407939851
 20
1101.087864136519
 30
0.0
  0
POINT
  5
1301
330
120A
100
AcDbEntity
  8
Defpoints
 62
     0
100
AcDbPoint
 10
2280.33407939851
 20
1282.787113691855
 30
0.0
  0
ENDBLK
  5
1215
330
120A
100
AcDbEntity
  8
0
100
AcDbBlockEnd
  0
BLOCK
  5
122C
330
1222
100
AcDbEntity
  8
0
100
AcDbBlockBegin
  2
*D106
 70
     1
 10
0.0
 20
0.0
 30
0.0
  3
*D106
  1

  0
LINE
  5
12CC
330
1222
100
AcDbEntity
  8
0
 62
     0
370
    -2
100
AcDbLine
 10
2159.959079398511
 20
1228.337864136521
 30
0.0
 11
2326.90414185294
 21
1228.337864136521
 31
0.0
  0
LINE
  5
12CD
330
1222
100
AcDbEntity
  8
0
 62
     0
370
    -2
100
AcDbLine
 10
2154.95907939851
 20
777.3378641365187
 30
0.0
 11
2326.904141852939
 21
777.3378641365185
 31
0.0
  0
LINE
  5
12CE
330
1222
100
AcDbEntity
  8
0
 62
     0
370
    -2
100
AcDbLine
 10
2325.65414185294
 20
1225.837864136521
 30
0.0
 11
2325.654141852939
 21
779.8378641365185
 31
0.0
  0
SOLID
  5
12CF
330
1222
100
AcDbEntity
  8
0
 62
     0
100
AcDbTrace
 10
2325.237475186273
 20
1225.837864136521
 30
0.0
 11
2326.070808519606
 21
1225.837864136521
 31
0.0
 12
2325.65414185294
 22
1228.337864136521
 32
0.0
 13
2325.65414185294
 23
1228.337864136521
 33
0.0
  0
SOLID
  5
12D0
330
1222
100
AcDbEntity
  8
0
 62
     0
100
AcDbTrace
 10
2325.237475186273
 20
779.8378641365185
 30
0.0
 11
2326.070808519606
 21
779.8378641365185
 31
0.0
 12
2325.654141852939
 22
777.3378641365185
 32
0.0
 13
2325.654141852939
 23
777.3378641365185
 33
0.0
  0
MTEXT
  5
12D1
330
1222
100
AcDbEntity
  8
0
 62
     0
100
AcDbMText
 10
2320.029141852939
 20
1002.83786413652
 30
0.0
 40
10.0
 41
0.0
 46
0.0
 71
     5
 72
     1
  1
451
 11
0.0000000000000001
 21
1.0
 31
0.0
 73
     1
 44
1.0
  0
POINT
  5
12D2
330
1222
100
AcDbEntity
  8
Defpoints
 62
     0
100
AcDbPoint
 10
2159.33407939851
 20
1228.337864136521
 30
0.0
  0
POINT
  5
12D3
330
1222
100
AcDbEntity
  8
Defpoints
 62
     0
100
AcDbPoint
 10
2154.33407939851
 20
777.3378641365187
 30
0.0
  0
POINT
  5
12D4
330
1222
100
AcDbEntity
  8
Defpoints
 62
     0
100
AcDbPoint
 10
2325.654141852939
 20
777.3378641365185
 30
0.0
  0
ENDBLK
  5
122D
330
1222
100
AcDbEntity
  8
0
100
AcDbBlockEnd
  0
BLOCK
  5
136E
330
1364
100
AcDbEntity
  8
0
100
AcDbBlockBegin
  2
*D107
 70
     1
 10
0.0
 20
0.0
 30
0.0
  3
*D107
  1

  0
LINE
  5
13AE
330
1364
100
AcDbEntity
  8
0
 62
     0
370
    -2
100
AcDbLine
 10
2495.021924216571
 20
1037.758614522679
 30
0.0
 11
2495.021924216571
 21
1121.886710161302
 31
0.0
  0
LINE
  5
13AF
330
1364
100
AcDbEntity
  8
0
 62
     0
370
    -2
100
AcDbLine
 10
2745.021924216571
 20
1030.167423813983
 30
0.0
 11
2745.021924216571
 21
1121.886710161302
 31
0.0
  0
LINE
  5
13B0
330
1364
100
AcDbEntity
  8
0
 62
     0
370
    -2
100
AcDbLine
 10
2497.521924216571
 20
1120.636710161302
 30
0.0
 11
2742.521924216572
 21
1120.636710161302
 31
0.0
  0
SOLID
  5
13B1
330
1364
100
AcDbEntity
  8
0
 62
     0
100
AcDbTrace
 10
2497.521924216571
 20
1121.053376827968
 30
0.0
 11
2497.521924216571
 21
1120.220043494635
 31
0.0
 12
2495.021924216571
 22
1120.636710161302
 32
0.0
 13
2495.021924216571
 23
1120.636710161302
 33
0.0
  0
SOLID
  5
13B2
330
1364
100
AcDbEntity
  8
0
 62
     0
100
AcDbTrace
 10
2742.521924216572
 20
1121.053376827968
 30
0.0
 11
2742.521924216572
 21
1120.220043494635
 31
0.0
 12
2745.021924216571
 22
1120.636710161302
 32
0.0
 13
2745.021924216571
 23
1120.636710161302
 33
0.0
  0
MTEXT
  5
13B3
330
1364
100
AcDbEntity
  8
0
 62
     0
100
AcDbMText
 10
2620.021924216571
 20
1126.261710161302
 30
0.0
 40
10.0
 41
0.0
 46
0.0
 71
     5
 72
     1
  1
250
 73
     1
 44
1.0
  0
POINT
  5
13B4
330
1364
100
AcDbEntity
  8
Defpoints
 62
     0
100
AcDbPoint
 10
2495.021924216571
 20
1037.133614522679
 30
0.0
  0
POINT
  5
13B5
330
1364
100
AcDbEntity
  8
Defpoints
 62
     0
100
AcDbPoint
 10
2745.021924216571
 20
1029.542423813983
 30
0.0
  0
POINT
  5
13B6
330
1364
100
AcDbEntity
  8
Defpoints
 62
     0
100
AcDbPoint
 10
2745.021924216571
 20
1120.636710161302
 30
0.0
  0
ENDBLK
  5
136F
330
1364
100
AcDbEntity
  8
0
100
AcDbBlockEnd
  0
BLOCK
  5
1386
330
137C
100
AcDbEntity
  8
0
100
AcDbBlockBegin
  2
*D108
 70
     1
 10
0.0
 20
0.0
 30
0.0
  3
*D108
  1

  0
LINE
  5
13A5
330
137C
100
AcDbEntity
  8
0
 62
     0
370
    -2
100
AcDbLine
 10
2719.086890365446
 20
812.9312268373926
 30
0.0
 11
2812.937771639718
 21
812.9312268373926
 31
0.0
  0
LINE
  5
13A6
330
137C
100
AcDbEntity
  8
0
 62
     0
370
    -2
100
AcDbLine
 10
2719.086890365446
 20
1062.931226837392
 30
0.0
 11
2812.937771639718
 21
1062.931226837392
 31
0.0
  0
LINE
  5
13A7
330
137C
100
AcDbEntity
  8
0
 62
     0
370
    -2
100
AcDbLine
 10
2811.687771639718
 20
815.4312268373926
 30
0.0
 11
2811.687771639718
 21
1060.431226837392
 31
0.0
  0
SOLID
  5
13A8
330
137C
100
AcDbEntity
  8
0
 62
     0
100
AcDbTrace
 10
2811.271104973051
 20
815.4312268373926
 30
0.0
 11
2812.104438306384
 21
815.4312268373926
 31
0.0
 12
2811.687771639718
 22
812.9312268373926
 32
0.0
 13
2811.687771639718
 23
812.9312268373926
 33
0.0
  0
SOLID
  5
13A9
330
137C
100
AcDbEntity
  8
0
 62
     0
100
AcDbTrace
 10
2811.271104973052
 20
1060.431226837392
 30
0.0
 11
2812.104438306385
 21
1060.431226837392
 31
0.0
 12
2811.687771639718
 22
1062.931226837392
 32
0.0
 13
2811.687771639718
 23
1062.931226837392
 33
0.0
  0
MTEXT
  5
13AA
330
137C
100
AcDbEntity
  8
0
 62
     0
100
AcDbMText
 10
2806.062771639718
 20
937.9312268373926
 30
0.0
 40
10.0
 41
0.0
 46
0.0
 71
     5
 72
     1
  1
250
 11
0.0000000000000001
 21
1.0
 31
0.0
 73
     1
 44
1.0
  0
POINT
  5
13AB
330
137C
100
AcDbEntity
  8
Defpoints
 62
     0
100
AcDbPoint
 10
2718.461890365446
 20
812.9312268373926
 30
0.0
  0
POINT
  5
13AC
330
137C
100
AcDbEntity
  8
Defpoints
 62
     0
100
AcDbPoint
 10
2718.461890365446
 20
1062.931226837392
 30
0.0
  0
POINT
  5
13AD
330
137C
100
AcDbEntity
  8
Defpoints
 62
     0
100
AcDbPoint
 10
2811.687771639718
 20
1062.931226837392
 30
0.0
  0
ENDBLK
  5
1387
330
137C
100
AcDbEntity
  8
0
100
AcDbBlockEnd
  0
BLOCK
  5
145C
330
1452
100
AcDbEntity
  8
0
100
AcDbBlockBegin
  2
*D109
 70
     1
 10
0.0
 20
0.0
 30
0.0
  3
*D109
  1

  0
LINE
  5
145F
330
1452
100
AcDbEntity
  8
0
 62
     0
370
    -2
100
AcDbLine
 10
1430.468832507122
 20
1165.488745582855
 30
0.0
 11
1429.843832507122
 21
1165.488745582855
 31
0.0
  0
LINE
  5
1460
330
1452
100
AcDbEntity
  8
0
 62
     0
370
    -2
100
AcDbLine
 10
1430.468832507122
 20
905.4887455828557
 30
0.0
 11
1429.843832507122
 21
905.4887455828557
 31
0.0
  0
LINE
  5
1461
330
1452
100
AcDbEntity
  8
0
 62
     0
370
    -2
100
AcDbLine
 10
1431.093832507122
 20
1162.988745582855
 30
0.0
 11
1431.093832507122
 21
907.9887455828556
 31
0.0
  0
SOLID
  5
1462
330
1452
100
AcDbEntity
  8
0
 62
     0
100
AcDbTrace
 10
1430.677165840455
 20
1162.988745582855
 30
0.0
 11
1431.510499173788
 21
1162.988745582855
 31
0.0
 12
1431.093832507122
 22
1165.488745582855
 32
0.0
 13
1431.093832507122
 23
1165.488745582855
 33
0.0
  0
SOLID
  5
1463
330
1452
100
AcDbEntity
  8
0
 62
     0
100
AcDbTrace
 10
1430.677165840455
 20
907.9887455828556
 30
0.0
 11
1431.510499173788
 21
907.9887455828556
 31
0.0
 12
1431.093832507122
 22
905.4887455828557
 32
0.0
 13
1431.093832507122
 23
905.4887455828557
 33
0.0
  0
MTEXT
  5
1464
330
1452
100
AcDbEntity
  8
0
 62
     0
100
AcDbMText
 10
1422.968832507122
 20
1035.488745582855
 30
0.0
 40
15.0
 41
0.0
 46
0.0
 71
     5
 72
     1
  1
260
 11
0.0000000000000001
 21
1.0
 31
0.0
 73
     1
 44
1.0
  0
POINT
  5
1465
330
1452
100
AcDbEntity
  8
Defpoints
 62
     0
100
AcDbPoint
 10
1431.093832507122
 20
1165.488745582855
 30
0.0
  0
POINT
  5
1466
330
1452
100
AcDbEntity
  8
Defpoints
 62
     0
100
AcDbPoint
 10
1431.093832507122
 20
905.4887455828557
 30
0.0
  0
POINT
  5
1467
330
1452
100
AcDbEntity
  8
Defpoints
 62
     0
100
AcDbPoint
 10
1431.093832507122
 20
905.4887455828557
 30
0.0
  0
ENDBLK
  5
145D
330
1452
100
AcDbEntity
  8
0
100
AcDbBlockEnd
  0
BLOCK
  5
1474
330
146A
100
AcDbEntity
  8
0
100
AcDbBlockBegin
  2
*D110
 70
     1
 10
0.0
 20
0.0
 30
0.0
  3
*D110
  1

  0
LINE
  5
1477
330
146A
100
AcDbEntity
  8
0
 62
     0
370
    -2
100
AcDbLine
 10
1332.050830348029
 20
945.1021388485678
 30
0.0
 11
1332.050830348029
 21
945.7271388485677
 31
0.0
  0
LINE
  5
1478
330
146A
100
AcDbEntity
  8
0
 62
     0
370
    -2
100
AcDbLine
 10
1592.050830348029
 20
945.1021388485678
 30
0.0
 11
1592.050830348029
 21
945.7271388485677
 31
0.0
  0
LINE
  5
1479
330
146A
100
AcDbEntity
  8
0
 62
     0
370
    -2
100
AcDbLine
 10
1334.550830348029
 20
944.4771388485678
 30
0.0
 11
1589.550830348029
 21
944.4771388485678
 31
0.0
  0
SOLID
  5
147A
330
146A
100
AcDbEntity
  8
0
 62
     0
100
AcDbTrace
 10
1334.550830348029
 20
944.8938055152344
 30
0.0
 11
1334.550830348029
 21
944.0604721819012
 31
0.0
 12
1332.050830348029
 22
944.4771388485678
 32
0.0
 13
1332.050830348029
 23
944.4771388485678
 33
0.0
  0
SOLID
  5
147B
330
146A
100
AcDbEntity
  8
0
 62
     0
100
AcDbTrace
 10
1589.550830348029
 20
944.8938055152344
 30
0.0
 11
1589.550830348029
 21
944.0604721819012
 31
0.0
 12
1592.050830348029
 22
944.4771388485678
 32
0.0
 13
1592.050830348029
 23
944.4771388485678
 33
0.0
  0
MTEXT
  5
147C
330
146A
100
AcDbEntity
  8
0
 62
     0
100
AcDbMText
 10
1462.050830348029
 20
952.6021388485679
 30
0.0
 40
15.0
 41
0.0
 46
0.0
 71
     5
 72
     1
  1
260
 73
     1
 44
1.0
  0
POINT
  5
147D
330
146A
100
AcDbEntity
  8
Defpoints
 62
     0
100
AcDbPoint
 10
1332.050830348029
 20
944.4771388485678
 30
0.0
  0
POINT
  5
147E
330
146A
100
AcDbEntity
  8
Defpoints
 62
     0
100
AcDbPoint
 10
1592.050830348029
 20
944.4771388485678
 30
0.0
  0
POINT
  5
147F
330
146A
100
AcDbEntity
  8
Defpoints
 62
     0
100
AcDbPoint
 10
1592.050830348029
 20
944.4771388485678
 30
0.0
  0
ENDBLK
  5
1475
330
146A
100
AcDbEntity
  8
0
100
AcDbBlockEnd
  0
BLOCK
  5
148C
330
1482
100
AcDbEntity
  8
0
100
AcDbBlockBegin
  2
*D111
 70
     1
 10
0.0
 20
0.0
 30
0.0
  3
*D111
  1

  0
LINE
  5
148F
330
1482
100
AcDbEntity
  8
0
 62
     0
370
    -2
100
AcDbLine
 10
1592.050830348029
 20
1034.863745582855
 30
0.0
 11
1592.050830348029
 21
997.9484830068367
 31
0.0
  0
LINE
  5
1490
330
1482
100
AcDbEntity
  8
0
 62
     0
370
    -2
100
AcDbLine
 10
1762.050830348029
 20
1034.863745582855
 30
0.0
 11
1762.050830348029
 21
997.9484830068367
 31
0.0
  0
LINE
  5
1491
330
1482
100
AcDbEntity
  8
0
 62
     0
370
    -2
100
AcDbLine
 10
1594.550830348029
 20
999.1984830068366
 30
0.0
 11
1759.550830348029
 21
999.1984830068366
 31
0.0
  0
SOLID
  5
1492
330
1482
100
AcDbEntity
  8
0
 62
     0
100
AcDbTrace
 10
1594.550830348029
 20
999.6151496735032
 30
0.0
 11
1594.550830348029
 21
998.78181634017
 31
0.0
 12
1592.050830348029
 22
999.1984830068366
 32
0.0
 13
1592.050830348029
 23
999.1984830068366
 33
0.0
  0
SOLID
  5
1493
330
1482
100
AcDbEntity
  8
0
 62
     0
100
AcDbTrace
 10
1759.550830348029
 20
999.6151496735032
 30
0.0
 11
1759.550830348029
 21
998.78181634017
 31
0.0
 12
1762.050830348029
 22
999.1984830068366
 32
0.0
 13
1762.050830348029
 23
999.1984830068366
 33
0.0
  0
MTEXT
  5
1494
330
1482
100
AcDbEntity
  8
0
 62
     0
100
AcDbMText
 10
1677.050830348029
 20
1007.323483006836
 30
0.0
 40
15.0
 41
0.0
 46
0.0
 71
     5
 72
     1
  1
170
 73
     1
 44
1.0
  0
POINT
  5
1495
330
1482
100
AcDbEntity
  8
Defpoints
 62
     0
100
AcDbPoint
 10
1592.050830348029
 20
1035.488745582855
 30
0.0
  0
POINT
  5
1496
330
1482
100
AcDbEntity
  8
Defpoints
 62
     0
100
AcDbPoint
 10
1762.050830348029
 20
1035.488745582855
 30
0.0
  0
POINT
  5
1497
330
1482
100
AcDbEntity
  8
Defpoints
 62
     0
100
AcDbPoint
 10
1762.050830348029
 20
999.1984830068366
 30
0.0
  0
ENDBLK
  5
148D
330
1482
100
AcDbEntity
  8
0
100
AcDbBlockEnd
  0
BLOCK
  5
14A4
330
149A
100
AcDbEntity
  8
0
100
AcDbBlockBegin
  2
*D112
 70
     1
 10
0.0
 20
0.0
 30
0.0
  3
*D112
  1

  0
LINE
  5
14A7
330
149A
100
AcDbEntity
  8
0
 62
     0
370
    -2
100
AcDbLine
 10
1923.337098857695
 20
1094.865816929068
 30
0.0
 11
1923.337098857695
 21
1095.490816929068
 31
0.0
  0
LINE
  5
14A8
330
149A
100
AcDbEntity
  8
0
 62
     0
370
    -2
100
AcDbLine
 10
2189.337098857694
 20
1094.865816929068
 30
0.0
 11
2189.337098857694
 21
1095.490816929068
 31
0.0
  0
LINE
  5
14A9
330
149A
100
AcDbEntity
  8
0
 62
     0
370
    -2
100
AcDbLine
 10
1925.837098857695
 20
1094.240816929068
 30
0.0
 11
2186.837098857694
 21
1094.240816929068
 31
0.0
  0
SOLID
  5
14AA
330
149A
100
AcDbEntity
  8
0
 62
     0
100
AcDbTrace
 10
1925.837098857695
 20
1094.657483595735
 30
0.0
 11
1925.837098857695
 21
1093.824150262401
 31
0.0
 12
1923.337098857695
 22
1094.240816929068
 32
0.0
 13
1923.337098857695
 23
1094.240816929068
 33
0.0
  0
SOLID
  5
14AB
330
149A
100
AcDbEntity
  8
0
 62
     0
100
AcDbTrace
 10
2186.837098857694
 20
1094.657483595735
 30
0.0
 11
2186.837098857694
 21
1093.824150262401
 31
0.0
 12
2189.337098857694
 22
1094.240816929068
 32
0.0
 13
2189.337098857694
 23
1094.240816929068
 33
0.0
  0
MTEXT
  5
14AC
330
149A
100
AcDbEntity
  8
0
 62
     0
100
AcDbMText
 10
2056.337098857695
 20
1102.365816929068
 30
0.0
 40
15.0
 41
0.0
 46
0.0
 71
     5
 72
     1
  1
266
 73
     1
 44
1.0
  0
POINT
  5
14AD
330
149A
100
AcDbEntity
  8
Defpoints
 62
     0
100
AcDbPoint
 10
1923.337098857695
 20
1094.240816929068
 30
0.0
  0
POINT
  5
14AE
330
149A
100
AcDbEntity
  8
Defpoints
 62
     0
100
AcDbPoint
 10
2189.337098857694
 20
1094.240816929068
 30
0.0
  0
POINT
  5
14AF
330
149A
100
AcDbEntity
  8
Defpoints
 62
     0
100
AcDbPoint
 10
2189.337098857694
 20
1094.240816929068
 30
0.0
  0
ENDBLK
  5
14A5
330
149A
100
AcDbEntity
  8
0
100
AcDbBlockEnd
  0
BLOCK
  5
14BC
330
14B2
100
AcDbEntity
  8
0
100
AcDbBlockBegin
  2
*D113
 70
     1
 10
0.0
 20
0.0
 30
0.0
  3
*D113
  1

  0
LINE
  5
14BF
330
14B2
100
AcDbEntity
  8
0
 62
     0
370
    -2
100
AcDbLine
 10
2149.327029398802
 20
1168.488745582854
 30
0.0
 11
2149.952029398802
 21
1168.488745582854
 31
0.0
  0
LINE
  5
14C0
330
14B2
100
AcDbEntity
  8
0
 62
     0
370
    -2
100
AcDbLine
 10
2148.077029398802
 20
902.4887455828556
 30
0.0
 11
2147.452029398802
 21
902.4887455828556
 31
0.0
  0
LINE
  5
14C1
330
14B2
100
AcDbEntity
  8
0
 62
     0
370
    -2
100
AcDbLine
 10
2148.702029398802
 20
1165.988745582854
 30
0.0
 11
2148.702029398802
 21
904.9887455828557
 31
0.0
  0
SOLID
  5
14C2
330
14B2
100
AcDbEntity
  8
0
 62
     0
100
AcDbTrace
 10
2148.285362732136
 20
1165.988745582854
 30
0.0
 11
2149.118696065469
 21
1165.988745582854
 31
0.0
 12
2148.702029398802
 22
1168.488745582854
 32
0.0
 13
2148.702029398802
 23
1168.488745582854
 33
0.0
  0
SOLID
  5
14C3
330
14B2
100
AcDbEntity
  8
0
 62
     0
100
AcDbTrace
 10
2148.285362732135
 20
904.9887455828557
 30
0.0
 11
2149.118696065468
 21
904.9887455828557
 31
0.0
 12
2148.702029398802
 22
902.4887455828556
 32
0.0
 13
2148.702029398802
 23
902.4887455828556
 33
0.0
  0
MTEXT
  5
14C4
330
14B2
100
AcDbEntity
  8
0
 62
     0
100
AcDbMText
 10
2140.577029398802
 20
1035.488745582855
 30
0.0
 40
15.0
 41
0.0
 46
0.0
 71
     5
 72
     1
  1
266
 11
0.0000000000000001
 21
1.0
 31
0.0
 73
     1
 44
1.0
  0
POINT
  5
14C5
330
14B2
100
AcDbEntity
  8
Defpoints
 62
     0
100
AcDbPoint
 10
2148.702029398802
 20
1168.488745582854
 30
0.0
  0
POINT
  5
14C6
330
14B2
100
AcDbEntity
  8
Defpoints
 62
     0
100
AcDbPoint
 10
2148.702029398802
 20
902.4887455828556
 30
0.0
  0
POINT
  5
14C7
330
14B2
100
AcDbEntity
  8
Defpoints
 62
     0
100
AcDbPoint
 10
2148.702029398802
 20
902.4887455828556
 30
0.0
  0
ENDBLK
  5
14BD
330
14B2
100
AcDbEntity
  8
0
100
AcDbBlockEnd
  0
BLOCK
  5
14D4
330
14CA
100
AcDbEntity
  8
0
100
AcDbBlockBegin
  2
*D114
 70
     1
 10
0.0
 20
0.0
 30
0.0
  3
*D114
  1

  0
LINE
  5
14D7
330
14CA
100
AcDbEntity
  8
0
 62
     0
370
    -2
100
AcDbLine
 10
2033.759257604289
 20
1168.488745582854
 30
0.0
 11
2033.134257604289
 21
1168.488745582854
 31
0.0
  0
LINE
  5
14D8
330
14CA
100
AcDbEntity
  8
0
 62
     0
370
    -2
100
AcDbLine
 10
2033.759257604289
 20
1206.488745582856
 30
0.0
 11
2033.134257604289
 21
1206.488745582856
 31
0.0
  0
LINE
  5
14D9
330
14CA
100
AcDbEntity
  8
0
 62
     0
370
    -2
100
AcDbLine
 10
2034.384257604289
 20
1170.988745582854
 30
0.0
 11
2034.384257604289
 21
1203.988745582856
 31
0.0
  0
SOLID
  5
14DA
330
14CA
100
AcDbEntity
  8
0
 62
     0
100
AcDbTrace
 10
2033.967590937622
 20
1170.988745582854
 30
0.0
 11
2034.800924270956
 21
1170.988745582854
 31
0.0
 12
2034.384257604289
 22
1168.488745582854
 32
0.0
 13
2034.384257604289
 23
1168.488745582854
 33
0.0
  0
SOLID
  5
14DB
330
14CA
100
AcDbEntity
  8
0
 62
     0
100
AcDbTrace
 10
2033.967590937622
 20
1203.988745582856
 30
0.0
 11
2034.800924270956
 21
1203.988745582856
 31
0.0
 12
2034.384257604289
 22
1206.488745582856
 32
0.0
 13
2034.384257604289
 23
1206.488745582856
 33
0.0
  0
MTEXT
  5
14DC
330
14CA
100
AcDbEntity
  8
0
 62
     0
100
AcDbMText
 10
2026.259257604289
 20
1187.488745582855
 30
0.0
 40
15.0
 41
0.0
 46
0.0
 71
     5
 72
     1
  1
38
 11
0.0000000000000001
 21
1.0
 31
0.0
 73
     1
 44
1.0
  0
POINT
  5
14DD
330
14CA
100
AcDbEntity
  8
Defpoints
 62
     0
100
AcDbPoint
 10
2034.384257604289
 20
1168.488745582854
 30
0.0
  0
POINT
  5
14DE
330
14CA
100
AcDbEntity
  8
Defpoints
 62
     0
100
AcDbPoint
 10
2034.384257604289
 20
1206.488745582856
 30
0.0
  0
POINT
  5
14DF
330
14CA
100
AcDbEntity
  8
Defpoints
 62
     0
100
AcDbPoint
 10
2034.384257604289
 20
1206.488745582856
 30
0.0
  0
ENDBLK
  5
14D5
330
14CA
100
AcDbEntity
  8
0
100
AcDbBlockEnd
  0
BLOCK
  5
14EC
330
14E2
100
AcDbEntity
  8
0
100
AcDbBlockBegin
  2
*D115
 70
     1
 10
0.0
 20
0.0
 30
0.0
  3
*D115
  1

  0
LINE
  5
14EF
330
14E2
100
AcDbEntity
  8
0
 62
     0
370
    -2
100
AcDbLine
 10
1162.050830348028
 20
1115.026312516631
 30
0.0
 11
1162.050830348028
 21
1374.857678913668
 31
0.0
  0
LINE
  5
14F0
330
14E2
100
AcDbEntity
  8
0
 62
     0
370
    -2
100
AcDbLine
 10
1762.050830348029
 20
1098.705912469069
 30
0.0
 11
1762.050830348029
 21
1374.857678913668
 31
0.0
  0
LINE
  5
14F1
330
14E2
100
AcDbEntity
  8
0
 62
     0
370
    -2
100
AcDbLine
 10
1164.550830348028
 20
1373.607678913668
 30
0.0
 11
1759.550830348029
 21
1373.607678913668
 31
0.0
  0
SOLID
  5
14F2
330
14E2
100
AcDbEntity
  8
0
 62
     0
100
AcDbTrace
 10
1164.550830348028
 20
1374.024345580335
 30
0.0
 11
1164.550830348028
 21
1373.191012247001
 31
0.0
 12
1162.050830348028
 22
1373.607678913668
 32
0.0
 13
1162.050830348028
 23
1373.607678913668
 33
0.0
  0
SOLID
  5
14F3
330
14E2
100
AcDbEntity
  8
0
 62
     0
100
AcDbTrace
 10
1759.550830348029
 20
1374.024345580335
 30
0.0
 11
1759.550830348029
 21
1373.191012247001
 31
0.0
 12
1762.050830348029
 22
1373.607678913668
 32
0.0
 13
1762.050830348029
 23
1373.607678913668
 33
0.0
  0
MTEXT
  5
14F4
330
14E2
100
AcDbEntity
  8
0
 62
     0
100
AcDbMText
 10
1462.050830348028
 20
1381.732678913668
 30
0.0
 40
15.0
 41
0.0
 46
0.0
 71
     5
 72
     1
  1
600
 73
     1
 44
1.0
  0
POINT
  5
14F5
330
14E2
100
AcDbEntity
  8
Defpoints
 62
     0
100
AcDbPoint
 10
1162.050830348028
 20
1114.401312516631
 30
0.0
  0
POINT
  5
14F6
330
14E2
100
AcDbEntity
  8
Defpoints
 62
     0
100
AcDbPoint
 10
1762.050830348029
 20
1098.080912469068
 30
0.0
  0
POINT
  5
14F7
330
14E2
100
AcDbEntity
  8
Defpoints
 62
     0
100
AcDbPoint
 10
1762.050830348029
 20
1373.607678913668
 30
0.0
  0
ENDBLK
  5
14ED
330
14E2
100
AcDbEntity
  8
0
100
AcDbBlockEnd
  0
BLOCK
  5
1504
330
14FA
100
AcDbEntity
  8
0
100
AcDbBlockBegin
  2
*D116
 70
     1
 10
0.0
 20
0.0
 30
0.0
  3
*D116
  1

  0
LINE
  5
1507
330
14FA
100
AcDbEntity
  8
0
 62
     0
370
    -2
100
AcDbLine
 10
1414.137724491639
 20
1335.488745582856
 30
0.0
 11
1112.828164986645
 21
1335.488745582856
 31
0.0
  0
LINE
  5
1508
330
14FA
100
AcDbEntity
  8
0
 62
     0
370
    -2
100
AcDbLine
 10
1414.137724491639
 20
735.4887455828555
 30
0.0
 11
1112.828164986645
 21
735.4887455828556
 31
0.0
  0
LINE
  5
1509
330
14FA
100
AcDbEntity
  8
0
 62
     0
370
    -2
100
AcDbLine
 10
1114.078164986645
 20
1332.988745582856
 30
0.0
 11
1114.078164986645
 21
737.9887455828557
 31
0.0
  0
SOLID
  5
150A
330
14FA
100
AcDbEntity
  8
0
 62
     0
100
AcDbTrace
 10
1113.661498319978
 20
1332.988745582856
 30
0.0
 11
1114.494831653312
 21
1332.988745582856
 31
0.0
 12
1114.078164986645
 22
1335.488745582856
 32
0.0
 13
1114.078164986645
 23
1335.488745582856
 33
0.0
  0
SOLID
  5
150B
330
14FA
100
AcDbEntity
  8
0
 62
     0
100
AcDbTrace
 10
1113.661498319978
 20
737.9887455828557
 30
0.0
 11
1114.494831653312
 21
737.9887455828557
 31
0.0
 12
1114.078164986645
 22
735.4887455828556
 32
0.0
 13
1114.078164986645
 23
735.4887455828556
 33
0.0
  0
MTEXT
  5
150C
330
14FA
100
AcDbEntity
  8
0
 62
     0
100
AcDbMText
 10
1105.953164986645
 20
1035.488745582856
 30
0.0
 40
15.0
 41
0.0
 46
0.0
 71
     5
 72
     1
  1
600
 11
0.0000000000000001
 21
1.0
 31
0.0
 73
     1
 44
1.0
  0
POINT
  5
150D
330
14FA
100
AcDbEntity
  8
Defpoints
 62
     0
100
AcDbPoint
 10
1414.762724491639
 20
1335.488745582856
 30
0.0
  0
POINT
  5
150E
330
14FA
100
AcDbEntity
  8
Defpoints
 62
     0
100
AcDbPoint
 10
1414.762724491639
 20
735.4887455828555
 30
0.0
  0
POINT
  5
150F
330
14FA
100
AcDbEntity
  8
Defpoints
 62
     0
100
AcDbPoint
 10
1114.078164986645
 20
735.4887455828556
 30
0.0
  0
ENDBLK
  5
1505
330
14FA
100
AcDbEntity
  8
0
100
AcDbBlockEnd
  0
BLOCK
  5
151C
330
1512
100
AcDbEntity
  8
0
100
AcDbBlockBegin
  2
*D117
 70
     1
 10
0.0
 20
0.0
 30
0.0
  3
*D117
  1

  0
LINE
  5
151F
330
1512
100
AcDbEntity
  8
0
 62
     0
370
    -2
100
AcDbLine
 10
2171.422061950277
 20
1260.988745582857
 30
0.0
 11
2325.75162735534
 21
1260.988745582857
 31
0.0
  0
LINE
  5
1520
330
1512
100
AcDbEntity
  8
0
 62
     0
370
    -2
100
AcDbLine
 10
2171.422061950277
 20
809.988745582854
 30
0.0
 11
2325.75162735534
 21
809.9887455828538
 31
0.0
  0
LINE
  5
1521
330
1512
100
AcDbEntity
  8
0
 62
     0
370
    -2
100
AcDbLine
 10
2324.50162735534
 20
1258.488745582857
 30
0.0
 11
2324.50162735534
 21
812.4887455828538
 31
0.0
  0
SOLID
  5
1522
330
1512
100
AcDbEntity
  8
0
 62
     0
100
AcDbTrace
 10
2324.084960688674
 20
1258.488745582857
 30
0.0
 11
2324.918294022007
 21
1258.488745582857
 31
0.0
 12
2324.50162735534
 22
1260.988745582857
 32
0.0
 13
2324.50162735534
 23
1260.988745582857
 33
0.0
  0
SOLID
  5
1523
330
1512
100
AcDbEntity
  8
0
 62
     0
100
AcDbTrace
 10
2324.084960688673
 20
812.4887455828538
 30
0.0
 11
2324.918294022007
 21
812.4887455828538
 31
0.0
 12
2324.50162735534
 22
809.9887455828538
 32
0.0
 13
2324.50162735534
 23
809.9887455828538
 33
0.0
  0
MTEXT
  5
1524
330
1512
100
AcDbEntity
  8
0
 62
     0
100
AcDbMText
 10
2316.37662735534
 20
1035.488745582855
 30
0.0
 40
15.0
 41
0.0
 46
0.0
 71
     5
 72
     1
  1
451
 11
0.0000000000000001
 21
1.0
 31
0.0
 73
     1
 44
1.0
  0
POINT
  5
1525
330
1512
100
AcDbEntity
  8
Defpoints
 62
     0
100
AcDbPoint
 10
2170.797061950278
 20
1260.988745582857
 30
0.0
  0
POINT
  5
1526
330
1512
100
AcDbEntity
  8
Defpoints
 62
     0
100
AcDbPoint
 10
2170.797061950278
 20
809.988745582854
 30
0.0
  0
POINT
  5
1527
330
1512
100
AcDbEntity
  8
Defpoints
 62
     0
100
AcDbPoint
 10
2324.50162735534
 20
809.9887455828538
 30
0.0
  0
ENDBLK
  5
151D
330
1512
100
AcDbEntity
  8
0
100
AcDbBlockEnd
  0
BLOCK
  5
1534
330
152A
100
AcDbEntity
  8
0
100
AcDbBlockBegin
  2
*D118
 70
     1
 10
0.0
 20
0.0
 30
0.0
  3
*D118
  1

  0
LINE
  5
1537
330
152A
100
AcDbEntity
  8
0
 62
     0
370
    -2
100
AcDbLine
 10
2281.837098857694
 20
1134.363745582854
 30
0.0
 11
2281.837098857694
 21
1310.536099433304
 31
0.0
  0
LINE
  5
1538
330
152A
100
AcDbEntity
  8
0
 62
     0
370
    -2
100
AcDbLine
 10
1830.837098857695
 20
1134.363745582854
 30
0.0
 11
1830.837098857695
 21
1310.536099433304
 31
0.0
  0
LINE
  5
1539
330
152A
100
AcDbEntity
  8
0
 62
     0
370
    -2
100
AcDbLine
 10
2279.337098857694
 20
1309.286099433304
 30
0.0
 11
1833.337098857695
 21
1309.286099433304
 31
0.0
  0
SOLID
  5
153A
330
152A
100
AcDbEntity
  8
0
 62
     0
100
AcDbTrace
 10
2279.337098857694
 20
1309.702766099971
 30
0.0
 11
2279.337098857694
 21
1308.869432766637
 31
0.0
 12
2281.837098857694
 22
1309.286099433304
 32
0.0
 13
2281.837098857694
 23
1309.286099433304
 33
0.0
  0
SOLID
  5
153B
330
152A
100
AcDbEntity
  8
0
 62
     0
100
AcDbTrace
 10
1833.337098857695
 20
1309.702766099971
 30
0.0
 11
1833.337098857695
 21
1308.869432766637
 31
0.0
 12
1830.837098857695
 22
1309.286099433304
 32
0.0
 13
1830.837098857695
 23
1309.286099433304
 33
0.0
  0
MTEXT
  5
153C
330
152A
100
AcDbEntity
  8
0
 62
     0
100
AcDbMText
 10
2056.337098857695
 20
1317.411099433304
 30
0.0
 40
15.0
 41
0.0
 46
0.0
 71
     5
 72
     1
  1
451
 73
     1
 44
1.0
  0
POINT
  5
153D
330
152A
100
AcDbEntity
  8
Defpoints
 62
     0
100
AcDbPoint
 10
2281.837098857694
 20
1133.738745582854
 30
0.0
  0
POINT
  5
153E
330
152A
100
AcDbEntity
  8
Defpoints
 62
     0
100
AcDbPoint
 10
1830.837098857695
 20
1133.738745582854
 30
0.0
  0
POINT
  5
153F
330
152A
100
AcDbEntity
  8
Defpoints
 62
     0
100
AcDbPoint
 10
1830.837098857695
 20
1309.286099433304
 30
0.0
  0
ENDBLK
  5
1535
330
152A
100
AcDbEntity
  8
0
100
AcDbBlockEnd
  0
ENDSEC
  0
SECTION
  2
ENTITIES
  0
LINE
  5
55A
102
{ACAD_REACTORS
330
1480
330
1498
102
}
330
1F
100
AcDbEntity
  8
0
 62
     2
100
AcDbLine
 10
1592.050830348029
 20
905.4887455828557
 30
0.0
 11
1592.050830348029
 21
1165.488745582855
 31
0.0
  0
LINE
  5
55B
102
{ACAD_REACTORS
330
1468
102
}
330
1F
100
AcDbEntity
  8
0
 62
     2
100
AcDbLine
 10
1592.050830348029
 20
1165.488745582855
 30
0.0
 11
1332.050830348029
 21
1165.488745582855
 31
0.0
  0
LINE
  5
55C
330
1F
100
AcDbEntity
  8
0
 62
     1
100
AcDbLine
 10
1542.050830348029
 20
1255.488745582856
 30
0.0
 11
1539.050830348029
 21
1255.488745582856
 31
0.0
  0
LINE
  5
55D
330
1F
100
AcDbEntity
  8
0
 62
     1
100
AcDbLine
 10
1592.050830348029
 20
1335.488745582856
 30
0.0
 11
1551.050830348029
 21
1335.488745582856
 31
0.0
  0
LINE
  5
55E
102
{ACAD_REACTORS
330
1510
102
}
330
1F
100
AcDbEntity
  8
0
 62
     1
100
AcDbLine
 10
1539.050830348029
 20
1335.488745582856
 30
0.0
 11
1385.050830348029
 21
1335.488745582856
 31
0.0
  0
LINE
  5
55F
330
1F
100
AcDbEntity
  8
0
 62
     1
100
AcDbLine
 10
1373.050830348029
 20
1335.488745582856
 30
0.0
 11
1332.050830348029
 21
1335.488745582856
 31
0.0
  0
LINE
  5
560
330
1F
100
AcDbEntity
  8
0
 62
     1
100
AcDbLine
 10
1592.050830348029
 20
1165.488745582855
 30
0.0
 11
1592.050830348029
 21
1335.488745582856
 31
0.0
  0
LINE
  5
561
330
1F
100
AcDbEntity
  8
0
 62
     1
100
AcDbLine
 10
1539.050830348029
 20
1255.488745582856
 30
0.0
 11
1539.050830348029
 21
1335.488745582856
 31
0.0
  0
LINE
  5
562
330
1F
100
AcDbEntity
  8
0
 62
     2
100
AcDbLine
 10
1596.050830348028
 20
1165.488745582855
 30
0.0
 11
1762.050830348029
 21
1165.488745582855
 31
0.0
  0
LINE
  5
563
330
1F
100
AcDbEntity
  8
0
 62
     1
100
AcDbLine
 10
1539.050830348029
 20
1323.488745582855
 30
0.0
 11
1551.050830348029
 21
1335.488745582856
 31
0.0
  0
ARC
  5
564
330
1F
100
AcDbEntity
  8
0
 62
     1
100
AcDbCircle
 10
1689.272859825746
 20
1114.45975403588
 30
0.0
 40
106.2746665873177
100
AcDbArc
 50
93.89661027465008
 51
151.3040568727288
  0
LINE
  5
565
330
1F
100
AcDbEntity
  8
0
 62
     1
100
AcDbLine
 10
1596.050830348028
 20
1165.488745582855
 30
0.0
 11
1592.050830348029
 21
1165.488745582855
 31
0.0
  0
LINE
  5
566
330
1F
100
AcDbEntity
  8
0
 62
     1
100
AcDbLine
 10
1382.05083034803
 20
1255.488745582856
 30
0.0
 11
1385.050830348029
 21
1255.488745582856
 31
0.0
  0
LINE
  5
567
330
1F
100
AcDbEntity
  8
0
 62
     1
100
AcDbLine
 10
1332.050830348029
 20
1335.488745582856
 30
0.0
 11
1373.050830348029
 21
1335.488745582856
 31
0.0
  0
LINE
  5
568
330
1F
100
AcDbEntity
  8
0
 62
     1
100
AcDbLine
 10
1332.050830348029
 20
1165.488745582855
 30
0.0
 11
1332.050830348029
 21
1335.488745582856
 31
0.0
  0
LINE
  5
569
330
1F
100
AcDbEntity
  8
0
 62
     1
100
AcDbLine
 10
1385.050830348029
 20
1255.488745582856
 30
0.0
 11
1385.050830348029
 21
1335.488745582856
 31
0.0
  0
LINE
  5
56A
330
1F
100
AcDbEntity
  8
0
 62
     2
100
AcDbLine
 10
1328.050830348028
 20
1165.488745582855
 30
0.0
 11
1162.050830348029
 21
1165.488745582855
 31
0.0
  0
LINE
  5
56B
330
1F
100
AcDbEntity
  8
0
 62
     1
100
AcDbLine
 10
1385.050830348029
 20
1323.488745582855
 30
0.0
 11
1373.050830348029
 21
1335.488745582856
 31
0.0
  0
LINE
  5
56C
330
1F
100
AcDbEntity
  8
0
 62
     1
100
AcDbLine
 10
1328.050830348028
 20
1165.488745582855
 30
0.0
 11
1332.050830348029
 21
1165.488745582855
 31
0.0
  0
LINE
  5
56D
102
{ACAD_REACTORS
330
1480
102
}
330
1F
100
AcDbEntity
  8
0
 62
     2
100
AcDbLine
 10
1332.050830348029
 20
905.4887455828557
 30
0.0
 11
1332.050830348029
 21
1165.488745582855
 31
0.0
  0
LINE
  5
56E
102
{ACAD_REACTORS
330
1468
102
}
330
1F
100
AcDbEntity
  8
0
 62
     2
100
AcDbLine
 10
1592.050830348029
 20
905.4887455828557
 30
0.0
 11
1332.050830348029
 21
905.4887455828557
 31
0.0
  0
LINE
  5
56F
330
1F
100
AcDbEntity
  8
0
 62
     1
100
AcDbLine
 10
1542.050830348029
 20
815.4887455828557
 30
0.0
 11
1539.050830348029
 21
815.4887455828557
 31
0.0
  0
LINE
  5
570
330
1F
100
AcDbEntity
  8
0
 62
     1
100
AcDbLine
 10
1592.050830348029
 20
735.4887455828556
 30
0.0
 11
1551.050830348029
 21
735.4887455828556
 31
0.0
  0
LINE
  5
571
102
{ACAD_REACTORS
330
1510
102
}
330
1F
100
AcDbEntity
  8
0
 62
     1
100
AcDbLine
 10
1539.050830348029
 20
735.4887455828556
 30
0.0
 11
1385.050830348029
 21
735.4887455828556
 31
0.0
  0
LINE
  5
572
330
1F
100
AcDbEntity
  8
0
 62
     1
100
AcDbLine
 10
1373.050830348029
 20
735.4887455828556
 30
0.0
 11
1332.050830348029
 21
735.4887455828556
 31
0.0
  0
LINE
  5
573
330
1F
100
AcDbEntity
  8
0
 62
     1
100
AcDbLine
 10
1592.050830348029
 20
905.4887455828557
 30
0.0
 11
1592.050830348029
 21
735.4887455828556
 31
0.0
  0
LINE
  5
574
330
1F
100
AcDbEntity
  8
0
 62
     1
100
AcDbLine
 10
1539.050830348029
 20
815.4887455828557
 30
0.0
 11
1539.050830348029
 21
735.4887455828556
 31
0.0
  0
LINE
  5
575
330
1F
100
AcDbEntity
  8
0
 62
     2
100
AcDbLine
 10
1596.050830348028
 20
905.4887455828557
 30
0.0
 11
1762.050830348029
 21
905.4887455828557
 31
0.0
  0
LINE
  5
576
330
1F
100
AcDbEntity
  8
0
 62
     1
100
AcDbLine
 10
1539.050830348029
 20
747.4887455828556
 30
0.0
 11
1551.050830348029
 21
735.4887455828556
 31
0.0
  0
LINE
  5
577
330
1F
100
AcDbEntity
  8
0
 62
     1
100
AcDbLine
 10
1596.050830348028
 20
905.4887455828557
 30
0.0
 11
1592.050830348029
 21
905.4887455828557
 31
0.0
  0
LINE
  5
578
330
1F
100
AcDbEntity
  8
0
 62
     1
100
AcDbLine
 10
1382.05083034803
 20
815.4887455828557
 30
0.0
 11
1385.050830348029
 21
815.4887455828557
 31
0.0
  0
LINE
  5
579
330
1F
100
AcDbEntity
  8
0
 62
     1
100
AcDbLine
 10
1332.050830348029
 20
735.4887455828556
 30
0.0
 11
1373.050830348029
 21
735.4887455828556
 31
0.0
  0
LINE
  5
57A
330
1F
100
AcDbEntity
  8
0
 62
     1
100
AcDbLine
 10
1332.050830348029
 20
905.4887455828557
 30
0.0
 11
1332.050830348029
 21
735.4887455828556
 31
0.0
  0
LINE
  5
57B
330
1F
100
AcDbEntity
  8
0
 62
     1
100
AcDbLine
 10
1385.050830348029
 20
815.4887455828557
 30
0.0
 11
1385.050830348029
 21
735.4887455828556
 31
0.0
  0
LINE
  5
57C
330
1F
100
AcDbEntity
  8
0
 62
     2
100
AcDbLine
 10
1328.050830348028
 20
905.4887455828557
 30
0.0
 11
1162.050830348029
 21
905.4887455828557
 31
0.0
  0
LINE
  5
57D
330
1F
100
AcDbEntity
  8
0
 62
     1
100
AcDbLine
 10
1385.050830348029
 20
747.4887455828556
 30
0.0
 11
1373.050830348029
 21
735.4887455828556
 31
0.0
  0
LINE
  5
57E
330
1F
100
AcDbEntity
  8
0
 62
     1
100
AcDbLine
 10
1328.050830348028
 20
905.4887455828557
 30
0.0
 11
1332.050830348029
 21
905.4887455828557
 31
0.0
  0
LINE
  5
5BF
330
1F
100
AcDbEntity
  8
0
 62
     1
100
AcDbLine
 10
1682.050830348029
 20
1250.488745582855
 30
0.0
 11
1762.050830348029
 21
1250.488745582855
 31
0.0
  0
ARC
  5
5C0
330
1F
100
AcDbEntity
  8
0
 62
     1
100
AcDbCircle
 10
1682.050830348029
 20
1235.488745582856
 30
0.0
 40
15.0
100
AcDbArc
 50
90.0
 51
270.0
  0
ARC
  5
5C1
330
1F
100
AcDbEntity
  8
0
 62
     1
100
AcDbCircle
 10
1234.828800870311
 20
1114.45975403588
 30
0.0
 40
106.2746665873177
100
AcDbArc
 50
28.69594312727116
 51
86.10338972534995
  0
LINE
  5
5C2
330
1F
100
AcDbEntity
  8
0
 62
     1
100
AcDbLine
 10
1242.050830348029
 20
1250.488745582855
 30
0.0
 11
1162.050830348028
 21
1250.488745582855
 31
0.0
  0
ARC
  5
5C3
330
1F
100
AcDbEntity
  8
0
 62
     1
100
AcDbCircle
 10
1242.050830348029
 20
1235.488745582856
 30
0.0
 40
15.0
100
AcDbArc
 50
270.0
 51
90.0
  0
ARC
  5
5C4
330
1F
100
AcDbEntity
  8
0
 62
     1
100
AcDbCircle
 10
1689.272859825746
 20
956.5177371298306
 30
0.0
 40
106.2746665873177
100
AcDbArc
 50
208.6959431272711
 51
266.1033897253499
  0
LINE
  5
5C5
330
1F
100
AcDbEntity
  8
0
 62
     1
100
AcDbLine
 10
1682.050830348029
 20
820.4887455828556
 30
0.0
 11
1762.050830348029
 21
820.4887455828556
 31
0.0
  0
ARC
  5
5C6
330
1F
100
AcDbEntity
  8
0
 62
     1
100
AcDbCircle
 10
1682.050830348029
 20
835.4887455828556
 30
0.0
 40
15.0
100
AcDbArc
 50
90.0
 51
270.0
  0
ARC
  5
5C7
330
1F
100
AcDbEntity
  8
0
 62
     1
100
AcDbCircle
 10
1234.828800870311
 20
956.5177371298306
 30
0.0
 40
106.2746665873177
100
AcDbArc
 50
273.8966102746501
 51
331.3040568727288
  0
LINE
  5
5C8
330
1F
100
AcDbEntity
  8
0
 62
     1
100
AcDbLine
 10
1242.050830348029
 20
820.4887455828556
 30
0.0
 11
1162.050830348028
 21
820.4887455828556
 31
0.0
  0
ARC
  5
5C9
330
1F
100
AcDbEntity
  8
0
 62
     1
100
AcDbCircle
 10
1242.050830348029
 20
835.4887455828556
 30
0.0
 40
15.0
100
AcDbArc
 50
270.0
 51
90.0
  0
LINE
  5
5CA
102
{ACAD_REACTORS
330
14F8
102
}
330
1F
100
AcDbEntity
  8
0
 62
     1
100
AcDbLine
 10
1162.050830348028
 20
1250.488745582855
 30
0.0
 11
1162.050830348028
 21
820.4887455828556
 31
0.0
  0
LINE
  5
5CB
102
{ACAD_REACTORS
330
1498
330
14F8
102
}
330
1F
100
AcDbEntity
  8
0
 62
     1
100
AcDbLine
 10
1762.050830348029
 20
1250.488745582855
 30
0.0
 11
1762.050830348029
 21
820.4887455828556
 31
0.0
  0
LINE
  5
F61
330
1F
100
AcDbEntity
  8
0
 62
     2
100
AcDbLine
 10
1923.337098857695
 20
1168.488745582854
 30
0.0
 11
1895.872632763627
 21
1195.953211676924
 31
0.0
  0
LINE
  5
F62
102
{ACAD_REACTORS
330
14B0
102
}
330
1F
100
AcDbEntity
  8
0
 62
     2
100
AcDbLine
 10
2189.337098857694
 20
902.4887455828556
 30
0.0
 11
2189.337098857694
 21
1168.488745582854
 31
0.0
  0
LINE
  5
F63
102
{ACAD_REACTORS
330
14C8
330
14E0
102
}
330
1F
100
AcDbEntity
  8
0
 62
     2
100
AcDbLine
 10
2189.337098857694
 20
1168.488745582854
 30
0.0
 11
1923.337098857695
 21
1168.488745582854
 31
0.0
  0
LWPOLYLINE
  5
F64
330
1F
100
AcDbEntity
  8
0
 62
     2
100
AcDbPolyline
 90
        2
 70
     0
 43
0.0
 10
2227.337098857694
 20
902.9887455828548
 10
2227.337098857694
 20
1167.988745582856
  0
LWPOLYLINE
  5
F65
102
{ACAD_REACTORS
330
14E0
102
}
330
1F
100
AcDbEntity
  8
0
 62
     2
100
AcDbPolyline
 90
        2
 70
     0
 43
0.0
 10
2188.337098857695
 20
1206.488745582856
 10
1924.337098857694
 20
1206.488745582856
  0
LWPOLYLINE
  5
F66
330
1F
100
AcDbEntity
  8
0
 62
     2
100
AcDbPolyline
 90
        2
 70
     0
 43
0.0
 10
2188.337098857695
 20
1243.988745582855
 10
1924.337098857694
 20
1243.988745582855
  0
LINE
  5
F67
102
{ACAD_REACTORS
330
1528
102
}
330
1F
100
AcDbEntity
  8
0
 62
     1
100
AcDbLine
 10
2187.837098857694
 20
1260.988745582857
 30
0.0
 11
2133.837098857695
 21
1260.988745582857
 31
0.0
  0
LINE
  5
F68
330
1F
100
AcDbEntity
  8
0
 62
     1
100
AcDbLine
 10
1978.837098857692
 20
1260.988745582857
 30
0.0
 11
1924.837098857693
 21
1260.988745582857
 31
0.0
  0
LINE
  5
F69
102
{ACAD_REACTORS
330
14B0
102
}
330
1F
100
AcDbEntity
  8
0
 62
     2
100
AcDbLine
 10
1923.337098857695
 20
902.4887455828556
 30
0.0
 11
1923.337098857695
 21
1168.488745582854
 31
0.0
  0
LWPOLYLINE
  5
F6A
330
1F
100
AcDbEntity
  8
0
 62
     2
100
AcDbPolyline
 90
        2
 70
     0
 43
0.0
 10
1885.337098857695
 20
902.9887455828548
 10
1885.337098857695
 20
1167.988745582856
  0
LINE
  5
F6E
330
1F
100
AcDbEntity
  8
0
 62
     1
100
AcDbLine
 10
1830.837098857696
 20
1154.488745582854
 30
0.0
 11
1849.837098857695
 21
1154.488745582854
 31
0.0
  0
LINE
  5
F6F
330
1F
100
AcDbEntity
  8
0
 62
     1
100
AcDbLine
 10
1849.837098857695
 20
1154.488745582854
 30
0.0
 11
1849.837098857695
 21
1166.488745582855
 31
0.0
  0
LINE
  5
F70
330
1F
100
AcDbEntity
  8
0
 62
     1
100
AcDbLine
 10
1849.837098857695
 20
1166.488745582855
 30
0.0
 11
1853.837098857695
 21
1166.488745582856
 31
0.0
  0
LINE
  5
F71
330
1F
100
AcDbEntity
  8
0
 62
     1
100
AcDbLine
 10
1853.837098857695
 20
1166.488745582856
 30
0.0
 11
1853.837098857695
 21
1194.794555669577
 31
0.0
  0
LINE
  5
F72
330
1F
100
AcDbEntity
  8
0
 62
     2
100
AcDbLine
 10
1923.337098857695
 20
1168.488745582854
 30
0.0
 11
1923.337098857695
 21
1204.488745582856
 31
0.0
  0
LINE
  5
F73
330
1F
100
AcDbEntity
  8
0
 62
     2
100
AcDbLine
 10
1923.337098857695
 20
1168.488745582854
 30
0.0
 11
1886.659974513226
 21
1168.488745582854
 31
0.0
  0
LINE
  5
F74
330
1F
100
AcDbEntity
  8
0
 62
     1
100
AcDbLine
 10
1924.337098857694
 20
1243.988745582855
 30
0.0
 11
1924.337098857694
 21
1204.488745582856
 31
0.0
  0
LINE
  5
F75
330
1F
100
AcDbEntity
  8
0
 62
     1
100
AcDbLine
 10
1924.837098857695
 20
1255.988745582856
 30
0.0
 11
1923.337098857695
 21
1255.988745582856
 31
0.0
  0
LINE
  5
F76
330
1F
100
AcDbEntity
  8
0
 62
     1
100
AcDbLine
 10
1923.337098857695
 20
1244.488745582855
 30
0.0
 11
1923.337098857695
 21
1255.988745582856
 31
0.0
  0
LINE
  5
F77
330
1F
100
AcDbEntity
  8
0
 62
     1
100
AcDbLine
 10
1923.337098857695
 20
1244.488745582855
 30
0.0
 11
1924.337098857694
 21
1243.988745582855
 31
0.0
  0
LINE
  5
F78
330
1F
100
AcDbEntity
  8
0
 62
     1
100
AcDbLine
 10
1924.837098857695
 20
1255.988745582856
 30
0.0
 11
1924.837098857695
 21
1260.988745582857
 31
0.0
  0
LINE
  5
F79
330
1F
100
AcDbEntity
  8
0
 62
     1
100
AcDbLine
 10
1924.337098857694
 20
1204.488745582856
 30
0.0
 11
1899.408166669561
 21
1204.488745582856
 31
0.0
  0
ARC
  5
F7A
330
1F
100
AcDbEntity
  8
0
 62
     1
100
AcDbCircle
 10
1899.408166669561
 20
1199.488745582856
 30
0.0
 40
5.0
100
AcDbArc
 50
90.0
 51
224.9999999999909
  0
LINE
  5
F7B
330
1F
100
AcDbEntity
  8
0
 62
     1
100
AcDbLine
 10
1887.337098857695
 20
1169.988745582855
 30
0.0
 11
1887.337098857695
 21
1192.417677770992
 31
0.0
  0
ARC
  5
F7C
330
1F
100
AcDbEntity
  8
0
 62
     1
100
AcDbCircle
 10
1892.337098857694
 20
1192.417677770992
 30
0.0
 40
5.0
100
AcDbArc
 50
44.99999999999078
 51
180.0
  0
LINE
  5
F7D
330
1F
100
AcDbEntity
  8
0
 62
     1
100
AcDbLine
 10
1883.337098857694
 20
1169.988745582855
 30
0.0
 11
1883.337098857694
 21
1194.794555669577
 31
0.0
  0
LINE
  5
F7E
330
1F
100
AcDbEntity
  8
0
 62
     2
100
AcDbLine
 10
1853.837098857695
 20
1167.988745582855
 30
0.0
 11
1885.337098857695
 21
1167.988745582855
 31
0.0
  0
LINE
  5
F7F
330
1F
100
AcDbEntity
  8
0
 62
     1
100
AcDbLine
 10
1915.16931854279
 20
1176.656525897761
 30
0.0
 11
1902.794209232823
 21
1189.031635207728
 31
0.0
  0
LINE
  5
F80
330
1F
100
AcDbEntity
  8
0
 62
     1
100
AcDbLine
 10
1984.837098857694
 20
1254.988745582857
 30
0.0
 11
2127.837098857698
 21
1254.988745582857
 31
0.0
  0
ARC
  5
F81
330
1F
100
AcDbEntity
  8
0
 62
     1
100
AcDbCircle
 10
1984.837098857694
 20
1260.988745582857
 30
0.0
 40
6.0
100
AcDbArc
 50
180.0
 51
270.0
  0
ARC
  5
F82
330
1F
100
AcDbEntity
  8
0
 62
     1
100
AcDbCircle
 10
2127.837098857698
 20
1260.988745582857
 30
0.0
 40
6.0
100
AcDbArc
 50
270.0
 51
359.999999999987
  0
LWPOLYLINE
  5
FAA
330
1F
100
AcDbEntity
  8
0
 62
     2
100
AcDbPolyline
 90
        2
 70
     0
 43
0.0
 10
2264.837098857695
 20
916.488745582856
 10
2264.837098857695
 20
1154.488745582854
  0
LINE
  5
FAB
330
1F
100
AcDbEntity
  8
0
 62
     1
100
AcDbLine
 10
2281.837098857694
 20
916.4887455828557
 30
0.0
 11
2281.837098857694
 21
957.9887455828536
 31
0.0
  0
LINE
  5
FAC
102
{ACAD_REACTORS
330
1540
102
}
330
1F
100
AcDbEntity
  8
0
 62
     1
100
AcDbLine
 10
2281.837098857694
 20
1112.988745582855
 30
0.0
 11
2281.837098857694
 21
1154.488745582854
 31
0.0
  0
LINE
  5
FAD
330
1F
100
AcDbEntity
  8
0
 62
     1
100
AcDbLine
 10
2275.837098857694
 20
963.9887455828537
 30
0.0
 11
2275.837098857694
 21
1106.988745582855
 31
0.0
  0
ARC
  5
FAE
330
1F
100
AcDbEntity
  8
0
 62
     1
100
AcDbCircle
 10
2281.837098857694
 20
963.9887455828537
 30
0.0
 40
6.0
100
AcDbArc
 50
180.0
 51
270.0
  0
ARC
  5
FAF
330
1F
100
AcDbEntity
  8
0
 62
     1
100
AcDbCircle
 10
2281.837098857694
 20
1106.988745582855
 30
0.0
 40
6.0
100
AcDbArc
 50
90.0
 51
180.0
  0
ARC
  5
FC2
330
1F
100
AcDbEntity
  8
0
 62
     1
100
AcDbCircle
 10
1885.337098857695
 20
1169.988745582855
 30
0.0
 40
2.000000000000063
100
AcDbArc
 50
180.0
 51
0.0
  0
LINE
  5
FC3
330
1F
100
AcDbEntity
  8
0
 62
     2
100
AcDbLine
 10
2189.337098857694
 20
1168.488745582854
 30
0.0
 11
2216.801564951761
 21
1195.953211676924
 31
0.0
  0
LINE
  5
FC4
330
1F
100
AcDbEntity
  8
0
 62
     1
100
AcDbLine
 10
2281.837098857694
 20
1154.488745582854
 30
0.0
 11
2262.837098857694
 21
1154.488745582854
 31
0.0
  0
LINE
  5
FC5
330
1F
100
AcDbEntity
  8
0
 62
     1
100
AcDbLine
 10
2262.837098857694
 20
1154.488745582854
 30
0.0
 11
2262.837098857694
 21
1166.488745582855
 31
0.0
  0
LINE
  5
FC6
330
1F
100
AcDbEntity
  8
0
 62
     1
100
AcDbLine
 10
2262.837098857694
 20
1166.488745582855
 30
0.0
 11
2258.837098857695
 21
1166.488745582856
 31
0.0
  0
LINE
  5
FC7
330
1F
100
AcDbEntity
  8
0
 62
     2
100
AcDbLine
 10
2189.337098857694
 20
1168.488745582854
 30
0.0
 11
2189.337098857694
 21
1204.488745582856
 31
0.0
  0
LINE
  5
FC8
330
1F
100
AcDbEntity
  8
0
 62
     2
100
AcDbLine
 10
2189.337098857694
 20
1168.488745582854
 30
0.0
 11
2226.014223202163
 21
1168.488745582854
 31
0.0
  0
LINE
  5
FC9
330
1F
100
AcDbEntity
  8
0
 62
     1
100
AcDbLine
 10
2188.337098857695
 20
1243.988745582855
 30
0.0
 11
2188.337098857695
 21
1204.488745582856
 31
0.0
  0
LINE
  5
FCA
330
1F
100
AcDbEntity
  8
0
 62
     1
100
AcDbLine
 10
2187.837098857694
 20
1255.988745582856
 30
0.0
 11
2189.337098857694
 21
1255.988745582856
 31
0.0
  0
LINE
  5
FCB
330
1F
100
AcDbEntity
  8
0
 62
     1
100
AcDbLine
 10
2189.337098857694
 20
1244.488745582855
 30
0.0
 11
2189.337098857694
 21
1255.988745582856
 31
0.0
  0
LINE
  5
FCC
330
1F
100
AcDbEntity
  8
0
 62
     1
100
AcDbLine
 10
2189.337098857694
 20
1244.488745582855
 30
0.0
 11
2188.337098857695
 21
1243.988745582855
 31
0.0
  0
LINE
  5
FCD
330
1F
100
AcDbEntity
  8
0
 62
     1
100
AcDbLine
 10
2187.837098857694
 20
1255.988745582856
 30
0.0
 11
2187.837098857694
 21
1260.988745582857
 31
0.0
  0
LINE
  5
FCE
330
1F
100
AcDbEntity
  8
0
 62
     1
100
AcDbLine
 10
2188.337098857695
 20
1204.488745582856
 30
0.0
 11
2213.266031045829
 21
1204.488745582856
 31
0.0
  0
ARC
  5
FCF
330
1F
100
AcDbEntity
  8
0
 62
     1
100
AcDbCircle
 10
2213.266031045829
 20
1199.488745582856
 30
0.0
 40
5.0
100
AcDbArc
 50
315.000000000009
 51
90.0
  0
LINE
  5
FD0
330
1F
100
AcDbEntity
  8
0
 62
     1
100
AcDbLine
 10
2225.337098857695
 20
1169.988745582855
 30
0.0
 11
2225.337098857695
 21
1192.417677770992
 31
0.0
  0
ARC
  5
FD1
330
1F
100
AcDbEntity
  8
0
 62
     1
100
AcDbCircle
 10
2220.337098857695
 20
1192.417677770992
 30
0.0
 40
5.0
100
AcDbArc
 50
0.0
 51
135.0000000000092
  0
LINE
  5
FD2
330
1F
100
AcDbEntity
  8
0
 62
     2
100
AcDbLine
 10
2258.837098857695
 20
1167.988745582855
 30
0.0
 11
2227.337098857694
 21
1167.988745582855
 31
0.0
  0
LINE
  5
FD3
330
1F
100
AcDbEntity
  8
0
 62
     1
100
AcDbLine
 10
2197.5048791726
 20
1176.656525897761
 30
0.0
 11
2209.879988482566
 21
1189.031635207728
 31
0.0
  0
ARC
  5
FD4
330
1F
100
AcDbEntity
  8
0
 62
     1
100
AcDbCircle
 10
2227.337098857694
 20
1169.988745582855
 30
0.0
 40
2.000000000000063
100
AcDbArc
 50
180.0
 51
0.0
  0
ELLIPSE
  5
FD5
330
1F
100
AcDbEntity
  8
0
 62
     1
100
AcDbEllipse
 10
1868.587098857695
 20
1194.794555669577
 30
0.0
 11
0.0
 21
27.75265293167422
 31
0.0
210
0.0
220
0.0
230
1.0
 40
0.5314807213679296
 41
4.712388980384688
 42
7.853981633974482
  0
LINE
  5
FD6
330
1F
100
AcDbEntity
  8
0
 62
     1
100
AcDbLine
 10
2258.837098857695
 20
1166.488745582856
 30
0.0
 11
2258.837098857695
 21
1194.794555669577
 31
0.0
  0
LINE
  5
FD7
330
1F
100
AcDbEntity
  8
0
 62
     1
100
AcDbLine
 10
2229.337098857694
 20
1169.988745582855
 30
0.0
 11
2229.337098857694
 21
1194.794555669577
 31
0.0
  0
ELLIPSE
  5
FD8
330
1F
100
AcDbEntity
  8
0
 62
     1
100
AcDbEllipse
 10
2244.087098857695
 20
1194.794555669577
 30
0.0
 11
0.0
 21
27.75265293167422
 31
0.0
210
0.0
220
0.0
230
-1.0
 40
0.5314807213679296
 41
4.712388980384688
 42
7.853981633974482
  0
LINE
  5
FD9
330
1F
100
AcDbEntity
  8
0
 62
     2
100
AcDbLine
 10
1923.337098857695
 20
902.4887455828556
 30
0.0
 11
1895.872632763627
 21
875.0242794887864
 31
0.0
  0
LINE
  5
FDA
102
{ACAD_REACTORS
330
14C8
102
}
330
1F
100
AcDbEntity
  8
0
 62
     2
100
AcDbLine
 10
2189.337098857694
 20
902.4887455828556
 30
0.0
 11
1923.337098857695
 21
902.4887455828556
 31
0.0
  0
LWPOLYLINE
  5
FDB
330
1F
100
AcDbEntity
  8
0
 62
     2
100
AcDbPolyline
 90
        2
 70
     0
 43
0.0
 10
2188.337098857695
 20
864.4887455828554
 10
1924.337098857694
 20
864.4887455828554
  0
LINE
  5
FDF
330
1F
100
AcDbEntity
  8
0
 62
     1
100
AcDbLine
 10
1830.837098857696
 20
916.488745582856
 30
0.0
 11
1849.837098857695
 21
916.488745582856
 31
0.0
  0
LINE
  5
FE0
330
1F
100
AcDbEntity
  8
0
 62
     1
100
AcDbLine
 10
1849.837098857695
 20
916.488745582856
 30
0.0
 11
1849.837098857695
 21
904.4887455828556
 31
0.0
  0
LINE
  5
FE1
330
1F
100
AcDbEntity
  8
0
 62
     1
100
AcDbLine
 10
1849.837098857695
 20
904.4887455828556
 30
0.0
 11
1853.837098857695
 21
904.4887455828554
 31
0.0
  0
LINE
  5
FE2
330
1F
100
AcDbEntity
  8
0
 62
     1
100
AcDbLine
 10
1853.837098857695
 20
904.4887455828554
 30
0.0
 11
1853.837098857695
 21
876.1829354961339
 31
0.0
  0
LINE
  5
FE3
330
1F
100
AcDbEntity
  8
0
 62
     2
100
AcDbLine
 10
1923.337098857695
 20
902.4887455828556
 30
0.0
 11
1923.337098857695
 21
866.4887455828552
 31
0.0
  0
LINE
  5
FE4
330
1F
100
AcDbEntity
  8
0
 62
     2
100
AcDbLine
 10
1923.337098857695
 20
902.4887455828556
 30
0.0
 11
1886.659974513226
 21
902.4887455828556
 31
0.0
  0
LINE
  5
FE5
330
1F
100
AcDbEntity
  8
0
 62
     1
100
AcDbLine
 10
1924.337098857694
 20
826.9887455828554
 30
0.0
 11
1924.337098857694
 21
866.4887455828552
 31
0.0
  0
LINE
  5
FEA
330
1F
100
AcDbEntity
  8
0
 62
     1
100
AcDbLine
 10
1924.337098857694
 20
866.4887455828552
 30
0.0
 11
1899.408166669561
 21
866.4887455828552
 31
0.0
  0
ARC
  5
FEB
330
1F
100
AcDbEntity
  8
0
 62
     1
100
AcDbCircle
 10
1899.408166669561
 20
871.4887455828554
 30
0.0
 40
5.0
100
AcDbArc
 50
135.0000000000092
 51
270.0
  0
LINE
  5
FEC
330
1F
100
AcDbEntity
  8
0
 62
     1
100
AcDbLine
 10
1887.337098857695
 20
900.9887455828547
 30
0.0
 11
1887.337098857695
 21
878.5598133947194
 31
0.0
  0
ARC
  5
FED
330
1F
100
AcDbEntity
  8
0
 62
     1
100
AcDbCircle
 10
1892.337098857694
 20
878.5598133947194
 30
0.0
 40
5.0
100
AcDbArc
 50
180.0
 51
315.000000000009
  0
LINE
  5
FEE
330
1F
100
AcDbEntity
  8
0
 62
     1
100
AcDbLine
 10
1883.337098857694
 20
900.9887455828547
 30
0.0
 11
1883.337098857694
 21
876.1829354961339
 31
0.0
  0
LINE
  5
FEF
330
1F
100
AcDbEntity
  8
0
 62
     2
100
AcDbLine
 10
1853.837098857695
 20
902.9887455828557
 30
0.0
 11
1885.337098857695
 21
902.9887455828557
 31
0.0
  0
LINE
  5
FF0
330
1F
100
AcDbEntity
  8
0
 62
     1
100
AcDbLine
 10
1915.16931854279
 20
894.3209652679492
 30
0.0
 11
1902.794209232823
 21
881.9458559579821
 31
0.0
  0
ARC
  5
1006
330
1F
100
AcDbEntity
  8
0
 62
     1
100
AcDbCircle
 10
1885.337098857695
 20
900.9887455828547
 30
0.0
 40
2.000000000000063
100
AcDbArc
 50
0.0
 51
180.0
  0
LINE
  5
1007
330
1F
100
AcDbEntity
  8
0
 62
     2
100
AcDbLine
 10
2189.337098857694
 20
902.4887455828556
 30
0.0
 11
2216.801564951761
 21
875.0242794887864
 31
0.0
  0
LINE
  5
1008
330
1F
100
AcDbEntity
  8
0
 62
     1
100
AcDbLine
 10
2281.837098857694
 20
916.488745582856
 30
0.0
 11
2262.837098857694
 21
916.488745582856
 31
0.0
  0
LINE
  5
1009
330
1F
100
AcDbEntity
  8
0
 62
     1
100
AcDbLine
 10
2262.837098857694
 20
916.488745582856
 30
0.0
 11
2262.837098857694
 21
904.4887455828556
 31
0.0
  0
LINE
  5
100A
330
1F
100
AcDbEntity
  8
0
 62
     1
100
AcDbLine
 10
2262.837098857694
 20
904.4887455828556
 30
0.0
 11
2258.837098857695
 21
904.4887455828554
 31
0.0
  0
LINE
  5
100B
330
1F
100
AcDbEntity
  8
0
 62
     2
100
AcDbLine
 10
2189.337098857694
 20
902.4887455828556
 30
0.0
 11
2189.337098857694
 21
866.4887455828552
 31
0.0
  0
LINE
  5
100C
330
1F
100
AcDbEntity
  8
0
 62
     2
100
AcDbLine
 10
2189.337098857694
 20
902.4887455828556
 30
0.0
 11
2226.014223202163
 21
902.4887455828556
 31
0.0
  0
LINE
  5
100D
330
1F
100
AcDbEntity
  8
0
 62
     1
100
AcDbLine
 10
2188.337098857695
 20
826.9887455828554
 30
0.0
 11
2188.337098857695
 21
866.4887455828552
 31
0.0
  0
LINE
  5
1012
330
1F
100
AcDbEntity
  8
0
 62
     1
100
AcDbLine
 10
2188.337098857695
 20
866.4887455828552
 30
0.0
 11
2213.266031045829
 21
866.4887455828552
 31
0.0
  0
ARC
  5
1013
330
1F
100
AcDbEntity
  8
0
 62
     1
100
AcDbCircle
 10
2213.266031045829
 20
871.4887455828554
 30
0.0
 40
5.0
100
AcDbArc
 50
270.0
 51
44.99999999999078
  0
LINE
  5
1014
330
1F
100
AcDbEntity
  8
0
 62
     1
100
AcDbLine
 10
2225.337098857695
 20
900.9887455828547
 30
0.0
 11
2225.337098857695
 21
878.5598133947194
 31
0.0
  0
ARC
  5
1015
330
1F
100
AcDbEntity
  8
0
 62
     1
100
AcDbCircle
 10
2220.337098857695
 20
878.5598133947194
 30
0.0
 40
5.0
100
AcDbArc
 50
224.9999999999909
 51
0.0
  0
LINE
  5
1016
330
1F
100
AcDbEntity
  8
0
 62
     2
100
AcDbLine
 10
2258.837098857695
 20
902.9887455828557
 30
0.0
 11
2227.337098857694
 21
902.9887455828557
 31
0.0
  0
LINE
  5
1017
330
1F
100
AcDbEntity
  8
0
 62
     1
100
AcDbLine
 10
2197.5048791726
 20
894.3209652679492
 30
0.0
 11
2209.879988482566
 21
881.9458559579821
 31
0.0
  0
ARC
  5
1018
330
1F
100
AcDbEntity
  8
0
 62
     1
100
AcDbCircle
 10
2227.337098857694
 20
900.9887455828547
 30
0.0
 40
2.000000000000063
100
AcDbArc
 50
0.0
 51
180.0
  0
ELLIPSE
  5
1019
330
1F
100
AcDbEntity
  8
0
 62
     1
100
AcDbEllipse
 10
1868.587098857695
 20
876.1829354961339
 30
0.0
 11
0.0
 21
-27.75265293167422
 31
0.0
210
0.0
220
0.0
230
-1.0
 40
0.5314807213679296
 41
4.712388980384688
 42
7.853981633974482
  0
LINE
  5
101A
330
1F
100
AcDbEntity
  8
0
 62
     1
100
AcDbLine
 10
2258.837098857695
 20
904.4887455828554
 30
0.0
 11
2258.837098857695
 21
876.1829354961339
 31
0.0
  0
LINE
  5
101B
330
1F
100
AcDbEntity
  8
0
 62
     1
100
AcDbLine
 10
2229.337098857694
 20
900.9887455828547
 30
0.0
 11
2229.337098857694
 21
876.1829354961339
 31
0.0
  0
ELLIPSE
  5
101C
330
1F
100
AcDbEntity
  8
0
 62
     1
100
AcDbEllipse
 10
2244.087098857695
 20
876.1829354961339
 30
0.0
 11
0.0
 21
-27.75265293167422
 31
0.0
210
0.0
220
0.0
230
1.0
 40
0.5314807213679296
 41
4.712388980384688
 42
7.853981633974482
  0
LINE
  5
11B0
330
1F
100
AcDbEntity
  8
0
 62
     1
100
AcDbLine
 10
2264.837098857695
 20
987.9887455828542
 30
0.0
 11
2264.837098857695
 21
992.9887455828543
 31
0.0
  0
LINE
  5
11B1
330
1F
100
AcDbEntity
  8
0
 62
     1
100
AcDbLine
 10
2264.837098857695
 20
997.9887455828544
 30
0.0
 11
2264.837098857695
 21
1002.988745582854
 31
0.0
  0
LINE
  5
11B2
330
1F
100
AcDbEntity
  8
0
 62
     1
100
AcDbLine
 10
2264.837098857695
 20
1007.988745582854
 30
0.0
 11
2264.837098857695
 21
1012.988745582854
 31
0.0
  0
LINE
  5
11B3
330
1F
100
AcDbEntity
  8
0
 62
     1
100
AcDbLine
 10
2264.837098857695
 20
1017.988745582854
 30
0.0
 11
2264.837098857695
 21
1022.988745582854
 31
0.0
  0
LINE
  5
11B4
330
1F
100
AcDbEntity
  8
0
 62
     1
100
AcDbLine
 10
2264.837098857695
 20
1027.988745582854
 30
0.0
 11
2264.837098857695
 21
1032.988745582853
 31
0.0
  0
LINE
  5
11B5
330
1F
100
AcDbEntity
  8
0
 62
     1
100
AcDbLine
 10
2264.837098857695
 20
1037.988745582853
 30
0.0
 11
2264.837098857695
 21
1042.988745582854
 31
0.0
  0
LINE
  5
11B6
330
1F
100
AcDbEntity
  8
0
 62
     1
100
AcDbLine
 10
2264.837098857695
 20
1047.988745582854
 30
0.0
 11
2264.837098857695
 21
1052.988745582854
 31
0.0
  0
LINE
  5
11B7
330
1F
100
AcDbEntity
  8
0
 62
     1
100
AcDbLine
 10
2264.837098857695
 20
1057.988745582853
 30
0.0
 11
2264.837098857695
 21
1062.988745582855
 31
0.0
  0
LINE
  5
11B8
330
1F
100
AcDbEntity
  8
0
 62
     1
100
AcDbLine
 10
2264.837098857695
 20
1067.988745582854
 30
0.0
 11
2264.837098857695
 21
1072.988745582855
 31
0.0
  0
LINE
  5
11B9
330
1F
100
AcDbEntity
  8
0
 62
     1
100
AcDbLine
 10
2264.837098857695
 20
1077.988745582853
 30
0.0
 11
2264.837098857695
 21
1082.988745582853
 31
0.0
  0
LINE
  5
11BA
330
1F
100
AcDbEntity
  8
0
 62
     1
100
AcDbLine
 10
2264.837098857695
 20
1087.988745582853
 30
0.0
 11
2264.837098857695
 21
1092.988745582855
 31
0.0
  0
LINE
  5
11BB
330
1F
100
AcDbEntity
  8
0
 62
     1
100
AcDbLine
 10
2264.837098857695
 20
1097.988745582853
 30
0.0
 11
2264.837098857695
 21
1102.988745582855
 31
0.0
  0
LINE
  5
11BC
330
1F
100
AcDbEntity
  8
0
 62
     1
100
AcDbLine
 10
2264.837098857695
 20
1107.988745582853
 30
0.0
 11
2264.837098857695
 21
1112.988745582855
 31
0.0
  0
LINE
  5
11D7
330
1F
100
AcDbEntity
  8
0
 62
     1
100
AcDbLine
 10
2103.837098857693
 20
1243.988745582855
 30
0.0
 11
2098.837098857693
 21
1243.988745582855
 31
0.0
  0
LINE
  5
11D8
330
1F
100
AcDbEntity
  8
0
 62
     1
100
AcDbLine
 10
2093.837098857693
 20
1243.988745582855
 30
0.0
 11
2088.837098857693
 21
1243.988745582855
 31
0.0
  0
LINE
  5
11D9
330
1F
100
AcDbEntity
  8
0
 62
     1
100
AcDbLine
 10
2083.837098857694
 20
1243.988745582855
 30
0.0
 11
2078.837098857693
 21
1243.988745582855
 31
0.0
  0
LINE
  5
11DA
330
1F
100
AcDbEntity
  8
0
 62
     1
100
AcDbLine
 10
2073.837098857692
 20
1243.988745582855
 30
0.0
 11
2068.837098857693
 21
1243.988745582855
 31
0.0
  0
LINE
  5
11DB
330
1F
100
AcDbEntity
  8
0
 62
     1
100
AcDbLine
 10
2063.837098857693
 20
1243.988745582855
 30
0.0
 11
2058.837098857694
 21
1243.988745582855
 31
0.0
  0
LINE
  5
11DC
330
1F
100
AcDbEntity
  8
0
 62
     1
100
AcDbLine
 10
2053.837098857693
 20
1243.988745582855
 30
0.0
 11
2048.837098857692
 21
1243.988745582855
 31
0.0
  0
LINE
  5
11DD
330
1F
100
AcDbEntity
  8
0
 62
     1
100
AcDbLine
 10
2043.837098857693
 20
1243.988745582855
 30
0.0
 11
2038.837098857693
 21
1243.988745582855
 31
0.0
  0
LINE
  5
11DE
330
1F
100
AcDbEntity
  8
0
 62
     1
100
AcDbLine
 10
2033.837098857694
 20
1243.988745582855
 30
0.0
 11
2028.837098857692
 21
1243.988745582855
 31
0.0
  0
LINE
  5
11DF
330
1F
100
AcDbEntity
  8
0
 62
     1
100
AcDbLine
 10
2023.837098857693
 20
1243.988745582855
 30
0.0
 11
2018.837098857693
 21
1243.988745582855
 31
0.0
  0
LINE
  5
11E0
330
1F
100
AcDbEntity
  8
0
 62
     1
100
AcDbLine
 10
2013.837098857693
 20
1243.988745582855
 30
0.0
 11
2008.837098857693
 21
1243.988745582855
 31
0.0
  0
LINE
  5
11E1
330
1F
100
AcDbEntity
  8
0
 62
     1
100
AcDbLine
 10
2003.837098857693
 20
1243.988745582855
 30
0.0
 11
1998.837098857691
 21
1243.988745582855
 31
0.0
  0
LINE
  5
11E2
330
1F
100
AcDbEntity
  8
0
 62
     1
100
AcDbLine
 10
1993.837098857692
 20
1243.988745582855
 30
0.0
 11
1988.837098857693
 21
1243.988745582855
 31
0.0
  0
LINE
  5
11E3
330
1F
100
AcDbEntity
  8
0
 62
     1
100
AcDbLine
 10
1983.837098857692
 20
1243.988745582855
 30
0.0
 11
1978.837098857692
 21
1243.988745582855
 31
0.0
  0
LINE
  5
12D6
330
1F
100
AcDbEntity
  8
0
 62
     1
100
AcDbLine
 10
2133.837098857691
 20
1243.988745582855
 30
0.0
 11
2128.837098857692
 21
1243.988745582855
 31
0.0
  0
LINE
  5
12D7
330
1F
100
AcDbEntity
  8
0
 62
     1
100
AcDbLine
 10
2123.837098857693
 20
1243.988745582855
 30
0.0
 11
2118.837098857692
 21
1243.988745582855
 31
0.0
  0
LINE
  5
12D8
330
1F
100
AcDbEntity
  8
0
 62
     1
100
AcDbLine
 10
2113.837098857691
 20
1243.988745582855
 30
0.0
 11
2108.837098857692
 21
1243.988745582855
 31
0.0
  0
LWPOLYLINE
  5
12DA
330
1F
100
AcDbEntity
  8
0
 62
     2
100
AcDbPolyline
 90
        2
 70
     0
 43
0.0
 10
2188.337098857695
 20
826.9887455828548
 10
1924.337098857694
 20
826.9887455828548
  0
LINE
  5
12DB
102
{ACAD_REACTORS
330
1528
102
}
330
1F
100
AcDbEntity
  8
0
 62
     1
100
AcDbLine
 10
2187.837098857694
 20
809.988745582854
 30
0.0
 11
2133.837098857695
 21
809.988745582854
 31
0.0
  0
LINE
  5
12DC
330
1F
100
AcDbEntity
  8
0
 62
     1
100
AcDbLine
 10
1978.837098857692
 20
809.988745582854
 30
0.0
 11
1924.837098857693
 21
809.988745582854
 31
0.0
  0
LINE
  5
12DD
330
1F
100
AcDbEntity
  8
0
 62
     1
100
AcDbLine
 10
1924.837098857695
 20
814.9887455828549
 30
0.0
 11
1923.337098857695
 21
814.9887455828549
 31
0.0
  0
LINE
  5
12DE
330
1F
100
AcDbEntity
  8
0
 62
     1
100
AcDbLine
 10
1923.337098857695
 20
826.4887455828556
 30
0.0
 11
1923.337098857695
 21
814.9887455828549
 31
0.0
  0
LINE
  5
12DF
330
1F
100
AcDbEntity
  8
0
 62
     1
100
AcDbLine
 10
1923.337098857695
 20
826.4887455828556
 30
0.0
 11
1924.337098857694
 21
826.9887455828548
 31
0.0
  0
LINE
  5
12E0
330
1F
100
AcDbEntity
  8
0
 62
     1
100
AcDbLine
 10
1924.837098857695
 20
814.9887455828549
 30
0.0
 11
1924.837098857695
 21
809.988745582854
 31
0.0
  0
LINE
  5
12E1
330
1F
100
AcDbEntity
  8
0
 62
     1
100
AcDbLine
 10
1984.837098857694
 20
815.988745582854
 30
0.0
 11
2127.837098857698
 21
815.988745582854
 31
0.0
  0
ARC
  5
12E2
330
1F
100
AcDbEntity
  8
0
 62
     1
100
AcDbCircle
 10
1984.837098857694
 20
809.988745582854
 30
0.0
 40
6.0
100
AcDbArc
 50
90.00000000000005
 51
180.0
  0
ARC
  5
12E3
330
1F
100
AcDbEntity
  8
0
 62
     1
100
AcDbCircle
 10
2127.837098857698
 20
809.988745582854
 30
0.0
 40
6.0
100
AcDbArc
 50
0.0000000000130276
 51
90.00000000000005
  0
LINE
  5
12E4
330
1F
100
AcDbEntity
  8
0
 62
     1
100
AcDbLine
 10
2187.837098857694
 20
814.9887455828549
 30
0.0
 11
2189.337098857694
 21
814.9887455828549
 31
0.0
  0
LINE
  5
12E5
330
1F
100
AcDbEntity
  8
0
 62
     1
100
AcDbLine
 10
2189.337098857694
 20
826.4887455828556
 30
0.0
 11
2189.337098857694
 21
814.9887455828549
 31
0.0
  0
LINE
  5
12E6
330
1F
100
AcDbEntity
  8
0
 62
     1
100
AcDbLine
 10
2189.337098857694
 20
826.4887455828556
 30
0.0
 11
2188.337098857695
 21
826.9887455828548
 31
0.0
  0
LINE
  5
12E7
330
1F
100
AcDbEntity
  8
0
 62
     1
100
AcDbLine
 10
2187.837098857694
 20
814.9887455828549
 30
0.0
 11
2187.837098857694
 21
809.988745582854
 31
0.0
  0
LINE
  5
12E8
330
1F
100
AcDbEntity
  8
0
 62
     1
100
AcDbLine
 10
2103.837098857693
 20
826.9887455828548
 30
0.0
 11
2098.837098857693
 21
826.9887455828548
 31
0.0
  0
LINE
  5
12E9
330
1F
100
AcDbEntity
  8
0
 62
     1
100
AcDbLine
 10
2093.837098857693
 20
826.9887455828548
 30
0.0
 11
2088.837098857693
 21
826.9887455828548
 31
0.0
  0
LINE
  5
12EA
330
1F
100
AcDbEntity
  8
0
 62
     1
100
AcDbLine
 10
2083.837098857694
 20
826.9887455828548
 30
0.0
 11
2078.837098857693
 21
826.9887455828548
 31
0.0
  0
LINE
  5
12EB
330
1F
100
AcDbEntity
  8
0
 62
     1
100
AcDbLine
 10
2073.837098857692
 20
826.9887455828548
 30
0.0
 11
2068.837098857693
 21
826.9887455828548
 31
0.0
  0
LINE
  5
12EC
330
1F
100
AcDbEntity
  8
0
 62
     1
100
AcDbLine
 10
2063.837098857693
 20
826.9887455828548
 30
0.0
 11
2058.837098857694
 21
826.9887455828548
 31
0.0
  0
LINE
  5
12ED
330
1F
100
AcDbEntity
  8
0
 62
     1
100
AcDbLine
 10
2053.837098857693
 20
826.9887455828548
 30
0.0
 11
2048.837098857692
 21
826.9887455828548
 31
0.0
  0
LINE
  5
12EE
330
1F
100
AcDbEntity
  8
0
 62
     1
100
AcDbLine
 10
2043.837098857693
 20
826.9887455828548
 30
0.0
 11
2038.837098857693
 21
826.9887455828548
 31
0.0
  0
LINE
  5
12EF
330
1F
100
AcDbEntity
  8
0
 62
     1
100
AcDbLine
 10
2033.837098857694
 20
826.9887455828548
 30
0.0
 11
2028.837098857692
 21
826.9887455828548
 31
0.0
  0
LINE
  5
12F0
330
1F
100
AcDbEntity
  8
0
 62
     1
100
AcDbLine
 10
2023.837098857693
 20
826.9887455828548
 30
0.0
 11
2018.837098857693
 21
826.9887455828548
 31
0.0
  0
LINE
  5
12F1
330
1F
100
AcDbEntity
  8
0
 62
     1
100
AcDbLine
 10
2013.837098857693
 20
826.9887455828548
 30
0.0
 11
2008.837098857693
 21
826.9887455828548
 31
0.0
  0
LINE
  5
12F2
330
1F
100
AcDbEntity
  8
0
 62
     1
100
AcDbLine
 10
2003.837098857693
 20
826.9887455828548
 30
0.0
 11
1998.837098857691
 21
826.9887455828548
 31
0.0
  0
LINE
  5
12F3
330
1F
100
AcDbEntity
  8
0
 62
     1
100
AcDbLine
 10
1993.837098857692
 20
826.9887455828548
 30
0.0
 11
1988.837098857693
 21
826.9887455828548
 31
0.0
  0
LINE
  5
12F4
330
1F
100
AcDbEntity
  8
0
 62
     1
100
AcDbLine
 10
1983.837098857692
 20
826.9887455828548
 30
0.0
 11
1978.837098857692
 21
826.9887455828548
 31
0.0
  0
LINE
  5
12F5
330
1F
100
AcDbEntity
  8
0
 62
     1
100
AcDbLine
 10
2133.837098857691
 20
826.9887455828548
 30
0.0
 11
2128.837098857692
 21
826.9887455828548
 31
0.0
  0
LINE
  5
12F6
330
1F
100
AcDbEntity
  8
0
 62
     1
100
AcDbLine
 10
2123.837098857693
 20
826.9887455828548
 30
0.0
 11
2118.837098857692
 21
826.9887455828548
 31
0.0
  0
LINE
  5
12F7
330
1F
100
AcDbEntity
  8
0
 62
     1
100
AcDbLine
 10
2113.837098857691
 20
826.9887455828548
 30
0.0
 11
2108.837098857692
 21
826.9887455828548
 31
0.0
  0
LINE
  5
12F8
330
1F
100
AcDbEntity
  8
0
 62
     1
100
AcDbLine
 10
2103.837098857692
 20
826.9887455828548
 30
0.0
 11
2098.837098857693
 21
826.9887455828548
 31
0.0
  0
LINE
  5
1302
330
1F
100
AcDbEntity
  8
0
 62
     1
100
AcDbLine
 10
2264.837098857695
 20
967.9887455828543
 30
0.0
 11
2264.837098857695
 21
972.9887455828546
 31
0.0
  0
LINE
  5
1303
330
1F
100
AcDbEntity
  8
0
 62
     1
100
AcDbLine
 10
2264.837098857695
 20
977.9887455828543
 30
0.0
 11
2264.837098857695
 21
982.9887455828544
 31
0.0
  0
LINE
  5
1305
330
1F
100
AcDbEntity
  8
0
 62
     1
100
AcDbLine
 10
2264.837098857695
 20
957.9887455828536
 30
0.0
 11
2264.837098857695
 21
962.9887455828535
 31
0.0
  0
LWPOLYLINE
  5
1306
330
1F
100
AcDbEntity
  8
0
 62
     2
100
AcDbPolyline
 90
        2
 70
     0
 43
0.0
 10
1847.837098857693
 20
916.488745582856
 10
1847.837098857693
 20
1154.488745582854
  0
LINE
  5
1307
330
1F
100
AcDbEntity
  8
0
 62
     1
100
AcDbLine
 10
1830.837098857695
 20
916.4887455828557
 30
0.0
 11
1830.837098857695
 21
957.9887455828536
 31
0.0
  0
LINE
  5
1308
102
{ACAD_REACTORS
330
1540
102
}
330
1F
100
AcDbEntity
  8
0
 62
     1
100
AcDbLine
 10
1830.837098857695
 20
1112.988745582855
 30
0.0
 11
1830.837098857695
 21
1154.488745582854
 31
0.0
  0
LINE
  5
1309
330
1F
100
AcDbEntity
  8
0
 62
     1
100
AcDbLine
 10
1836.837098857694
 20
963.9887455828537
 30
0.0
 11
1836.837098857694
 21
1106.988745582855
 31
0.0
  0
ARC
  5
130A
330
1F
100
AcDbEntity
  8
0
 62
     1
100
AcDbCircle
 10
1830.837098857695
 20
963.9887455828537
 30
0.0
 40
6.0
100
AcDbArc
 50
270.0
 51
0.0
  0
ARC
  5
130B
330
1F
100
AcDbEntity
  8
0
 62
     1
100
AcDbCircle
 10
1830.837098857695
 20
1106.988745582855
 30
0.0
 40
6.0
100
AcDbArc
 50
0.0
 51
90.0
  0
LINE
  5
130C
330
1F
100
AcDbEntity
  8
0
 62
     1
100
AcDbLine
 10
1847.837098857693
 20
987.9887455828542
 30
0.0
 11
1847.837098857693
 21
992.9887455828543
 31
0.0
  0
LINE
  5
130D
330
1F
100
AcDbEntity
  8
0
 62
     1
100
AcDbLine
 10
1847.837098857693
 20
997.9887455828544
 30
0.0
 11
1847.837098857693
 21
1002.988745582854
 31
0.0
  0
LINE
  5
130E
330
1F
100
AcDbEntity
  8
0
 62
     1
100
AcDbLine
 10
1847.837098857693
 20
1007.988745582854
 30
0.0
 11
1847.837098857693
 21
1012.988745582854
 31
0.0
  0
LINE
  5
130F
330
1F
100
AcDbEntity
  8
0
 62
     1
100
AcDbLine
 10
1847.837098857693
 20
1017.988745582854
 30
0.0
 11
1847.837098857693
 21
1022.988745582854
 31
0.0
  0
LINE
  5
1310
330
1F
100
AcDbEntity
  8
0
 62
     1
100
AcDbLine
 10
1847.837098857693
 20
1027.988745582854
 30
0.0
 11
1847.837098857693
 21
1032.988745582853
 31
0.0
  0
LINE
  5
1311
330
1F
100
AcDbEntity
  8
0
 62
     1
100
AcDbLine
 10
1847.837098857693
 20
1037.988745582853
 30
0.0
 11
1847.837098857693
 21
1042.988745582854
 31
0.0
  0
LINE
  5
1312
330
1F
100
AcDbEntity
  8
0
 62
     1
100
AcDbLine
 10
1847.837098857693
 20
1047.988745582854
 30
0.0
 11
1847.837098857693
 21
1052.988745582854
 31
0.0
  0
LINE
  5
1313
330
1F
100
AcDbEntity
  8
0
 62
     1
100
AcDbLine
 10
1847.837098857693
 20
1057.988745582853
 30
0.0
 11
1847.837098857693
 21
1062.988745582855
 31
0.0
  0
LINE
  5
1314
330
1F
100
AcDbEntity
  8
0
 62
     1
100
AcDbLine
 10
1847.837098857693
 20
1067.988745582854
 30
0.0
 11
1847.837098857693
 21
1072.988745582855
 31
0.0
  0
LINE
  5
1315
330
1F
100
AcDbEntity
  8
0
 62
     1
100
AcDbLine
 10
1847.837098857693
 20
1077.988745582853
 30
0.0
 11
1847.837098857693
 21
1082.988745582853
 31
0.0
  0
LINE
  5
1316
330
1F
100
AcDbEntity
  8
0
 62
     1
100
AcDbLine
 10
1847.837098857693
 20
1087.988745582853
 30
0.0
 11
1847.837098857693
 21
1092.988745582855
 31
0.0
  0
LINE
  5
1317
330
1F
100
AcDbEntity
  8
0
 62
     1
100
AcDbLine
 10
1847.837098857693
 20
1097.988745582853
 30
0.0
 11
1847.837098857693
 21
1102.988745582855
 31
0.0
  0
LINE
  5
1318
330
1F
100
AcDbEntity
  8
0
 62
     1
100
AcDbLine
 10
1847.837098857693
 20
1107.988745582853
 30
0.0
 11
1847.837098857693
 21
1112.988745582855
 31
0.0
  0
LINE
  5
1319
330
1F
100
AcDbEntity
  8
0
 62
     1
100
AcDbLine
 10
1847.837098857693
 20
967.9887455828543
 30
0.0
 11
1847.837098857693
 21
972.9887455828546
 31
0.0
  0
LINE
  5
131A
330
1F
100
AcDbEntity
  8
0
 62
     1
100
AcDbLine
 10
1847.837098857693
 20
977.9887455828543
 30
0.0
 11
1847.837098857693
 21
982.9887455828544
 31
0.0
  0
LINE
  5
131B
330
1F
100
AcDbEntity
  8
0
 62
     1
100
AcDbLine
 10
1847.837098857693
 20
957.9887455828536
 30
0.0
 11
1847.837098857693
 21
962.9887455828535
 31
0.0
  0
CIRCLE
  5
1420
330
1F
100
AcDbEntity
  8
0
 62
     1
100
AcDbCircle
 10
1462.050830348029
 20
1262.488745582856
 30
0.0
 40
1.5
  0
CIRCLE
  5
1421
330
1F
100
AcDbEntity
  8
0
 62
     1
100
AcDbCircle
 10
1235.050830348029
 20
1035.488745582855
 30
0.0
 40
1.5
  0
CIRCLE
  5
1422
330
1F
100
AcDbEntity
  8
0
 62
     1
100
AcDbCircle
 10
1689.050830348029
 20
1035.488745582855
 30
0.0
 40
1.5
  0
CIRCLE
  5
1423
330
1F
100
AcDbEntity
  8
0
 62
     1
100
AcDbCircle
 10
1462.050830348029
 20
808.4887455828557
 30
0.0
 40
1.5
  0
DIMENSION
  5
1451
102
{ACAD_XDICTIONARY
360
145E
102
}
102
{ACAD_REACTORS
330
1468
102
}
330
1F
100
AcDbEntity
  8
0
100
AcDbDimension
  2
*D109
 10
1431.093832507122
 20
905.4887455828557
 30
0.0
 11
1422.968832507122
 21
1035.488745582855
 31
0.0
 70
    32
 71
     5
 42
259.9999999999992
 73
     0
 74
     0
 75
     0
  3
ISO-25
100
AcDbAlignedDimension
 13
1431.093832507122
 23
1165.488745582855
 33
0.0
 14
1431.093832507122
 24
905.4887455828557
 34
0.0
 50
90.0
100
AcDbRotatedDimension
  0
DIMENSION
  5
1469
102
{ACAD_XDICTIONARY
360
1476
102
}
102
{ACAD_REACTORS
330
1480
102
}
330
1F
100
AcDbEntity
  8
0
100
AcDbDimension
  2
*D110
 10
1592.050830348029
 20
944.4771388485678
 30
0.0
 11
1462.050830348029
 21
952.6021388485679
 31
0.0
 70
    32
 71
     5
 42
260.0
 73
     0
 74
     0
 75
     0
  3
ISO-25
100
AcDbAlignedDimension
 13
1332.050830348029
 23
944.4771388485678
 33
0.0
 14
1592.050830348029
 24
944.4771388485678
 34
0.0
100
AcDbRotatedDimension
  0
DIMENSION
  5
1481
102
{ACAD_XDICTIONARY
360
148E
102
}
102
{ACAD_REACTORS
330
1498
102
}
330
1F
100
AcDbEntity
  8
0
100
AcDbDimension
  2
*D111
 10
1762.050830348029
 20
999.1984830068366
 30
0.0
 11
1677.050830348029
 21
1007.323483006836
 31
0.0
 70
    32
 71
     5
 42
170.0
 73
     0
 74
     0
 75
     0
  3
ISO-25
100
AcDbAlignedDimension
 13
1592.050830348029
 23
1035.488745582855
 33
0.0
 14
1762.050830348029
 24
1035.488745582855
 34
0.0
100
AcDbRotatedDimension
  0
DIMENSION
  5
1499
102
{ACAD_XDICTIONARY
360
14A6
102
}
102
{ACAD_REACTORS
330
14B0
102
}
330
1F
100
AcDbEntity
  8
0
100
AcDbDimension
  2
*D112
 10
2189.337098857694
 20
1094.240816929068
 30
0.0
 11
2056.337098857695
 21
1102.365816929068
 31
0.0
 70
    32
 71
     5
 42
265.9999999999991
 73
     0
 74
     0
 75
     0
  3
ISO-25
100
AcDbAlignedDimension
 13
1923.337098857695
 23
1094.240816929068
 33
0.0
 14
2189.337098857694
 24
1094.240816929068
 34
0.0
100
AcDbRotatedDimension
  0
DIMENSION
  5
14B1
102
{ACAD_XDICTIONARY
360
14BE
102
}
102
{ACAD_REACTORS
330
14C8
102
}
330
1F
100
AcDbEntity
  8
0
100
AcDbDimension
  2
*D113
 10
2148.702029398802
 20
902.4887455828556
 30
0.0
 11
2140.577029398802
 21
1035.488745582855
 31
0.0
 70
    32
 71
     5
 42
265.9999999999984
 73
     0
 74
     0
 75
     0
  3
ISO-25
100
AcDbAlignedDimension
 13
2148.702029398802
 23
1168.488745582854
 33
0.0
 14
2148.702029398802
 24
902.4887455828556
 34
0.0
 50
90.0
100
AcDbRotatedDimension
  0
DIMENSION
  5
14C9
102
{ACAD_XDICTIONARY
360
14D6
102
}
102
{ACAD_REACTORS
330
14E0
102
}
330
1F
100
AcDbEntity
  8
0
100
AcDbDimension
  2
*D114
 10
2034.384257604289
 20
1206.488745582856
 30
0.0
 11
2026.259257604289
 21
1187.488745582855
 31
0.0
 70
    32
 71
     5
 42
38.00000000000182
 73
     0
 74
     0
 75
     0
  3
ISO-25
100
AcDbAlignedDimension
 13
2034.384257604289
 23
1168.488745582854
 33
0.0
 14
2034.384257604289
 24
1206.488745582856
 34
0.0
 50
90.0
100
AcDbRotatedDimension
  0
DIMENSION
  5
14E1
102
{ACAD_XDICTIONARY
360
14EE
102
}
102
{ACAD_REACTORS
330
14F8
102
}
330
1F
100
AcDbEntity
  8
0
100
AcDbDimension
  2
*D115
 10
1762.050830348029
 20
1373.607678913668
 30
0.0
 11
1462.050830348028
 21
1381.732678913668
 31
0.0
 70
    32
 71
     5
 42
600.0000000000014
 73
     0
 74
     0
 75
     0
  3
ISO-25
100
AcDbAlignedDimension
 13
1162.050830348028
 23
1114.401312516631
 33
0.0
 14
1762.050830348029
 24
1098.080912469068
 34
0.0
100
AcDbRotatedDimension
  0
DIMENSION
  5
14F9
102
{ACAD_XDICTIONARY
360
1506
102
}
102
{ACAD_REACTORS
330
1510
102
}
330
1F
100
AcDbEntity
  8
0
100
AcDbDimension
  2
*D116
 10
1114.078164986645
 20
735.4887455828556
 30
0.0
 11
1105.953164986645
 21
1035.488745582856
 31
0.0
 70
    32
 71
     5
 42
600.0000000000002
 73
     0
 74
     0
 75
     0
  3
ISO-25
100
AcDbAlignedDimension
 13
1414.762724491639
 23
1335.488745582856
 33
0.0
 14
1414.762724491639
 24
735.4887455828555
 34
0.0
 50
90.0
100
AcDbRotatedDimension
  0
DIMENSION
  5
1511
102
{ACAD_XDICTIONARY
360
151E
102
}
102
{ACAD_REACTORS
330
1528
102
}
330
1F
100
AcDbEntity
  8
0
100
AcDbDimension
  2
*D117
 10
2324.50162735534
 20
809.9887455828538
 30
0.0
 11
2316.37662735534
 21
1035.488745582855
 31
0.0
 70
    32
 71
     5
 42
451.000000000003
 73
     0
 74
     0
 75
     0
  3
ISO-25
100
AcDbAlignedDimension
 13
2170.797061950278
 23
1260.988745582857
 33
0.0
 14
2170.797061950278
 24
809.988745582854
 34
0.0
 50
90.0
100
AcDbRotatedDimension
  0
DIMENSION
  5
1529
102
{ACAD_XDICTIONARY
360
1536
102
}
102
{ACAD_REACTORS
330
1540
102
}
330
1F
100
AcDbEntity
  8
0
100
AcDbDimension
  2
*D118
 10
1830.837098857695
 20
1309.286099433304
 30
0.0
 11
2056.337098857695
 21
1317.411099433304
 31
0.0
 70
    32
 71
     5
 42
450.9999999999989
 73
     0
 74
     0
 75
     0
  3
ISO-25
100
AcDbAlignedDimension
 13
2281.837098857694
 23
1133.738745582854
 33
0.0
 14
1830.837098857695
 24
1133.738745582854
 34
0.0
100
AcDbRotatedDimension
  0
ENDSEC
  0
SECTION
  2
OBJECTS
  0
DICTIONARY
  5
C
330
0
100
AcDbDictionary
281
     1
  3
ACAD_COLOR
350
6B
  3
ACAD_GROUP
350
D
  3
ACAD_LAYOUT
350
1A
  3
ACAD_MATERIAL
350
6A
  3
ACAD_MLINESTYLE
350
17
  3
ACAD_PLOTSETTINGS
350
19
  3
ACAD_PLOTSTYLENAME
350
E
  3
ACAD_TABLESTYLE
350
7E
  3
ACAD_VISUALSTYLE
350
F0
  3
AcDbVariableDictionary
350
5E
  0
DICTIONARY
  5
BB2
330
1F
100
AcDbDictionary
280
     1
281
     1
  3
ACAD_SORTENTS
360
BB3
  0
DICTIONARY
  5
145E
330
1451
100
AcDbDictionary
280
     1
281
     1
  3
ACAD_DIMASSOC
360
1468
  0
DICTIONARY
  5
1476
330
1469
100
AcDbDictionary
280
     1
281
     1
  3
ACAD_DIMASSOC
360
1480
  0
DICTIONARY
  5
148E
330
1481
100
AcDbDictionary
280
     1
281
     1
  3
ACAD_DIMASSOC
360
1498
  0
DICTIONARY
  5
14A6
330
1499
100
AcDbDictionary
280
     1
281
     1
  3
ACAD_DIMASSOC
360
14B0
  0
DICTIONARY
  5
14BE
330
14B1
100
AcDbDictionary
280
     1
281
     1
  3
ACAD_DIMASSOC
360
14C8
  0
DICTIONARY
  5
14D6
330
14C9
100
AcDbDictionary
280
     1
281
     1
  3
ACAD_DIMASSOC
360
14E0
  0
DICTIONARY
  5
14EE
330
14E1
100
AcDbDictionary
280
     1
281
     1
  3
ACAD_DIMASSOC
360
14F8
  0
DICTIONARY
  5
1506
330
14F9
100
AcDbDictionary
280
     1
281
     1
  3
ACAD_DIMASSOC
360
1510
  0
DICTIONARY
  5
151E
330
1511
100
AcDbDictionary
280
     1
281
     1
  3
ACAD_DIMASSOC
360
1528
  0
DICTIONARY
  5
1536
330
1529
100
AcDbDictionary
280
     1
281
     1
  3
ACAD_DIMASSOC
360
1540
  0
DICTIONARY
  5
6B
102
{ACAD_REACTORS
330
C
102
}
330
C
100
AcDbDictionary
281
     1
  0
DICTIONARY
  5
D
102
{ACAD_REACTORS
330
C
102
}
330
C
100
AcDbDictionary
281
     1
  0
DICTIONARY
  5
1A
102
{ACAD_REACTORS
330
C
102
}
330
C
100
AcDbDictionary
281
     1
  3
Model
350
22
  3
布局1
350
D3
  3
布局2
350
D7
  0
DICTIONARY
  5
6A
102
{ACAD_REACTORS
330
C
102
}
330
C
100
AcDbDictionary
281
     1
  3
ByBlock
350
EE
  3
ByLayer
350
ED
  3
Global
350
EF
  0
DICTIONARY
  5
17
102
{ACAD_REACTORS
330
C
102
}
330
C
100
AcDbDictionary
281
     1
  3
Standard
350
18
  0
DICTIONARY
  5
19
102
{ACAD_REACTORS
330
C
102
}
330
C
100
AcDbDictionary
281
     1
  0
ACDBDICTIONARYWDFLT
  5
E
102
{ACAD_REACTORS
330
C
102
}
330
C
100
AcDbDictionary
281
     1
  3
Normal
350
F
100
AcDbDictionaryWithDefault
340
F
  0
DICTIONARY
  5
7E
102
{ACAD_REACTORS
330
C
102
}
330
C
100
AcDbDictionary
281
     1
  3
Standard
350
7F
  0
DICTIONARY
  5
F0
102
{ACAD_REACTORS
330
C
102
}
330
C
100
AcDbDictionary
281
     1
  3
2dWireframe
350
F6
  3
3D Hidden
350
F8
  3
3dWireframe
350
F7
  3
Basic
350
F5
  3
Brighten
350
FC
  3
ColorChange
350
100
  3
Conceptual
350
F9
  3
Dim
350
FB
  3
Facepattern
350
FF
  3
Flat
350
F1
  3
FlatWithEdges
350
F2
  3
Gouraud
350
F3
  3
GouraudWithEdges
350
F4
  3
Linepattern
350
FE
  3
Realistic
350
FA
  3
Thicken
350
FD
  0
DICTIONARY
  5
5E
102
{ACAD_REACTORS
330
C
102
}
330
C
100
AcDbDictionary
281
     1
  3
CTABLESTYLE
350
84
  3
DIMASSOC
350
5F
  3
HIDETEXT
350
63
  0
SORTENTSTABLE
  5
BB3
102
{ACAD_REACTORS
330
BB2
102
}
330
BB2
100
AcDbSortentsTable
330
1F
331
1013
  5
109E
331
12DA
  5
12E4
331
55E
  5
55E
331
F65
  5
F73
331
FCC
  5
FD9
331
FD4
  5
FE4
331
566
  5
567
331
101B
  5
11B8
331
12E2
  5
12ED
331
12EA
  5
12F5
331
F75
  5
F81
331
56E
  5
56F
331
11B3
  5
11D7
331
12F2
  5
1307
331
F7D
  5
FB0
331
FE4
  5
100A
331
576
  5
578
331
11BB
  5
11DF
331
1305
  5
1310
331
130A
  5
1316
331
57E
  5
582
331
FEC
  5
100E
331
11DB
  5
1209
331
FAD
  5
FCC
331
1312
  5
1342
331
131A
  5
1442
331
11E3
  5
12E0
331
5C6
  5
5CF
331
FC5
  5
FD2
331
1422
  5
5C7
331
100C
  5
1086
331
12DB
  5
12E5
331
F66
  5
F74
331
FCD
  5
FDA
331
55F
  5
560
331
1014
  5
10B6
331
101C
  5
11B9
331
12E3
  5
12EE
331
F6E
  5
F7A
331
FD5
  5
FE5
331
567
  5
568
331
11B4
  5
11D8
331
56F
  5
570
331
F76
  5
F82
331
12EB
  5
12F6
331
FE5
  5
100B
331
11BC
  5
11E0
331
577
  5
579
331
F7E
  5
FB1
331
12F3
  5
1308
331
1306
  5
1311
331
12D6
  5
12E1
331
130B
  5
1317
331
FED
  5
100F
331
1313
  5
1343
331
FAE
  5
FCD
331
5BF
  5
5C8
331
11DC
  5
1221
331
5C7
  5
5D2
331
FC6
  5
FD3
331
131B
  5
1443
331
100D
  5
1087
331
1423
  5
5C3
331
1015
  5
11B0
331
12DC
  5
12E6
331
560
  5
561
331
F67
  5
F75
331
FCE
  5
FDB
331
FD6
  5
FE6
331
568
  5
569
331
F6F
  5
F7B
331
12E4
  5
12EF
331
12EC
  5
12F7
331
F77
  5
F83
331
570
  5
571
331
11B5
  5
11D9
331
F7F
  5
FB2
331
12F4
  5
1309
331
1307
  5
1312
331
12D7
  5
12E2
331
578
  5
57A
331
130C
  5
1318
331
FEE
  5
1010
331
11DD
  5
12D6
331
5C0
  5
5C9
331
FAF
  5
FCE
331
1314
  5
1433
331
FC7
  5
FD4
331
1006
  5
1017
331
5C8
  5
5D5
331
12F8
  5
130D
331
12DD
  5
12E8
331
F68
  5
F76
331
FCF
  5
FDC
331
561
  5
562
331
1016
  5
11B1
331
12E5
  5
12F0
331
569
  5
56A
331
F70
  5
F7C
331
FD7
  5
FE7
331
11B6
  5
11DA
331
12ED
  5
12F8
331
571
  5
572
331
F78
  5
F84
331
FDF
  5
FF0
331
12F5
  5
130A
331
579
  5
57B
331
F80
  5
FC5
331
130D
  5
1319
331
FEF
  5
1015
331
11DE
  5
12DB
331
1315
  5
1438
331
5C1
  5
5CA
331
5C9
  5
5D8
331
1007
  5
1018
331
55A
  5
55A
331
F61
  5
F6C
331
FC8
  5
FD5
331
FD0
  5
FDD
331
1017
  5
11B4
331
562
  5
563
331
F69
  5
F78
331
12DE
  5
12E9
331
FD8
  5
FE8
331
56A
  5
56B
331
F71
  5
F7D
331
12E6
  5
12F1
331
12EE
  5
1302
331
F79
  5
F85
331
FE0
  5
FF1
331
572
  5
574
331
11B7
  5
11DB
331
12F6
  5
130B
331
57A
  5
57C
331
F81
  5
FC6
331
11D7
  5
11E1
331
130E
  5
131A
331
FF0
  5
1016
331
5C2
  5
5CB
331
11DF
  5
12DC
331
1316
  5
1439
331
1008
  5
1019
331
5CA
  5
F68
331
FC9
  5
FD6
331
55B
  5
55B
331
F62
  5
F6D
331
12DF
  5
12EA
331
F6A
  5
F79
331
FD1
  5
FDE
331
563
  5
564
331
1018
  5
11B5
331
11B0
  5
11BA
331
12E7
  5
12F2
331
56B
  5
56C
331
F72
  5
F7E
331
FD9
  5
FED
331
FE1
  5
FF2
331
11B8
  5
11DC
331
573
  5
575
331
F7A
  5
FAD
331
12EF
  5
1303
331
12F7
  5
130C
331
1302
  5
130E
331
57B
  5
57D
331
F82
  5
FC7
331
130F
  5
131B
331
FAA
  5
FC8
331
11D8
  5
11E2
331
11E0
  5
12DD
331
5C3
  5
5CC
331
FC2
  5
FCF
331
1317
  5
143F
331
5CB
  5
F6A
331
1009
  5
101A
331
12D8
  5
12E3
331
55C
  5
55C
331
F63
  5
F71
331
FCA
  5
FD7
331
FD2
  5
FE2
331
564
  5
565
331
1019
  5
11B6
331
12E0
  5
12EB
331
12E8
  5
12F3
331
FDA
  5
FEE
331
11B1
  5
11BB
331
56C
  5
56D
331
F73
  5
F7F
331
12F0
  5
1305
331
F7B
  5
FAE
331
FE2
  5
FF3
331
574
  5
576
331
11B9
  5
11DD
331
1303
  5
130F
331
1308
  5
1314
331
57C
  5
57E
331
FEA
  5
100C
331
11D9
  5
11E3
331
FAB
  5
FC9
331
1310
  5
1340
331
11E1
  5
12DE
331
5C4
  5
5CD
331
FC3
  5
FD0
331
1318
  5
1440
331
1420
  5
5C5
331
100A
  5
101B
331
F64
  5
F72
331
FCB
  5
FD8
331
55D
  5
55D
331
1012
  5
1088
331
12E1
  5
12EC
331
FD3
  5
FE3
331
565
  5
566
331
101A
  5
11B7
331
11B2
  5
11BC
331
12E9
  5
12F4
331
56D
  5
56E
331
F74
  5
F80
331
FDB
  5
FEF
331
FE3
  5
1009
331
11BA
  5
11DE
331
575
  5
577
331
F7C
  5
FAF
331
12F1
  5
1306
331
1309
  5
1315
331
FEB
  5
100D
331
57D
  5
580
331
1311
  5
1341
331
FAC
  5
FCA
331
11DA
  5
11F1
331
11E2
  5
12DF
331
5C5
  5
5CE
331
FC4
  5
FD1
331
1319
  5
1441
331
100B
  5
101C
331
1421
  5
5C6
  0
DIMASSOC
  5
1468
102
{ACAD_REACTORS
330
145E
102
}
330
145E
100
AcDbDimAssoc
330
1451
 90
        3
 70
     0
 71
     0
  1
AcDbOsnapPointRef
 72
    10
331
55B
 73
     2
 91
        0
 40
0.6190653763111806
 10
0.0
 20
0.0
 30
0.0
 75
     0
  1
AcDbOsnapPointRef
 72
     8
331
56E
 73
     2
 91
        0
 40
0.6190653763111806
 10
0.0
 20
0.0
 30
0.0
 75
     1
  1
AcDbOsnapPointRef
 72
    10
331
55B
 73
     2
 91
        0
 40
0.6190653763111806
 10
0.0
 20
0.0
 30
0.0
 75
     0
  0
DIMASSOC
  5
1480
102
{ACAD_REACTORS
330
1476
102
}
330
1476
100
AcDbDimAssoc
330
1469
 90
        3
 70
     0
 71
     0
  1
AcDbOsnapPointRef
 72
    10
331
56D
 73
     2
 91
        0
 40
0.1499553587142779
 10
0.0
 20
0.0
 30
0.0
 75
     0
  1
AcDbOsnapPointRef
 72
     8
331
55A
 73
     2
 91
        0
 40
0.1499553587142779
 10
0.0
 20
0.0
 30
0.0
 75
     1
  1
AcDbOsnapPointRef
 72
    10
331
56D
 73
     2
 91
        0
 40
0.1499553587142779
 10
0.0
 20
0.0
 30
0.0
 75
     0
  0
DIMASSOC
  5
1498
102
{ACAD_REACTORS
330
148E
102
}
330
148E
100
AcDbDimAssoc
330
1481
 90
        3
 70
     0
 71
     0
  1
AcDbOsnapPointRef
 72
     2
331
55A
 73
     2
 91
        0
 40
0.4999999999999996
 10
0.0
 20
0.0
 30
0.0
 75
     0
  1
AcDbOsnapPointRef
 72
     2
331
5CB
 73
     2
 91
        0
 40
0.5000000000000002
 10
0.0
 20
0.0
 30
0.0
 75
     0
  0
DIMASSOC
  5
14B0
102
{ACAD_REACTORS
330
14A6
102
}
330
14A6
100
AcDbDimAssoc
330
1499
 90
        3
 70
     0
 71
     0
  1
AcDbOsnapPointRef
 72
    10
331
F69
 73
     2
 91
        0
 40
0.7208724486699768
 10
0.0
 20
0.0
 30
0.0
 75
     0
  1
AcDbOsnapPointRef
 72
     8
331
F62
 73
     2
 91
        0
 40
0.7208724486699768
 10
0.0
 20
0.0
 30
0.0
 75
     1
  1
AcDbOsnapPointRef
 72
    10
331
F69
 73
     2
 91
        0
 40
0.7208724486699768
 10
0.0
 20
0.0
 30
0.0
 75
     0
  0
DIMASSOC
  5
14C8
102
{ACAD_REACTORS
330
14BE
102
}
330
14BE
100
AcDbDimAssoc
330
14B1
 90
        3
 70
     0
 71
     0
  1
AcDbOsnapPointRef
 72
    10
331
F63
 73
     2
 91
        0
 40
0.1527634190183928
 10
0.0
 20
0.0
 30
0.0
 75
     0
  1
AcDbOsnapPointRef
 72
     8
331
FDA
 73
     2
 91
        0
 40
0.1527634190183928
 10
0.0
 20
0.0
 30
0.0
 75
     1
  1
AcDbOsnapPointRef
 72
    10
331
F63
 73
     2
 91
        0
 40
0.1527634190183928
 10
0.0
 20
0.0
 30
0.0
 75
     0
  0
DIMASSOC
  5
14E0
102
{ACAD_REACTORS
330
14D6
102
}
330
14D6
100
AcDbDimAssoc
330
14C9
 90
        3
 70
     0
 71
     0
  1
AcDbOsnapPointRef
 72
    10
331
F63
 73
     2
 91
        0
 40
0.5825294783962621
 10
0.0
 20
0.0
 30
0.0
 75
     0
  1
AcDbOsnapPointRef
 72
     8
331
F65
 73
     2
 91
        1
 40
0.5831547017174454
 10
0.0
 20
0.0
 30
0.0
 75
     1
  1
AcDbOsnapPointRef
 72
    10
331
F63
 73
     2
 91
        0
 40
0.5825294783962621
 10
0.0
 20
0.0
 30
0.0
 75
     0
  0
DIMASSOC
  5
14F8
102
{ACAD_REACTORS
330
14EE
102
}
330
14EE
100
AcDbDimAssoc
330
14E1
 90
        3
 70
     0
 71
     0
  1
AcDbOsnapPointRef
 72
    10
331
5CA
 73
     2
 91
        0
 40
0.3164824024795909
 10
0.0
 20
0.0
 30
0.0
 75
     0
  1
AcDbOsnapPointRef
 72
    10
331
5CB
 73
     2
 91
        0
 40
0.3544368211948527
 10
0.0
 20
0.0
 30
0.0
 75
     0
  0
DIMASSOC
  5
1510
102
{ACAD_REACTORS
330
1506
102
}
330
1506
100
AcDbDimAssoc
330
14F9
 90
        3
 70
     0
 71
     0
  1
AcDbOsnapPointRef
 72
    10
331
55E
 73
     2
 91
        0
 40
0.8070656224440913
 10
0.0
 20
0.0
 30
0.0
 75
     0
  1
AcDbOsnapPointRef
 72
     8
331
571
 73
     2
 91
        0
 40
0.8070656224440913
 10
0.0
 20
0.0
 30
0.0
 75
     1
  1
AcDbOsnapPointRef
 72
    10
331
55E
 73
     2
 91
        0
 40
0.8070656224440913
 10
0.0
 20
0.0
 30
0.0
 75
     0
  0
DIMASSOC
  5
1528
102
{ACAD_REACTORS
330
151E
102
}
330
151E
100
AcDbDimAssoc
330
1511
 90
        3
 70
     0
 71
     0
  1
AcDbOsnapPointRef
 72
    10
331
F67
 73
     2
 91
        0
 40
0.3155562390262345
 10
0.0
 20
0.0
 30
0.0
 75
     0
  1
AcDbOsnapPointRef
 72
     8
331
12DB
 73
     2
 91
        0
 40
0.3155562390262345
 10
0.0
 20
0.0
 30
0.0
 75
     1
  1
AcDbOsnapPointRef
 72
    10
331
F67
 73
     2
 91
        0
 40
0.3155562390262345
 10
0.0
 20
0.0
 30
0.0
 75
     0
  0
DIMASSOC
  5
1540
102
{ACAD_REACTORS
330
1536
102
}
330
1536
100
AcDbDimAssoc
330
1529
 90
        3
 70
     0
 71
     0
  1
AcDbOsnapPointRef
 72
     2
331
FAC
 73
     2
 91
        0
 40
0.5
 10
0.0
 20
0.0
 30
0.0
 75
     0
  1
AcDbOsnapPointRef
 72
     2
331
1308
 73
     2
 91
        0
 40
0.5
 10
0.0
 20
0.0
 30
0.0
 75
     0
  0
LAYOUT
  5
22
102
{ACAD_REACTORS
330
1A
102
}
330
1A
100
AcDbPlotSettings
  1

  2
none_device
  4
ISO_A4_(210.00_x_297.00_MM)
  6

 40
7.5
 41
20.0
 42
7.5
 43
20.0
 44
210.0
 45
297.0
 46
11.54999923706054
 47
-13.65000009536743
 48
0.0
 49
0.0
140
0.0
141
0.0
142
1.0
143
8.704084754739808
 70
 11952
 72
     1
 73
     0
 74
     0
  7

 75
     0
147
0.1148885871608098
 76
     0
 77
     2
 78
   300
148
0.0
149
0.0
100
AcDbLayout
  1
Model
 70
     1
 71
     0
 10
0.0
 20
0.0
 11
12.0
 21
9.0
 12
0.0
 22
0.0
 32
0.0
 14
0.0
 24
0.0
 34
0.0
 15
0.0
 25
0.0
 35
0.0
146
0.0
 13
0.0
 23
0.0
 33
0.0
 16
1.0
 26
0.0
 36
0.0
 17
0.0
 27
1.0
 37
0.0
 76
     0
330
1F
331
EB
1001
ACAD_PSEXT
1000
None
1000
None
1000
Not applicable
1000
The layout will not be plotted unless a new plotter configuration name is selected.
1070
     0
  0
LAYOUT
  5
D3
102
{ACAD_REACTORS
330
1A
102
}
330
1A
100
AcDbPlotSettings
  1

  2
C:\Documents and Settings\basas\Application Data\Autodesk\AutoCAD 2005\R16.1\enu\plotters\Default Windows System Printer.pc3
  4

  6

 40
0.0
 41
0.0
 42
0.0
 43
0.0
 44
0.0
 45
0.0
 46
0.0
 47
0.0
 48
0.0
 49
0.0
140
0.0
141
0.0
142
1.0
143
1.0
 70
   688
 72
     0
 73
     0
 74
     5
  7

 75
    16
147
1.0
 76
     0
 77
     2
 78
   300
148
0.0
149
0.0
100
AcDbLayout
  1
布局1
 70
     1
 71
     1
 10
0.0
 20
0.0
 11
12.0
 21
9.0
 12
0.0
 22
0.0
 32
0.0
 14
0.0
 24
0.0
 34
0.0
 15
0.0
 25
0.0
 35
0.0
146
0.0
 13
0.0
 23
0.0
 33
0.0
 16
1.0
 26
0.0
 36
0.0
 17
0.0
 27
1.0
 37
0.0
 76
     0
330
D2
  0
LAYOUT
  5
D7
102
{ACAD_REACTORS
330
1A
102
}
330
1A
100
AcDbPlotSettings
  1

  2
C:\Documents and Settings\basas\Application Data\Autodesk\AutoCAD 2005\R16.1\enu\plotters\Default Windows System Printer.pc3
  4

  6

 40
0.0
 41
0.0
 42
0.0
 43
0.0
 44
0.0
 45
0.0
 46
0.0
 47
0.0
 48
0.0
 49
0.0
140
0.0
141
0.0
142
1.0
143
1.0
 70
   688
 72
     0
 73
     0
 74
     5
  7

 75
    16
147
1.0
 76
     0
 77
     2
 78
   300
148
0.0
149
0.0
100
AcDbLayout
  1
布局2
 70
     1
 71
     2
 10
0.0
 20
0.0
 11
12.0
 21
9.0
 12
0.0
 22
0.0
 32
0.0
 14
0.0
 24
0.0
 34
0.0
 15
0.0
 25
0.0
 35
0.0
146
0.0
 13
0.0
 23
0.0
 33
0.0
 16
1.0
 26
0.0
 36
0.0
 17
0.0
 27
1.0
 37
0.0
 76
     0
330
D6
  0
MATERIAL
  5
EE
102
{ACAD_REACTORS
330
6A
102
}
330
6A
100
AcDbMaterial
  1
ByBlock
  0
MATERIAL
  5
ED
102
{ACAD_REACTORS
330
6A
102
}
330
6A
100
AcDbMaterial
  1
ByLayer
  0
MATERIAL
  5
EF
102
{ACAD_REACTORS
330
6A
102
}
330
6A
100
AcDbMaterial
  1
Global
  0
MLINESTYLE
  5
18
102
{ACAD_REACTORS
330
17
102
}
330
17
100
AcDbMlineStyle
  2
STANDARD
 70
     0
  3

 62
   256
 51
90.0
 52
90.0
 71
     2
 49
0.5
 62
   256
  6
BYLAYER
 49
-0.5
 62
   256
  6
BYLAYER
  0
ACDBPLACEHOLDER
  5
F
102
{ACAD_REACTORS
330
E
102
}
330
E
  0
TABLESTYLE
  5
7F
102
{ACAD_REACTORS
330
7E
102
}
330
7E
100
AcDbTableStyle
  3
Standard
 70
     0
 71
     0
 40
1.5
 41
1.5
280
     0
281
     0
  7
Standard
140
4.5
170
     2
 62
     0
 63
     7
283
     0
 90
      512
 91
        0
  1

274
    -2
284
     1
 64
     0
275
    -2
285
     1
 65
     0
276
    -2
286
     1
 66
     0
277
    -2
287
     1
 67
     0
278
    -2
288
     1
 68
     0
279
    -2
289
     1
 69
     0
  7
Standard
140
6.0
170
     5
 62
     0
 63
     7
283
     0
 90
      512
 91
        0
  1

274
    -2
284
     1
 64
     0
275
    -2
285
     1
 65
     0
276
    -2
286
     1
 66
     0
277
    -2
287
     1
 67
     0
278
    -2
288
     1
 68
     0
279
    -2
289
     1
 69
     0
  7
Standard
140
4.5
170
     5
 62
     0
 63
     7
283
     0
 90
      512
 91
        0
  1

274
    -2
284
     1
 64
     0
275
    -2
285
     1
 65
     0
276
    -2
286
     1
 66
     0
277
    -2
287
     1
 67
     0
278
    -2
288
     1
 68
     0
279
    -2
289
     1
 69
     0
  0
VISUALSTYLE
  5
F6
102
{ACAD_REACTORS
330
F0
102
}
330
F0
100
AcDbVisualStyle
  2
2dWireframe
 70
     4
 71
     0
 72
     2
 73
     1
 90
        0
 40
-0.6
 41
-30.0
 62
     5
 63
     7
421
 16777215
 74
     1
 91
        4
 64
     7
 65
   257
 75
     1
175
     1
 42
1.0
 92
        0
 66
   257
 43
1.0
 76
     1
 77
     6
 78
     2
 67
     7
 79
     5
170
     0
171
     0
290
     0
174
     0
 93
        1
 44
0.0
173
     0
291
     0
 45
0.0
  0
VISUALSTYLE
  5
F8
102
{ACAD_REACTORS
330
F0
102
}
330
F0
100
AcDbVisualStyle
  2
3D Hidden
 70
     6
 71
     1
 72
     2
 73
     2
 90
        0
 40
-0.6
 41
-30.0
 62
     5
 63
     7
421
 16777215
 74
     2
 91
        2
 64
     7
 65
   257
 75
     2
175
     1
 42
40.0
 92
        0
 66
   257
 43
1.0
 76
     1
 77
     6
 78
     2
 67
     7
 79
     3
170
     0
171
     0
290
     0
174
     0
 93
        1
 44
0.0
173
     0
291
     0
 45
0.0
  0
VISUALSTYLE
  5
F7
102
{ACAD_REACTORS
330
F0
102
}
330
F0
100
AcDbVisualStyle
  2
3dWireframe
 70
     5
 71
     0
 72
     2
 73
     1
 90
        0
 40
-0.6
 41
-30.0
 62
     5
 63
     7
421
 16777215
 74
     1
 91
        4
 64
     7
 65
   257
 75
     1
175
     1
 42
1.0
 92
        0
 66
   257
 43
1.0
 76
     1
 77
     6
 78
     2
 67
     7
 79
     5
170
     0
171
     0
290
     0
174
     0
 93
        1
 44
0.0
173
     0
291
     0
 45
0.0
  0
VISUALSTYLE
  5
F5
102
{ACAD_REACTORS
330
F0
102
}
330
F0
100
AcDbVisualStyle
  2
Basic
 70
     7
 71
     1
 72
     0
 73
     1
 90
        0
 40
-0.6
 41
-30.0
 62
     5
 63
     7
421
 16777215
 74
     0
 91
        4
 64
     7
 65
   257
 75
     1
175
     1
 42
1.0
 92
        8
 66
     7
 43
1.0
 76
     1
 77
     6
 78
     2
 67
     7
 79
     5
170
     0
171
     0
290
     0
174
     0
 93
        1
 44
0.0
173
     0
291
     1
 45
0.0
  0
VISUALSTYLE
  5
FC
102
{ACAD_REACTORS
330
F0
102
}
330
F0
100
AcDbVisualStyle
  2
Brighten
 70
    12
 71
     2
 72
     2
 73
     1
 90
        0
 40
-0.6
 41
-30.0
 62
     5
 63
     7
421
 16777215
 74
     1
 91
        4
 64
     7
 65
   257
 75
     1
175
     1
 42
1.0
 92
        8
 66
     7
 43
1.0
 76
     1
 77
     6
 78
     2
 67
     7
 79
     5
170
     0
171
     0
290
     0
174
     0
 93
        1
 44
50.0
173
     0
291
     1
 45
0.0
  0
VISUALSTYLE
  5
100
102
{ACAD_REACTORS
330
F0
102
}
330
F0
100
AcDbVisualStyle
  2
ColorChange
 70
    16
 71
     2
 72
     2
 73
     3
 90
        0
 40
-0.6
 41
-30.0
 62
     5
 63
     8
421
  8421504
 74
     1
 91
        4
 64
     7
 65
   257
 75
     1
175
     1
 42
1.0
 92
        8
 66
     8
424
  8421504
 43
1.0
 76
     1
 77
     6
 78
     2
 67
     7
 79
     5
170
     0
171
     0
290
     0
174
     0
 93
        1
 44
0.0
173
     0
291
     1
 45
0.0
  0
VISUALSTYLE
  5
F9
102
{ACAD_REACTORS
330
F0
102
}
330
F0
100
AcDbVisualStyle
  2
Conceptual
 70
     9
 71
     3
 72
     2
 73
     1
 90
        0
 40
-0.6
 41
-30.0
 62
     5
 63
     7
421
 16777215
 74
     2
 91
        2
 64
     7
 65
   257
 75
     1
175
     1
 42
40.0
 92
        8
 66
     7
 43
1.0
 76
     1
 77
     6
 78
     2
 67
     7
 79
     3
170
     0
171
     0
290
     0
174
     0
 93
        1
 44
0.0
173
     0
291
     0
 45
0.0
  0
VISUALSTYLE
  5
FB
102
{ACAD_REACTORS
330
F0
102
}
330
F0
100
AcDbVisualStyle
  2
Dim
 70
    11
 71
     2
 72
     2
 73
     1
 90
        0
 40
-0.6
 41
-30.0
 62
     5
 63
     7
421
 16777215
 74
     1
 91
        4
 64
     7
 65
   257
 75
     1
175
     1
 42
1.0
 92
        8
 66
     7
 43
1.0
 76
     1
 77
     6
 78
     2
 67
     7
 79
     5
170
     0
171
     0
290
     0
174
     0
 93
        1
 44
-50.0
173
     0
291
     1
 45
0.0
  0
VISUALSTYLE
  5
FF
102
{ACAD_REACTORS
330
F0
102
}
330
F0
100
AcDbVisualStyle
  2
Facepattern
 70
    15
 71
     2
 72
     2
 73
     1
 90
        0
 40
-0.6
 41
-30.0
 62
     5
 63
     7
421
 16777215
 74
     1
 91
        4
 64
     7
 65
   257
 75
     1
175
     1
 42
1.0
 92
        8
 66
     7
 43
1.0
 76
     1
 77
     6
 78
     2
 67
     7
 79
     5
170
     0
171
     0
290
     0
174
     0
 93
        1
 44
0.0
173
     0
291
     1
 45
0.0
  0
VISUALSTYLE
  5
F1
102
{ACAD_REACTORS
330
F0
102
}
330
F0
100
AcDbVisualStyle
  2
Flat
 70
     0
 71
     2
 72
     1
 73
     1
 90
        2
 40
-0.6
 41
30.0
 62
     5
 63
     7
421
 16777215
 74
     0
 91
        4
 64
     7
 65
   257
 75
     1
175
     1
 42
1.0
 92
        8
 66
     7
 43
1.0
 76
     1
 77
     6
 78
     2
 67
     7
 79
     5
170
     0
171
     0
290
     0
174
     0
 93
        1
 44
0.0
173
     0
291
     1
 45
0.0
  0
VISUALSTYLE
  5
F2
102
{ACAD_REACTORS
330
F0
102
}
330
F0
100
AcDbVisualStyle
  2
FlatWithEdges
 70
     1
 71
     2
 72
     1
 73
     1
 90
        2
 40
-0.6
 41
30.0
 62
     5
 63
     7
421
 16777215
 74
     1
 91
        4
 64
     7
 65
   257
 75
     1
175
     1
 42
1.0
 92
        0
 66
   257
 43
1.0
 76
     1
 77
     6
 78
     2
 67
     7
 79
     5
170
     0
171
     0
290
     0
174
     0
 93
        1
 44
0.0
173
     0
291
     1
 45
0.0
  0
VISUALSTYLE
  5
F3
102
{ACAD_REACTORS
330
F0
102
}
330
F0
100
AcDbVisualStyle
  2
Gouraud
 70
     2
 71
     2
 72
     2
 73
     1
 90
        2
 40
-0.6
 41
30.0
 62
     5
 63
     7
421
 16777215
 74
     0
 91
        4
 64
     7
 65
   257
 75
     1
175
     1
 42
1.0
 92
        0
 66
     7
 43
1.0
 76
     1
 77
     6
 78
     2
 67
     7
 79
     5
170
     0
171
     0
290
     0
174
     0
 93
        1
 44
0.0
173
     0
291
     1
 45
0.0
  0
VISUALSTYLE
  5
F4
102
{ACAD_REACTORS
330
F0
102
}
330
F0
100
AcDbVisualStyle
  2
GouraudWithEdges
 70
     3
 71
     2
 72
     2
 73
     1
 90
        2
 40
-0.6
 41
30.0
 62
     5
 63
     7
421
 16777215
 74
     1
 91
        4
 64
     7
 65
   257
 75
     1
175
     1
 42
1.0
 92
        0
 66
   257
 43
1.0
 76
     1
 77
     6
 78
     2
 67
     7
 79
     5
170
     0
171
     0
290
     0
174
     0
 93
        1
 44
0.0
173
     0
291
     1
 45
0.0
  0
VISUALSTYLE
  5
FE
102
{ACAD_REACTORS
330
F0
102
}
330
F0
100
AcDbVisualStyle
  2
Linepattern
 70
    14
 71
     2
 72
     2
 73
     1
 90
        0
 40
-0.6
 41
-30.0
 62
     5
 63
     7
421
 16777215
 74
     1
 91
        4
 64
     7
 65
   257
 75
     7
175
     7
 42
1.0
 92
        8
 66
     7
 43
1.0
 76
     1
 77
     6
 78
     2
 67
     7
 79
     5
170
     0
171
     0
290
     0
174
     0
 93
        1
 44
0.0
173
     0
291
     1
 45
0.0
  0
VISUALSTYLE
  5
FA
102
{ACAD_REACTORS
330
F0
102
}
330
F0
100
AcDbVisualStyle
  2
Realistic
 70
     8
 71
     2
 72
     2
 73
     1
 90
        0
 40
-0.6
 41
-30.0
 62
     5
 63
     7
421
 16777215
 74
     1
 91
        0
 64
     7
 65
   257
 75
     1
175
     1
 42
1.0
 92
        8
 66
     8
424
  7895160
 43
1.0
 76
     1
 77
     6
 78
     2
 67
     7
 79
     5
170
     0
171
     0
290
     0
174
     0
 93
       13
 44
0.0
173
     0
291
     0
 45
0.0
  0
VISUALSTYLE
  5
FD
102
{ACAD_REACTORS
330
F0
102
}
330
F0
100
AcDbVisualStyle
  2
Thicken
 70
    13
 71
     2
 72
     2
 73
     1
 90
        0
 40
-0.6
 41
-30.0
 62
     5
 63
     7
421
 16777215
 74
     1
 91
        4
 64
     7
 65
   257
 75
     1
175
     1
 42
1.0
 92
       12
 66
     7
 43
1.0
 76
     1
 77
     6
 78
     2
 67
     7
 79
     5
170
     0
171
     0
290
     0
174
     0
 93
        1
 44
0.0
173
     0
291
     1
 45
0.0
  0
DICTIONARYVAR
  5
84
102
{ACAD_REACTORS
330
5E
102
}
330
5E
100
DictionaryVariables
280
     0
  1
STANDARD
  0
DICTIONARYVAR
  5
5F
102
{ACAD_REACTORS
330
5E
102
}
330
5E
100
DictionaryVariables
280
     0
  1
2
  0
DICTIONARYVAR
  5
63
102
{ACAD_REACTORS
330
5E
102
}
330
5E
100
DictionaryVariables
280
     0
  1
1
  0
ENDSEC
  0
EOF
